osu file format v14

[General]
AudioFilename: audio.mp3
AudioLeadIn: 0
PreviewTime: 68
Countdown: 0
SampleSet: Soft
StackLeniency: 0.7
Mode: 0
LetterboxInBreaks: 0
WidescreenStoryboard: 0

[Editor]
DistanceSpacing: 0.8
BeatDivisor: 4
GridSize: 4
TimelineZoom: 1.5

[Metadata]
Title:Gravity Falls Theme Song
TitleUnicode:Gravity Falls Theme Song
Artist:Brad Breeck
ArtistUnicode:Brad Breeck
Creator:Alphabet
Version:Mystery
Source:Gravity Falls
Tags:bradbreeck cartoon animated TV television Alex Hirsch Dipper Mabel Grunkle Stan animation Disney XD Channel Bubblun Reel Walt Records Main Title
BeatmapID:1119026
BeatmapSetID:527431

[Difficulty]
HPDrainRate:6
CircleSize:4
OverallDifficulty:8
ApproachRate:8.8
SliderMultiplier:1.8
SliderTickRate:1

[Events]
//Background and Video events
0,0,"luminaty.jpg",0,0
//Break Periods
//Storyboard Layer 0 (Background)
//Storyboard Layer 1 (Fail)
//Storyboard Layer 2 (Pass)
//Storyboard Layer 3 (Foreground)
//Storyboard Sound Samples

[TimingPoints]
70,361.881785283474,4,2,1,40,1,0
70,-125,4,2,1,40,0,0
1515,-125,4,2,1,40,0,0
4412,-125,4,2,1,45,0,0
5136,-111.111111111111,4,2,1,50,0,0
5498,-111.111111111111,4,2,1,40,0,0
5860,-100,4,2,1,55,0,0
17440,-83.3333333333333,4,2,1,70,0,1
29020,-83.3333333333333,4,2,1,65,0,0
34810,-76.9230769230769,4,2,1,70,0,0
36258,-181.818181818182,4,2,1,35,0,0
38429,-250,4,2,1,35,0,0
39153,-250,4,2,1,10,0,0

[Colours]
Combo1 : 183,0,0
Combo2 : 215,107,0
Combo3 : 158,158,158
Combo4 : 128,225,128

[HitObjects]
336,240,70,6,0,P|384:256|424:248,2,72,2|0|0,0:0|0:0|0:0,0:0:0:0:
256,192,612,1,8,0:0:0:0:
176,240,793,2,0,P|128:256|88:248,2,72,10|0|8,0:0|0:0|0:0,0:0:0:0:
256,192,1336,1,0,0:0:0:0:
256,288,1517,6,0,L|256:360,2,72,10|0|0,0:0|0:0|0:0,0:0:0:0:
256,192,2060,1,8,0:0:0:0:
256,96,2241,2,0,L|256:24,2,72,10|0|8,0:0|0:0|0:0,0:0:0:0:
256,192,2784,1,0,0:0:0:0:
336,136,2965,6,0,L|368:72,1,72,10|0,0:0|0:0,0:0:0:0:
256,24,3326,2,0,L|256:96,1,72,0|8,0:0|0:0,0:0:0:0:
176,136,3688,2,0,L|144:72,1,72,10|0,0:0|0:0,0:0:0:0:
72,136,4050,1,8,0:0:0:0:
96,224,4231,1,0,0:0:0:0:
8,316,4412,5,8,0:0:0:0:
16,212,4593,1,8,0:0:0:0:
96,352,4774,1,8,0:0:0:0:
128,200,4955,1,8,0:0:0:0:
248,256,5136,5,8,0:0:0:0:
136,280,5317,1,8,0:0:0:0:
304,184,5498,1,8,0:0:0:0:
320,216,5588,1,8,0:0:0:0:
328,248,5679,1,8,0:0:0:0:
328,280,5769,1,8,0:0:0:0:
312,320,5860,6,0,P|392:296|496:336,1,180,4|2,0:0|0:0,0:0:0:0:
400,208,6402,1,0,0:0:0:0:
472,120,6583,2,0,L|488:224,1,90,8|0,0:0|0:0,0:0:0:0:
288,148,6945,1,2,0:0:0:0:
400,208,7126,1,0,0:0:0:0:
220,200,7307,6,0,P|204:132|296:62,1,180,8|2,0:0|0:0,0:0:0:0:
288,148,7850,1,0,0:0:0:0:
256,272,8031,2,0,P|160:256|144:236,1,90,8|0,0:0|0:0,0:0:0:0:
120,164,8393,1,2,0:0:0:0:
288,148,8574,1,0,0:0:0:0:
288,148,8664,1,0,0:0:0:0:
288,148,8755,6,0,B|328:224|328:224|332:340,1,180,8|2,0:0|0:0,0:0:0:0:
412,160,9297,2,0,L|416:256,1,90,0|8,0:0|0:0,0:0:0:0:
488,84,9659,1,0,0:0:0:0:
281,58,9840,2,0,L|289:162,1,90,2|0,0:0|0:0,0:0:0:0:
192,240,10202,6,0,L|198:150,1,90,8|0,0:0|0:0,0:0:0:0:
28,80,10564,1,2,0:0:0:0:
116,172,10745,1,0,0:0:0:0:
4,272,10926,1,8,0:0:0:0:
8,168,11107,1,8,0:0:0:0:
88,320,11288,2,0,P|136:328|184:312,1,90,2|0,0:0|0:0,0:0:0:0:
244,176,11650,6,0,P|224:248|316:312,1,180,8|2,0:0|0:0,0:0:0:0:
392,200,12193,1,0,0:0:0:0:
304,232,12373,1,8,0:0:0:0:
408,288,12554,1,0,0:0:0:0:
423,115,12735,2,0,L|387:211,1,90,2|0,0:0|0:0,0:0:0:0:
504,64,13097,6,0,P|456:28|332:84,1,180,8|2,0:0|0:0,0:0:0:0:
392,200,13640,1,0,0:0:0:0:
504,40,13821,6,0,P|456:4|336:60,1,180,8|2,0:0|0:0,0:0:0:0:
200,128,14364,1,8,0:0:0:0:
200,128,14454,1,8,0:0:0:0:
200,128,14545,6,0,P|184:80|200:32,1,90,8|0,0:0|0:0,0:0:0:0:
288,168,14907,2,0,P|296:211|283:256,1,90,2|0,0:0|0:0,0:0:0:0:
120,272,15269,1,8,0:0:0:0:
208,208,15449,1,0,0:0:0:0:
176,352,15630,1,2,0:0:0:0:
120,176,15811,1,0,0:0:0:0:
256,288,15992,5,8,0:0:0:0:
120,272,16173,1,0,0:0:0:0:
296,208,16354,1,2,0:0:0:0:
272,376,16535,1,0,0:0:0:0:
192,160,16716,5,8,0:0:0:0:
256,288,16897,1,0,0:0:0:0:
368,128,17078,1,10,0:0:0:0:
296,208,17259,1,8,0:0:0:0:
296,208,17349,1,8,0:0:0:0:
296,208,17440,6,0,L|280:96,1,107.999996704102,12|0,0:0|0:0,0:0:0:0:
416,224,17802,2,0,L|400:330,1,107.999996704102,2|0,0:0|0:0,0:0:0:0:
208,208,18164,2,0,P|192:160|208:80,1,107.999996704102,10|0,0:0|0:0,0:0:0:0:
480,168,18525,2,0,P|496:216|470:295,1,107.999996704102,2|0,0:0|0:0,0:0:0:0:
320,216,18887,5,8,0:0:0:0:
416,224,19068,1,0,0:0:0:0:
256,344,19249,2,0,L|240:208,1,107.999996704102,2|0,0:0|0:0,0:0:0:0:
344,96,19611,2,0,L|331:203,1,107.999996704102,8|0,0:0|0:0,0:0:0:0:
336,304,19973,1,2,0:0:0:0:
248,152,20154,1,8,0:0:0:0:
248,152,20244,1,8,0:0:0:0:
248,152,20335,6,0,B|192:136|192:136|136:152,1,107.999996704102,8|0,0:0|0:0,0:0:0:0:
184,312,20697,2,0,P|208:248|184:200,1,107.999996704102,2|0,0:0|0:0,0:0:0:0:
56,196,21059,2,0,P|99:248|152:252,1,107.999996704102,10|0,0:0|0:0,0:0:0:0:
220,144,21421,2,0,P|152:155|123:200,1,107.999996704102,2|0,0:0|0:0,0:0:0:0:
288,272,21782,5,8,0:0:0:0:
320,168,21963,1,0,0:0:0:0:
210,246,22144,2,0,P|220:320|256:348,1,107.999996704102,2|0,0:0|0:0,0:0:0:0:
392,242,22506,2,0,L|408:136,1,107.999996704102,8|0,0:0|0:0,0:0:0:0:
224,56,22868,2,0,L|240:168,1,107.999996704102,2|8,0:0|0:0,0:0:0:0:
216,264,23139,1,8,0:0:0:0:
216,264,23230,6,0,P|160:280|88:240,1,107.999996704102,8|0,0:0|0:0,0:0:0:0:
48,112,23592,2,0,L|40:232,1,107.999996704102,2|0,0:0|0:0,0:0:0:0:
168,200,23954,2,0,L|176:80,1,107.999996704102,10|0,0:0|0:0,0:0:0:0:
304,56,24316,2,0,L|296:176,1,107.999996704102,2|0,0:0|0:0,0:0:0:0:
344,304,24677,5,8,0:0:0:0:
360,216,24858,1,0,0:0:0:0:
208,280,25039,2,0,L|280:368,1,107.999996704102,2|0,0:0|0:0,0:0:0:0:
472,264,25401,1,8,0:0:0:0:
360,216,25582,1,0,0:0:0:0:
456,176,25763,1,2,0:0:0:0:
424,344,25944,1,8,0:0:0:0:
424,344,26035,1,8,0:0:0:0:
424,344,26125,5,8,0:0:0:0:
360,200,26306,1,0,0:0:0:0:
336,360,26487,1,2,0:0:0:0:
440,200,26668,1,0,0:0:0:0:
280,144,26849,5,10,0:0:0:0:
368,280,27030,1,0,0:0:0:0:
384,104,27211,1,2,0:0:0:0:
280,264,27392,1,8,0:0:0:0:
280,264,27482,1,8,0:0:0:0:
280,264,27573,5,8,0:0:0:0:
128,288,27753,1,0,0:0:0:0:
208,160,27934,1,2,0:0:0:0:
212,336,28115,1,0,0:0:0:0:
112,208,28296,5,10,0:0:0:0:
32,320,28477,1,0,0:0:0:0:
204,260,28658,1,2,0:0:0:0:
32,224,28839,1,8,0:0:0:0:
32,224,28930,1,8,0:0:0:0:
32,224,29020,6,0,P|16:168|40:100,1,107.999996704102,12|0,0:0|0:0,0:0:0:0:
128,48,29382,1,2,0:0:0:0:
104,167,29563,1,0,0:0:0:0:
224,56,29744,1,10,0:0:0:0:
200,200,29925,1,0,0:0:0:0:
312,48,30106,1,2,0:0:0:0:
332,228,30287,1,0,0:0:0:0:
480,120,30468,6,0,P|432:88|344:104,1,107.999996704102,10|0,0:0|0:0,0:0:0:0:
332,228,30829,2,0,P|383:202|413:118,1,107.999996704102,2|0,0:0|0:0,0:0:0:0:
312,48,31191,2,0,P|308:105|366:173,1,107.999996704102,10|0,0:0|0:0,0:0:0:0:
480,192,31553,1,2,0:0:0:0:
336,232,31734,1,8,0:0:0:0:
336,232,31825,1,8,0:0:0:0:
336,232,31915,6,0,L|216:216,1,107.999996704102,8|0,0:0|0:0,0:0:0:0:
112,192,32277,1,2,0:0:0:0:
208,128,32458,1,0,0:0:0:0:
168,280,32639,1,10,0:0:0:0:
128,112,32820,1,0,0:0:0:0:
280,160,33001,1,2,0:0:0:0:
88,256,33182,1,0,0:0:0:0:
216,96,33363,6,0,P|281:71|372:169,1,215.999993408203,10|8,0:0|0:0,0:0:0:0:
320,280,33905,1,0,0:0:0:0:
439,92,34086,2,0,P|338:75|280:159,1,215.999993408203,10|8,0:0|0:0,0:0:0:0:
320,280,34629,1,0,0:0:0:0:
496,216,34810,6,0,L|360:192,1,116.999994644165,10|0,0:0|0:0,0:0:0:0:
204,300,35172,2,0,L|340:276,1,116.999994644165,8|0,0:0|0:0,0:0:0:0:
152,168,35534,1,10,0:0:0:0:
112,304,35715,1,0,0:0:0:0:
248,176,35896,1,8,0:0:0:0:
80,120,36077,1,8,0:0:0:0:
80,120,36167,1,8,0:0:0:0:
80,120,36258,6,0,B|256:120|256:120|176:8|176:8|120:96,1,396.000012084961,8|0,0:0|0:0,0:0:0:0:
327,87,38429,6,0,P|326:156|272:200,1,144,2|0,0:0|0:0,0:0:0:0:
