osu file format v14

[General]
AudioFilename: audio.mp3
AudioLeadIn: 0
PreviewTime: 68
Countdown: 0
SampleSet: Soft
StackLeniency: 0.7
Mode: 0
LetterboxInBreaks: 0
WidescreenStoryboard: 1

[Editor]
DistanceSpacing: 1.2
BeatDivisor: 4
GridSize: 4
TimelineZoom: 1.5

[Metadata]
Title:Gravity Falls Theme Song
TitleUnicode:Gravity Falls Theme Song
Artist:Brad Breeck
ArtistUnicode:Brad Breeck
Creator:Alphabet
Version:Hard
Source:Gravity Falls
Tags:bradbreeck cartoon animated TV television Alex Hirsch Dipper Mabel Grunkle Stan animation Disney XD Channel Bubblun Reel Walt Records Main Title
BeatmapID:1119043
BeatmapSetID:527431

[Difficulty]
HPDrainRate:5.4
CircleSize:4
OverallDifficulty:6
ApproachRate:7.6
SliderMultiplier:1.5
SliderTickRate:1

[Events]
//Background and Video events
0,0,"luminaty.jpg",0,0
//Break Periods
//Storyboard Layer 0 (Background)
//Storyboard Layer 1 (Fail)
//Storyboard Layer 2 (Pass)
//Storyboard Layer 3 (Foreground)
//Storyboard Sound Samples

[TimingPoints]
70,361.881785283474,4,2,1,40,1,0
70,-125,4,2,1,40,0,0
1515,-125,4,2,1,40,0,0
4412,-125,4,2,1,45,0,0
5136,-125,4,2,1,50,0,0
5860,-100,4,2,1,60,0,0
15992,-100,4,2,1,65,0,0
17440,-83.3333333333333,4,2,1,70,0,1
29020,-83.3333333333333,4,2,1,65,0,0
34810,-76.9230769230769,4,2,1,70,0,0
36439,-200,4,2,1,35,0,0
39153,-200,4,2,1,10,0,0

[Colours]
Combo1 : 183,0,0
Combo2 : 215,107,0
Combo3 : 158,158,158
Combo4 : 128,225,128

[HitObjects]
320,210,70,6,0,L|384:218,2,60,2|0|0,0:0|0:0|0:0,0:0:0:0:
256,168,612,1,8,0:0:0:0:
192,210,793,2,0,L|128:218,2,60,10|0|8,0:0|0:0|0:0,0:0:0:0:
256,168,1336,1,0,0:0:0:0:
256,248,1517,6,0,L|256:320,2,60,10|0|0,0:0|0:0|0:0,0:0:0:0:
256,168,2060,1,8,0:0:0:0:
256,88,2241,2,0,L|256:16,2,60,10|0|8,0:0|0:0|0:0,0:0:0:0:
256,168,2784,1,0,0:0:0:0:
328,216,2965,6,0,L|328:296,1,60,10|0,0:0|0:0,0:0:0:0:
184,216,3326,2,0,L|184:296,1,60,0|8,0:0|0:0,0:0:0:0:
256,344,3688,2,0,L|256:264,1,60,10|0,0:0|0:0,0:0:0:0:
256,168,4050,2,0,L|256:88,1,60,8|0,0:0|0:0,0:0:0:0:
320,40,4412,5,8,0:0:0:0:
320,40,4593,1,8,0:0:0:0:
400,80,4774,2,0,P|432:88|464:80,1,60,8|8,0:0|0:0,0:0:0:0:
344,152,5136,2,0,P|312:160|280:152,1,60,8|8,0:0|0:0,0:0:0:0:
412,220,5498,2,0,L|420:268,3,30,8|8|8|8,0:0|0:0|0:0|0:0,0:0:0:0:
368,256,5860,6,0,P|304:288|224:256,1,150,4|2,0:0|0:0,0:0:0:0:
184,192,6402,1,0,0:0:0:0:
136,264,6583,2,0,L|136:344,1,75,8|0,0:0|0:0,0:0:0:0:
48,264,6945,2,0,L|48:184,1,75,2|0,0:0|0:0,0:0:0:0:
104,104,7307,6,0,P|168:136|248:104,1,150,8|2,0:0|0:0,0:0:0:0:
296,48,7850,1,0,0:0:0:0:
384,48,8031,2,0,L|488:48,1,75,8|0,0:0|0:0,0:0:0:0:
496,128,8393,1,2,0:0:0:0:
496,128,8574,1,0,0:0:0:0:
448,200,8755,6,0,P|400:184|304:240,1,150,8|2,0:0|0:0,0:0:0:0:
256,304,9297,2,0,P|193:342|121:327,1,150
56,248,9840,2,0,L|48:344,1,75,2|0,0:0|0:0,0:0:0:0:
144,248,10202,6,0,P|136:200|104:160,1,75,8|0,0:0|0:0,0:0:0:0:
48,128,10564,2,0,P|56:80|88:40,1,75,2|0,0:0|0:0,0:0:0:0:
152,24,10926,1,8,0:0:0:0:
232,64,11107,1,8,0:0:0:0:
304,16,11288,2,0,L|384:16,1,75,2|0,0:0|0:0,0:0:0:0:
464,80,11650,6,0,P|480:128|416:208,2,150,8|2|8,0:0|0:0|0:0,0:0:0:0:
384,104,12554,1,0,0:0:0:0:
304,128,12735,2,0,L|298:222,1,75,2|0,0:0|0:0,0:0:0:0:
248,296,13097,6,0,B|216:256|216:256|224:136,1,150,8|2,0:0|0:0,0:0:0:0:
184,72,13640,1,0,0:0:0:0:
108,128,13821,2,0,B|140:168|140:168|132:288,1,150,8|2,0:0|0:0,0:0:0:0:
192,352,14364,1,8,0:0:0:0:
296,360,14545,6,0,P|336:368|376:352,1,75,8|0,0:0|0:0,0:0:0:0:
360,240,14907,2,0,P|320:232|280:248,1,75,2|0,0:0|0:0,0:0:0:0:
440,320,15269,2,0,L|448:232,1,75,8|0,0:0|0:0,0:0:0:0:
416,108,15630,2,0,L|408:196,1,75,2|0,0:0|0:0,0:0:0:0:
256,144,15992,6,0,P|304:136|336:152,1,75,8|0,0:0|0:0,0:0:0:0:
200,224,16354,2,0,P|152:232|120:216,1,75,2|0,0:0|0:0,0:0:0:0:
64,112,16716,2,0,L|56:200,1,75,8|0,0:0|0:0,0:0:0:0:
16,280,17078,1,10,0:0:0:0:
104,344,17259,1,8,0:0:0:0:
104,344,17349,1,8,0:0:0:0:
104,344,17440,6,0,P|152:336|200:352,1,89.999997253418,12|0,0:0|0:0,0:0:0:0:
256,272,17802,2,0,P|299:283|343:274,1,89.999997253418,2|0,0:0|0:0,0:0:0:0:
424,320,18164,2,0,L|432:224,1,89.999997253418,10|0,0:0|0:0,0:0:0:0:
344,176,18525,2,0,L|336:80,1,89.999997253418,2|0,0:0|0:0,0:0:0:0:
180,48,18887,5,8,0:0:0:0:
272,24,19068,1,0,0:0:0:0:
192,128,19249,2,0,P|144:120|105:71,1,89.9999972534181,2|0,0:0|0:0,0:0:0:0:
24,136,19611,2,0,L|16:240,1,89.999997253418,8|0,0:0|0:0,0:0:0:0:
80,336,19973,2,0,L|88:232,1,89.999997253418,2|8,0:0|0:0,0:0:0:0:
176,200,20335,5,8,0:0:0:0:
176,200,20697,2,0,P|224:216|272:200,1,89.999997253418,2|0,0:0|0:0,0:0:0:0:
320,136,21059,2,0,P|368:120|416:136,1,89.999997253418,10|0,0:0|0:0,0:0:0:0:
456,200,21421,2,0,L|448:304,1,89.999997253418,2|0,0:0|0:0,0:0:0:0:
320,368,21782,5,8,0:0:0:0:
376,280,21963,1,0,0:0:0:0:
296,200,22144,2,0,L|304:304,1,89.999997253418,2|0,0:0|0:0,0:0:0:0:
200,240,22506,2,0,L|206:150,1,89.999997253418,8|0,0:0|0:0,0:0:0:0:
264,56,22868,2,0,P|216:64|176:48,1,89.999997253418,2|8,0:0|0:0,0:0:0:0:
95,13,23230,5,8,0:0:0:0:
95,13,23592,2,0,L|87:117,1,89.999997253418,2|0,0:0|0:0,0:0:0:0:
22,201,23954,2,0,L|16:112,1,89.999997253418,10|0,0:0|0:0,0:0:0:0:
120,176,24316,2,0,P|168:192|216:168,1,89.999997253418,2|0,0:0|0:0,0:0:0:0:
293,128,24677,5,8,0:0:0:0:
280,216,24858,1,0,0:0:0:0:
232,88,25039,2,0,P|280:56|328:64,1,89.999997253418,2|0,0:0|0:0,0:0:0:0:
384,120,25401,2,0,L|376:216,1,89.999997253418,8|0,0:0|0:0,0:0:0:0:
452,284,25763,2,0,L|459:194,1,89.999997253418,2|8,0:0|0:0,0:0:0:0:
352,320,26125,5,8,0:0:0:0:
352,320,26487,1,2,0:0:0:0:
256,272,26668,1,0,0:0:0:0:
176,336,26849,2,0,P|128:344|64:320,1,89.999997253418,10|0,0:0|0:0,0:0:0:0:
96,184,27211,1,2,0:0:0:0:
133,272,27392,1,8,0:0:0:0:
16,232,27573,5,8,0:0:0:0:
16,232,27934,2,0,L|8:120,1,89.999997253418,2|0,0:0|0:0,0:0:0:0:
116,64,28296,1,10,0:0:0:0:
16,56,28477,1,0,0:0:0:0:
80,136,28658,2,0,P|128:144|176:120,1,89.999997253418,2|8,0:0|0:0,0:0:0:0:
232,56,29020,5,12,0:0:0:0:
232,56,29382,2,0,L|328:48,1,89.999997253418,2|0,0:0|0:0,0:0:0:0:
432,120,29744,1,10,0:0:0:0:
400,24,29925,1,0,0:0:0:0:
352,136,30106,2,0,L|344:232,1,89.999997253418,2|0,0:0|0:0,0:0:0:0:
400,320,30468,6,0,P|352:304|280:320,1,89.999997253418,10|0,0:0|0:0,0:0:0:0:
224,352,30829,2,0,P|179:353|137:338,1,89.999997253418,2|0,0:0|0:0,0:0:0:0:
80,248,31191,2,0,L|64:352,1,89.999997253418,10|0,0:0|0:0,0:0:0:0:
8,216,31553,2,0,L|24:112,1,89.999997253418,2|8,0:0|0:0,0:0:0:0:
104,56,31915,5,8,0:0:0:0:
104,56,32277,1,2,0:0:0:0:
8,48,32458,1,0,0:0:0:0:
104,136,32639,2,0,P|160:112|184:72,1,89.999997253418,10|0,0:0|0:0,0:0:0:0:
256,24,33001,2,0,P|286:56|328:70,1,89.999997253418,2|0,0:0|0:0,0:0:0:0:
392,159,33363,6,0,P|328:159|256:255,1,179.999994506836,10|8,0:0|0:0,0:0:0:0:
352,240,33905,1,0,0:0:0:0:
352,240,34086,2,0,P|303:167|210:155,1,179.999994506836,10|8,0:0|0:0,0:0:0:0:
258,242,34629,1,0,0:0:0:0:
258,242,34810,6,0,L|362:66,1,194.999991073609,10|8,0:0|0:0,0:0:0:0:
448,32,35353,1,0,0:0:0:0:
492,120,35534,2,0,P|496:204|392:260,1,194.999991073609,10|8,0:0|0:0,0:0:0:0:
324,208,36077,1,8,0:0:0:0:
412,168,36258,5,8,0:0:0:0:
256,192,36439,12,0,37705,0:0:0:0:
208,136,38429,6,0,L|192:288,1,150,2|0,0:0|0:0,0:0:0:0:
