osu file format v14

[General]
AudioFilename: audio.mp3
AudioLeadIn: 0
PreviewTime: 2992
Countdown: 0
SampleSet: Soft
StackLeniency: 0.4
Mode: 0
LetterboxInBreaks: 0
WidescreenStoryboard: 1

[Editor]
DistanceSpacing: 1.2
BeatDivisor: 4
GridSize: 8
TimelineZoom: 2.3

[Metadata]
Title:Gravity Falls OST (16bit cover)
TitleUnicode:Gravity Falls OST (16bit cover)
Artist:Brad Breeck
ArtistUnicode:Brad Breeck
Creator:Simuzax
Version:Victor's Light Insane
Source:Gravity Falls
Tags:chiptune opening main theme cartoon victorfernando yshadowxop
BeatmapID:1382557
BeatmapSetID:647316

[Difficulty]
HPDrainRate:6
CircleSize:4
OverallDifficulty:7.5
ApproachRate:8.7
SliderMultiplier:1.4
SliderTickRate:1

[Events]
//Background and Video events
0,0,"q3UqZda.jpg",0,0
//Break Periods
//Storyboard Layer 0 (Background)
//Storyboard Layer 1 (Fail)
//Storyboard Layer 2 (Pass)
//Storyboard Layer 3 (Foreground)
//Storyboard Sound Samples

[TimingPoints]
2992,361.44578313253,4,2,15,50,1,0
9136,-83.3333333333333,4,2,2,50,0,0
10220,-100,4,2,2,40,0,0
11666,-133.333333333333,4,2,2,40,0,0
12570,-100,4,2,2,40,0,0
14558,-133.333333333333,4,2,2,40,0,0
17449,-83.3333333333333,4,2,2,40,0,0
18172,-133.333333333333,4,2,2,40,0,0
19979,-125,4,2,2,40,0,0
20702,-100,4,2,15,50,0,1
26847,-111.111111111111,4,2,15,50,0,1
27208,-125,4,2,15,50,0,1
27570,-142.857142857143,4,2,15,50,0,1
27931,-125,4,2,15,50,0,1
28293,-142.857142857143,4,2,15,50,0,1
28654,-100,4,2,15,50,0,1
29016,-100,4,2,15,40,0,0
29377,-90.9090909090909,4,2,15,40,0,0
29738,-100,4,2,15,40,0,0
30100,-90.9090909090909,4,2,15,40,0,0
30461,-100,4,2,15,40,0,0
30642,-90.9090909090909,4,2,15,40,0,0
30823,-100,4,2,15,40,0,0
31004,-90.9090909090909,4,2,15,40,0,0
31365,-100,4,2,15,40,0,0
32269,-111.111111111111,4,2,15,40,0,0
38413,-133.333333333333,4,2,15,40,0,0
39136,-133.333333333333,4,2,2,40,0,0

[Colours]
Combo1 : 124,61,61
Combo2 : 255,139,23
Combo3 : 247,192,81
Combo4 : 0,163,217

[HitObjects]
184,144,2992,6,0,L|192:232,1,70,2|0,0:0|0:0,0:0:0:0:
272,248,3353,2,0,L|256:344,1,70,2|0,0:0|0:0,0:0:0:0:
183,143,3714,2,0,L|252:156,1,70,2|0,0:0|0:0,0:0:0:0:
349,68,4076,2,0,L|280:80,1,70,2|0,0:0|0:0,0:0:0:0:
375,270,4437,6,0,P|355:198|359:182,1,70,8|0,0:0|0:0,0:0:0:0:
440,136,4799,2,0,P|440:196|428:220,1,70,2|0,0:0|0:0,0:0:0:0:
352,360,5160,2,0,L|272:352,1,70,2|0,0:0|0:0,0:0:0:0:
375,270,5522,2,0,L|448:280,1,70,2|0,0:0|0:0,0:0:0:0:
320,208,5883,6,0,L|232:216,1,70,8|0,0:0|0:0,0:0:0:0:
144,120,6245,2,0,L|232:136,1,70,2|0,0:0|0:0,0:0:0:0:
325,139,6606,2,0,P|317:179|325:227,1,70,2|0,0:0|0:0,0:0:0:0:
440,208,6967,2,0,P|448:160|440:112,1,70,2|0,0:0|0:0,0:0:0:0:
212,132,7329,6,0,L|204:212,1,70,8|0,0:0|0:0,0:0:0:0:
264,304,7690,1,2,0:0:0:0:
264,304,7871,1,0,0:0:0:0:
104,320,8052,2,0,L|104:288,5,23.3333333333333,8|0|0|0|0|0,0:0|0:0|0:0|0:0|0:0|0:0,0:0:0:0:
112,256,8413,2,0,L|112:228,4,17.5,8|0|0|0|8,0:0|0:0|0:0|0:0|0:0,0:0:0:0:
89,50,8775,6,0,L|97:120,1,70,6|0,0:0|0:0,0:0:0:0:
262,117,9136,2,0,B|209:112|209:112|161:128|161:128|97:120,1,167.999994873047,8|2,0:0|0:0,0:0:0:0:
200,24,9678,1,0,0:0:0:0:
280,200,9859,2,0,L|392:200,1,83.9999974365235,8|0,0:0|0:0,0:0:0:0:
488,280,10220,2,0,L|408:280,1,70,2|0,0:0|0:0,0:0:0:0:
268,330,10582,2,0,P|252:266|281:198,1,140,8|0,0:0|0:0,0:0:0:0:
336,272,11124,5,0,0:0:0:0:
292,80,11305,1,8,0:0:0:0:
184,184,11485,1,0,0:0:0:0:
292,80,11666,2,0,L|285:9,2,52.5000020027161,2|2|8,0:0|0:0|0:0,0:0:0:0:
223,256,12208,6,0,P|172:264|125:244,1,105.000004005432,2|0,0:0|0:0,0:0:0:0:
292,80,12751,2,0,L|286:150,1,70,8|0,0:0|0:0,0:0:0:0:
146,134,13112,2,0,L|291:150,1,140,2|8,0:0|0:0,0:0:0:0:
424,100,13654,5,0,0:0:0:0:
392,272,13835,1,0,0:0:0:0:
285,149,14016,1,0,0:0:0:0:
392,272,14196,2,0,L|312:268,1,70,8|0,0:0|0:0,0:0:0:0:
80,152,14558,6,0,P|136:176|184:160,1,105.000004005432,2|8,0:0|0:0,0:0:0:0:
285,149,15100,1,0,0:0:0:0:
208,264,15281,1,0,0:0:0:0:
136,96,15461,1,0,0:0:0:0:
302,198,15642,6,0,P|296:172|284:148,1,52.5000020027161,10|0,0:0|0:0,0:0:0:0:
208,264,16004,2,0,P|256:288|312:280,1,105.000004005432,2|8,0:0|0:0,0:0:0:0:
448,164,16546,1,0,0:0:0:0:
304,76,16726,6,0,L|180:72,1,105.000004005432,2|8,0:0|0:0,0:0:0:0:
112,160,17269,1,0,0:0:0:0:
307,224,17449,6,0,P|339:144|299:72,1,167.999994873047,2|8,0:0|0:0,0:0:0:0:
256,152,17991,1,0,0:0:0:0:
208,304,18172,6,0,L|88:296,1,105.000004005432,2|8,0:0|0:0,0:0:0:0:
288,352,18714,1,0,0:0:0:0:
344,280,18895,2,0,L|456:272,1,105.000004005432,2|8,0:0|0:0,0:0:0:0:
440,80,19437,1,0,0:0:0:0:
340,168,19618,6,0,L|332:100,1,52.5000020027161,2|0,0:0|0:0,0:0:0:0:
344,4,19979,2,0,L|333:122,1,112,8|4,0:0|0:0,0:0:0:0:
208,232,20702,5,10,0:0:0:0:
208,232,20883,1,0,0:0:0:0:
168,140,21064,2,0,P|156:100|160:64,1,70,2|0,0:0|0:0,0:0:0:0:
301,214,21425,2,0,P|304:256|280:304,1,70,10|0,0:0|0:0,0:0:0:0:
152,360,21787,5,2,0:0:0:0:
208,232,21967,1,0,0:0:0:0:
264,368,22148,2,0,P|320:376|352:368,1,70,10|0,0:0|0:0,0:0:0:0:
208,232,22510,2,0,P|144:228|116:236,1,70,2|0,0:0|0:0,0:0:0:0:
159,114,22871,2,0,P|159:178|215:234,1,140,10|0,0:0|0:0,0:0:0:0:
240,152,23413,1,0,0:0:0:0:
394,228,23594,6,0,P|360:224|314:228,1,70,10|0,0:0|0:0,0:0:0:0:
320,336,23955,2,0,P|360:344|416:336,1,70,2|0,0:0|0:0,0:0:0:0:
240,152,24317,2,0,L|248:64,1,70,10|0,0:0|0:0,0:0:0:0:
208,304,24678,1,2,0:0:0:0:
120,232,24859,1,0,0:0:0:0:
208,304,25040,2,0,L|200:400,1,70,10|0,0:0|0:0,0:0:0:0:
120,232,25401,2,0,P|136:192|136:144,1,70,2|0,0:0|0:0,0:0:0:0:
64,0,25763,6,0,P|76:52|168:88,1,140,10|0,0:0|0:0,0:0:0:0:
144,8,26305,1,0,0:0:0:0:
352,32,26485,2,0,L|272:20,1,70,10|0,0:0|0:0,0:0:0:0:
280,224,26847,2,0,L|352:216,1,62.9999980773926,2|0,0:0|0:0,0:0:0:0:
416,120,27208,2,0,L|356:112,1,56,10|0,0:0|0:0,0:0:0:0:
360,320,27570,2,0,L|432:312,1,48.9999985046387,2|0,0:0|0:0,0:0:0:0:
200,208,27931,6,0,P|200:248|208:280,1,56,10|0,0:0|0:0,0:0:0:0:
272,120,28293,2,0,P|274:148|272:176,1,48.9999985046387,2|0,0:0|0:0,0:0:0:0:
256,320,28654,2,0,P|200:344|128:304,1,140,10|0,0:0|0:0,0:0:0:0:
336,224,29196,5,0,0:0:0:0:
272,168,29377,2,0,P|264:128|280:80,1,77.0000023498536,10|0,0:0|0:0,0:0:0:0:
416,24,29738,2,0,P|424:56|416:104,1,70,2|0,0:0|0:0,0:0:0:0:
344,128,30100,2,0,P|408:176|484:152,1,154.000004699707,8|0,0:0|0:0,0:0:0:0:
421,93,30642,5,0,0:0:0:0:
372,296,30823,2,0,P|316:284|272:292,1,70,10|0,0:0|0:0,0:0:0:0:
144,224,31184,2,0,P|192:240|240:216,1,77.0000023498536,2|0,0:0|0:0,0:0:0:0:
196,20,31546,2,0,L|188:164,1,140,8|4,0:0|0:0,0:0:0:0:
112,120,32088,1,0,0:0:0:0:
116,304,32269,6,0,P|152:316|192:308,1,62.9999980773926,10|0,0:0|0:0,0:0:0:0:
316,264,32630,2,0,L|320:184,1,62.9999980773926,2|0,0:0|0:0,0:0:0:0:
224,104,32991,1,10,0:0:0:0:
184,240,33172,1,0,0:0:0:0:
112,120,33353,6,0,L|32:112,1,62.9999980773926,2|0,0:0|0:0,0:0:0:0:
236,72,33714,2,0,L|324:68,1,62.9999980773926,10|0,0:0|0:0,0:0:0:0:
424,184,34076,2,0,L|344:176,1,62.9999980773926,2|0,0:0|0:0,0:0:0:0:
281,258,34437,2,0,P|345:226|361:170,1,125.999996154785,10|0,0:0|0:0,0:0:0:0:
280,176,34979,1,0,0:0:0:0:
224,104,35160,6,0,L|144:96,1,62.9999980773926,10|0,0:0|0:0,0:0:0:0:
25,204,35522,2,0,L|97:208,1,62.9999980773926,2|0,0:0|0:0,0:0:0:0:
200,256,35883,1,10,0:0:0:0:
112,336,36064,1,0,0:0:0:0:
224,104,36245,6,0,L|368:112,1,125.999996154785,2|8,0:0|0:0,0:0:0:0:
392,196,36787,1,0,0:0:0:0:
296,344,36967,6,0,P|282:284|316:222,1,125.999996154785,2|8,0:0|0:0,0:0:0:0:
392,196,37510,1,0,0:0:0:0:
464,24,37690,6,0,B|478:94|478:94|469:147,1,125.999996154785,2|8,0:0|0:0,0:0:0:0:
392,196,38232,1,0,0:0:0:0:
309,228,38413,2,0,B|237:252|237:188|141:220,1,157.500006008148,2|2,0:0|0:0,0:0:0:0:
256,192,39136,12,4,40582,0:0:0:0:
256,192,41305,5,6,0:0:0:0:
