osu file format v14

[General]
AudioFilename: audio.mp3
AudioLeadIn: 0
PreviewTime: 2992
Countdown: 0
SampleSet: Soft
StackLeniency: 0.7
Mode: 0
LetterboxInBreaks: 0
WidescreenStoryboard: 1

[Editor]
DistanceSpacing: 1.1
BeatDivisor: 4
GridSize: 4
TimelineZoom: 1.5

[Metadata]
Title:Gravity Falls OST (16bit cover)
TitleUnicode:Gravity Falls OST (16bit cover)
Artist:Brad Breeck
ArtistUnicode:Brad Breeck
Creator:Simuzax
Version:Advanced
Source:Gravity Falls
Tags:chiptune opening main theme cartoon victorfernando yshadowxop
BeatmapID:1371982
BeatmapSetID:647316

[Difficulty]
HPDrainRate:4
CircleSize:3.6
OverallDifficulty:5
ApproachRate:6
SliderMultiplier:1.1
SliderTickRate:1

[Events]
//Background and Video events
0,0,"q3UqZda.jpg",0,0
//Break Periods
//Storyboard Layer 0 (Background)
//Storyboard Layer 1 (Fail)
//Storyboard Layer 2 (Pass)
//Storyboard Layer 3 (Foreground)
//Storyboard Sound Samples

[TimingPoints]
2992,361.44578313253,4,2,15,40,1,0
11666,-111.111111111111,4,2,15,40,0,0
12570,-100,4,2,15,40,0,0
13112,-133.333333333333,4,2,15,40,0,0
15281,-111.111111111111,4,2,15,40,0,0
19979,-133.333333333333,4,2,15,40,0,0
20702,-100,4,2,2,60,0,1
23232,-100,4,2,2,40,0,0
23594,-100,4,2,2,60,0,1
26124,-100,4,2,2,40,0,0
26485,-100,4,2,2,60,0,1
29016,-100,4,2,15,40,0,0
32269,-100,4,2,2,40,0,1
34799,-100,4,2,15,40,0,0
38413,-133.333333333333,4,2,15,40,0,0

[Colours]
Combo1 : 124,61,61
Combo2 : 255,139,23
Combo3 : 247,192,81
Combo4 : 0,163,217

[HitObjects]
8,44,2992,6,0,L|77:56,1,55,8|0,0:0|0:0,0:0:0:0:
122,64,3353,1,2,0:0:0:0:
164,180,3714,2,0,L|234:166,1,55,2|0,0:0|0:0,0:0:0:0:
277,158,4075,1,2,0:0:0:0:
348,44,4437,6,0,P|377:38|408:44,1,55,8|0,0:0|0:0,0:0:0:0:
460,56,4799,1,0,0:0:0:0:
496,188,5160,2,0,P|501:217|496:248,1,55,8|0,0:0|0:0,0:0:0:0:
480,300,5522,1,0,0:0:0:0:
372,364,5883,6,0,L|340:308,1,55,8|0,0:0|0:0,0:0:0:0:
314,263,6245,1,10,0:0:0:0:
260,156,6606,2,0,L|224:218,1,55
202,256,6968,1,10,0:0:0:0:
120,340,7329,6,0,L|56:340,1,55,8|0,0:0|0:0,0:0:0:0:
8,324,7690,2,0,P|2:295|8:260,1,55,8|0,0:0|0:0,0:0:0:0:
40,220,8052,2,0,L|-12:172,2,55,8|0|0,0:0|0:0|0:0,0:0:0:0:
96,196,8594,1,8,0:0:0:0:
156,200,8775,5,4,0:0:0:0:
224,292,9136,2,0,P|280:304|332:292,1,110,8|2,0:0|0:0,0:0:0:0:
276,188,9859,1,8,0:0:0:0:
396,188,10220,6,0,L|396:72,1,110,4|8,0:0|0:0,0:0:0:0:
292,16,10943,1,2,0:0:0:0:
176,44,11305,1,8,0:0:0:0:
76,84,11666,6,0,L|76:184,1,98.9999969787599,4|8,0:0|0:0,0:0:0:0:
24,244,12208,2,0,P|76:260|120:248,1,98.9999969787599,2|0,0:0|0:0,0:0:0:0:
144,188,12751,2,0,P|172:212|184:244,1,55,8|0,0:0|0:0,0:0:0:0:
224,288,13112,6,0,P|328:296|280:204,1,247.500009441376,4|8,0:0|0:0,0:0:0:0:
192,192,14558,6,0,P|120:176|152:112,1,165.000006294251,4|2,0:0|0:0,0:0:0:0:
244,60,15642,1,8,0:0:0:0:
352,32,16004,6,0,P|404:44|440:80,1,98.9999969787599,4|8,0:0|0:0,0:0:0:0:
468,176,16726,1,0,0:0:0:0:
356,136,17088,1,8,0:0:0:0:
252,176,17449,6,0,P|288:224|340:244,1,98.9999969787599,4|8,0:0|0:0,0:0:0:0:
424,280,18172,2,0,P|388:328|336:348,1,98.9999969787599,4|8,0:0|0:0,0:0:0:0:
256,296,18895,2,0,P|204:288|160:308,1,98.9999969787599,4|8,0:0|0:0,0:0:0:0:
64,356,19618,2,0,P|24:368|36:328,1,98.9999969787599,4|8,0:0|0:0,0:0:0:0:
100,264,20341,5,4,0:0:0:0:
0,204,20702,6,0,L|56:204,1,55,8|0,0:0|0:0,0:0:0:0:
68,140,21064,2,0,L|124:140,1,55,2|0,0:0|0:0,0:0:0:0:
144,204,21425,2,0,L|200:204,1,55,8|0,0:0|0:0,0:0:0:0:
272,236,21787,6,0,P|280:204|272:172,1,55,2|0,0:0|0:0,0:0:0:0:
244,112,22148,2,0,P|276:104|308:112,1,55,8|0,0:0|0:0,0:0:0:0:
368,140,22510,2,0,P|376:108|368:76,1,55,2|0,0:0|0:0,0:0:0:0:
340,16,22871,2,0,P|372:8|404:16,1,55,8|0,0:0|0:0,0:0:0:0:
472,16,23232,5,4,0:0:0:0:
504,164,23594,6,0,B|488:172|488:172|440:172,1,55,8|0,0:0|0:0,0:0:0:0:
404,124,23955,2,0,B|388:116|388:116|340:116,1,55,2|0,0:0|0:0,0:0:0:0:
304,164,24317,2,0,B|288:172|288:172|236:172,1,55,8|0,0:0|0:0,0:0:0:0:
180,196,24678,6,0,L|180:116,1,55,2|0,0:0|0:0,0:0:0:0:
204,68,25040,2,0,L|148:68,1,55,8|0,0:0|0:0,0:0:0:0:
72,68,25401,2,0,L|20:112,1,55,2|0,0:0|0:0,0:0:0:0:
32,180,25763,2,0,L|73:215,1,55,8|0,0:0|0:0,0:0:0:0:
136,264,26124,5,4,0:0:0:0:
228,336,26485,6,0,L|284:336,1,55,8|0,0:0|0:0,0:0:0:0:
296,272,26847,2,0,L|352:272,1,55,2|0,0:0|0:0,0:0:0:0:
372,336,27208,2,0,L|428:336,1,55,8|0,0:0|0:0,0:0:0:0:
472,272,27570,6,0,L|472:217,1,55,2|0,0:0|0:0,0:0:0:0:
500,144,27931,2,0,P|475:137|444:144,1,55,8|0,0:0|0:0,0:0:0:0:
372,116,28293,2,0,L|372:171,1,55,2|0,0:0|0:0,0:0:0:0:
396,244,28654,2,0,P|368:248|339:239,1,55,8|0,0:0|0:0,0:0:0:0:
272,200,29016,5,4,0:0:0:0:
188,148,29377,6,0,P|160:140|128:148,1,55,8|0,0:0|0:0,0:0:0:0:
76,160,29738,2,0,P|68:186|72:213,1,55,2|0,0:0|0:0,0:0:0:0:
128,240,30100,2,0,P|156:248|188:240,1,55,8|0,0:0|0:0,0:0:0:0:
272,200,30461,5,4,0:0:0:0:
356,148,30823,6,0,P|384:140|416:148,1,55,8|0,0:0|0:0,0:0:0:0:
468,160,31184,2,0,P|475:186|471:213,1,55,2|0,0:0|0:0,0:0:0:0:
416,240,31546,2,0,P|388:248|356:240,1,55,8|0,0:0|0:0,0:0:0:0:
272,200,31907,5,4,0:0:0:0:
364,324,32269,6,0,P|328:320|288:324,1,55,8|0,0:0|0:0,0:0:0:0:
244,328,32630,2,0,P|208:332|164:328,1,55,2|0,0:0|0:0,0:0:0:0:
132,296,32991,2,0,P|124:268|136:236,1,55,8|0,0:0|0:0,0:0:0:0:
172,180,33353,6,0,P|199:176|232:180,1,55,2|0,0:0|0:0,0:0:0:0:
292,220,33714,2,0,P|324:224|360:220,1,55,8|0,0:0|0:0,0:0:0:0:
416,188,34076,2,0,P|428:156|420:124,1,55,2|0,0:0|0:0,0:0:0:0:
384,72,34437,2,0,P|352:64|312:68,1,55,8|0,0:0|0:0,0:0:0:0:
252,60,34799,5,4,0:0:0:0:
144,80,35160,6,0,P|136:116|140:152,1,55,8|0,0:0|0:0,0:0:0:0:
140,188,35522,1,2,0:0:0:0:
236,240,35883,1,8,0:0:0:0:
144,300,36245,6,0,P|184:336|240:352,1,110,4|8,0:0|0:0,0:0:0:0:
348,344,36967,1,2,0:0:0:0:
440,280,37329,1,0,0:0:0:0:
468,172,37690,2,0,P|416:164|376:124,1,110
396,28,38413,2,0,P|312:48|276:120,1,165.000006294251,2|8,0:0|0:0,0:0:0:0:
256,192,39226,12,0,40582,0:0:0:0:
256,192,41305,5,14,0:0:0:0:
