osu file format v14

[General]
AudioFilename: audio.mp3
AudioLeadIn: 0
PreviewTime: -1
Countdown: 0
SampleSet: None
StackLeniency: 0.3
Mode: 0
LetterboxInBreaks: 0
WidescreenStoryboard: 0

[Editor]
Bookmarks: 5143,5505,5686,5867,8762,9847,26132,27580,29027
DistanceSpacing: 1.1
BeatDivisor: 4
GridSize: 4
TimelineZoom: 1

[Metadata]
Title:Gravity Falls Main Title Theme
TitleUnicode:Gravity Falls Main Title Theme
Artist:Brad Breeck
ArtistUnicode:Brad Breeck
Creator:Sassbjorn
Version:Normal
Source:Gravity Falls
Tags:Gravity Falls OP TV size
BeatmapID:1583426
BeatmapSetID:751768

[Difficulty]
HPDrainRate:3
CircleSize:3
OverallDifficulty:3
ApproachRate:4.2
SliderMultiplier:0.999999999999999
SliderTickRate:1

[Events]
//Background and Video events
0,0,"bg.jpg",0,0
//Break Periods
//Storyboard Layer 0 (Background)
//Storyboard Layer 1 (Fail)
//Storyboard Layer 2 (Pass)
//Storyboard Layer 3 (Foreground)
//Storyboard Sound Samples

[TimingPoints]
77,361.881785283474,4,1,0,100,1,0
77,-105.263157894737,4,2,0,40,0,0
5867,-100,4,3,0,55,0,0
17447,-95.2380952380952,4,3,0,60,0,1
26132,-100,4,3,0,65,0,0
29027,-100,4,3,0,60,0,1
36265,-100,4,2,0,30,0,0
39160,-100,4,2,0,5,0,0

[Colours]
Combo1 : 106,165,193
Combo2 : 223,190,88
Combo3 : 174,28,28

[HitObjects]
36,58,77,6,0,L|135:66,1,94.9999974632263,8|8,0:1|0:2,0:0:0:0:
167,102,619,1,8,0:1:0:0:
167,102,800,2,0,L|266:94,1,94.9999974632263,0|8,0:0|0:1,0:0:0:0:
356,49,1524,6,0,L|364:149,1,94.9999974632263,8|8,0:1|0:2,0:0:0:0:
394,184,2067,1,8,0:1:0:0:
394,186,2248,2,0,L|385:285,1,94.9999974632263,0|8,0:0|0:1,0:0:0:0:
256,192,2972,12,0,4419,1:0:0:0:
208,216,5143,6,0,L|205:169,1,47.4999987316131,0|0,3:0|3:0,3:0:0:0:
239,128,5505,2,0,L|242:81,1,47.4999987316131,0|0,3:0|3:0,3:0:0:0:
269,51,5867,6,2,P|366:30|463:51,1,200,4|0,1:1|1:0,0:0:0:0:
494,157,6952,1,8,0:2:0:0:
461,262,7314,2,2,P|374:267|308:171,1,200,0|0,1:0|1:0,0:0:0:0:
235,102,8400,1,8,0:2:0:0:
156,178,8762,6,2,P|133:230|103:279,1,99.9999999999999,0|8,1:0|2:0,0:0:0:0:
60,288,9304,2,2,P|48:214|13:144,1,150,0|8,0:0|0:2,0:0:0:0:
106,85,10209,6,0,P|116:37|151:1,2,99.9999999999999,0|8|0,1:0|0:2|1:0,0:0:0:0:
217,89,11295,1,8,0:2:0:0:
322,58,11657,6,2,P|373:142|393:240,1,200,0|0,1:0|1:0,0:0:0:0:
305,307,12742,1,8,0:2:0:0:
204,362,13104,2,2,P|155:373|108:360,1,99.9999999999999,0|8,1:0|0:2,0:0:0:0:
108,250,13828,2,2,P|156:238|203:251,1,99.9999999999999,0|8,1:0|0:2,0:0:0:0:
305,213,14552,6,2,P|292:260|306:308,1,99.9999999999999,0|8,1:0|0:2,0:0:0:0:
416,305,15276,2,2,P|429:257|417:209,1,99.9999999999999,0|8,1:0|0:2,0:0:0:0:
373,108,15999,2,2,P|420:120|468:109,1,99.9999999999999,0|8,1:0|0:2,0:0:0:0:
466,0,16723,2,2,P|418:-12|371:0,1,99.9999999999999,0|8,1:0|0:2,0:0:0:0:
289,83,17447,5,0,1:0:0:0:
230,182,17809,1,4,0:1:0:0:
326,248,18171,2,0,P|336:298|320:347,1,104.999996795654,0|8,1:0|0:2,0:0:0:0:
220,296,18894,2,0,P|170:279|134:241,1,104.999996795654,0|8,1:0|0:2,0:0:0:0:
230,182,19618,2,0,P|268:146|318:135,1,104.999996795654,0|8,1:0|0:2,0:0:0:0:
325,247,20342,5,8,0:2:0:0:
421,188,20704,1,0,1:0:0:0:
426,302,21066,1,0,1:0:0:0:
320,348,21428,1,8,0:2:0:0:
206,339,21789,2,0,P|156:355|105:346,1,104.999996795654,0|8,1:0|0:2,0:0:0:0:
95,231,22513,2,0,P|144:214|195:223,1,104.999996795654,0|8,1:0|0:2,0:0:0:0:
308,245,23237,1,0,1:0:0:0:
384,158,23599,5,8,0:2:0:0:
316,55,23961,2,0,P|265:43|215:58,1,104.999996795654,0|8,1:0|0:2,0:0:0:0:
248,168,24684,2,0,P|196:173|148:153,1,104.999996795654,0|8,1:0|0:2,0:0:0:0:
125,39,25408,2,0,P|76:57|43:98,1,104.999996795654,0|8,1:0|3:2,3:0:0:0:
148,153,26132,1,0,1:0:0:0:
208,243,26494,5,10,0:2:0:0:
317,230,26856,1,2,1:2:0:0:
426,217,27218,1,10,1:2:0:0:
360,129,27580,1,0,1:0:0:0:
429,37,27941,5,10,0:2:0:0:
315,23,28303,1,2,1:2:0:0:
205,9,28665,1,10,1:2:0:0:
183,117,29027,1,4,1:1:0:0:
109,39,29389,5,8,0:2:0:0:
92,148,29751,2,0,P|86:197|58:237,1,99.9999999999999,0|8,1:0|0:2,0:0:0:0:
130,331,30475,2,0,P|175:351|224:348,1,99.9999999999999,0|8,1:0|0:2,0:0:0:0:
198,241,31198,2,0,P|219:196|260:167,1,99.9999999999999,0|8,1:0|0:2,0:0:0:0:
309,265,31922,1,0,1:0:0:0:
395,333,32284,5,8,0:2:0:0:
484,269,32646,1,0,1:0:0:0:
433,171,33008,1,8,0:2:0:0:
445,61,33370,6,0,P|395:56|348:40,1,99.9999999999999,0|8,1:0|0:2,0:0:0:0:
238,46,34093,2,0,P|259:91|268:140,1,99.9999999999999,0|8,1:0|0:2,0:0:0:0:
249,248,34817,6,0,P|199:243|152:227,1,99.9999999999999,0|8,1:0|0:2,0:0:0:0:
66,158,35541,2,0,P|37:198|-1:231,1,99.9999999999999,0|8,1:0|0:2,0:0:0:0:
256,192,36265,12,2,37712,0:0:0:0:
8,206,38436,6,0,B|27:161|90:173|119:259|19:242|65:320,1,200,2|0,0:0|0:0,0:0:0:0:
