osu file format v14

[General]
AudioFilename: audio.mp3
AudioLeadIn: 0
PreviewTime: -1
Countdown: 0
SampleSet: None
StackLeniency: 0.3
Mode: 0
LetterboxInBreaks: 0
WidescreenStoryboard: 0

[Editor]
DistanceSpacing: 1.1
BeatDivisor: 4
GridSize: 4
TimelineZoom: 1

[Metadata]
Title:Gravity Falls Main Title Theme
TitleUnicode:Gravity Falls Main Title Theme
Artist:Brad Breeck
ArtistUnicode:Brad Breeck
Creator:Sassbjorn
Version:Insane
Source:Gravity Falls
Tags:Gravity Falls OP TV size
BeatmapID:1582578
BeatmapSetID:751768

[Difficulty]
HPDrainRate:6.2
CircleSize:4
OverallDifficulty:7
ApproachRate:9
SliderMultiplier:0.999999999999999
SliderTickRate:1

[Events]
//Background and Video events
0,0,"bg.jpg",0,0
//Break Periods
//Storyboard Layer 0 (Background)
//Storyboard Layer 1 (Fail)
//Storyboard Layer 2 (Pass)
//Storyboard Layer 3 (Foreground)
//Storyboard Sound Samples

[TimingPoints]
77,361.881785283474,4,1,0,100,1,0
77,-95.2380952380952,4,2,0,40,0,0
5867,-68.9655172413793,4,3,0,55,0,0
17447,-60.6060606060606,4,3,0,60,0,1
26132,-60.6060606060606,4,3,0,65,0,0
29027,-60.6060606060606,4,3,0,60,0,1
33370,-60.6060606060606,4,3,0,60,0,0
36265,-100,4,2,0,30,0,0
39160,-100,4,2,0,5,0,0

[Colours]
Combo1 : 106,165,193
Combo2 : 223,190,88
Combo3 : 174,28,28

[HitObjects]
222,0,77,6,0,L|217:52,1,52.4999983978271,8|0,0:1|0:0,0:0:0:0:
207,129,438,1,8,0:0:0:0:
144,83,619,1,8,0:1:0:0:
1,47,800,2,0,L|6:99,1,52.4999983978271
14,177,1162,1,8,0:1:0:0:
79,130,1343,1,0,0:0:0:0:
130,307,1524,6,0,L|135:255,1,52.4999983978271,8|0,0:1|0:0,0:0:0:0:
143,177,1886,1,8,0:0:0:0:
208,224,2067,1,8,0:1:0:0:
295,62,2248,2,0,L|290:114,1,52.4999983978271
282,192,2610,1,8,0:1:0:0:
217,145,2791,1,0,0:0:0:0:
347,239,2972,6,0,L|342:291,1,52.4999983978271,8|0,0:1|0:0,0:0:0:0:
334,369,3333,1,8,0:0:0:0:
269,322,3514,1,8,0:1:0:0:
191,145,3695,2,0,L|196:197,1,52.4999983978271
204,275,4057,1,8,0:1:0:0:
269,228,4238,1,0,0:0:0:0:
416,294,4419,5,0,3:0:0:0:
399,133,4600,1,0,3:0:0:0:
491,327,4781,1,8,3:2:0:0:
408,214,4962,1,0,3:0:0:0:
351,343,5143,5,0,3:0:0:0:
481,245,5324,1,0,3:0:0:0:
333,181,5505,1,8,3:2:0:0:
298,176,5595,1,0,3:0:0:0:
265,185,5686,1,0,3:0:0:0:
237,207,5776,1,0,3:0:0:0:
220,237,5867,6,2,P|165:279|97:262,1,145.000004425049,4|8,1:1|0:2,0:0:0:0:
54,166,6409,1,0,0:0:0:0:
142,110,6590,2,0,L|148:182,1,72.5000022125244,0|0,1:0|0:0,0:0:0:0:
310,295,6952,2,2,P|324:261|326:225,1,72.5000022125244,8|0,0:2|0:0,0:0:0:0:
274,91,7314,6,2,P|245:156|240:228,1,145.000004425049,0|8,1:0|0:2,0:0:0:0:
310,295,7857,1,0,0:0:0:0:
403,249,8038,2,0,L|409:321,1,72.5000022125244,0|0,1:0|0:0,0:0:0:0:
498,275,8400,2,0,L|504:203,1,72.5000022125244,8|0,0:2|0:0,0:0:0:0:
367,24,8762,6,2,P|396:89|400:161,1,145.000004425049,0|8,1:0|0:2,0:0:0:0:
217,162,9304,2,2,P|284:150|322:207,1,145.000004425049,0|0,1:0|0:2,0:0:0:0:
256,327,9847,2,2,P|257:290|247:255,1,72.5000022125244,8|0,0:2|0:0,0:0:0:0:
124,95,10209,6,2,P|118:165|138:235,1,145.000004425049,0|8,1:0|0:2,0:0:0:0:
217,162,10752,1,0,0:0:0:0:
247,256,10933,2,0,L|319:250,1,72.5000022125244,0|0,1:0|0:0,0:0:0:0:
388,156,11295,2,0,L|316:150,1,72.5000022125244,8|0,0:2|0:0,0:0:0:0:
116,65,11657,6,2,P|187:56|257:73,1,145.000004425049,0|8,1:0|0:2,0:0:0:0:
283,170,12200,1,0,0:0:0:0:
184,151,12380,2,0,L|178:223,1,72.5000022125244,0|0,1:0|0:0,0:0:0:0:
303,340,12742,2,2,P|302:303|312:268,1,72.5000022125244,8|0,0:2|0:0,0:0:0:0:
407,173,13104,6,2,P|415:244|398:314,1,145.000004425049,0|8,1:0|0:2,0:0:0:0:
303,340,13647,1,0,0:0:0:0:
221,200,13828,2,2,P|211:234|212:270,1,72.5000022125244,0|0,1:0|0:0,0:0:0:0:
303,340,14190,2,0,L|309:268,1,72.5000022125244,8|0,0:2|0:0,0:0:0:0:
429,82,14552,6,2,P|420:153|437:223,1,145.000004425049,0|8,1:0|0:2,0:0:0:0:
496,294,15095,1,0,0:0:0:0:
315,243,15276,2,2,P|243:234|173:251,1,145.000004425049,0|8,1:0|0:2,0:0:0:0:
103,310,15818,1,0,0:0:0:0:
45,181,15999,6,2,P|36:109|53:39,1,145.000004425049,0|8,1:0|0:2,0:0:0:0:
138,0,16542,1,0,0:0:0:0:
274,77,16723,2,2,P|237:78|203:68,1,72.5000022125244,0|0,1:0|0:0,0:0:0:0:
306,0,17085,6,0,P|352:23|361:75,1,108.750003318787,8|0,0:2|0:0,0:0:0:0:
351,118,17447,1,4,1:1:0:0:
255,172,17628,1,0,0:0:0:0:
492,160,17809,1,8,0:2:0:0:
341,268,17990,1,0,0:0:0:0:
384,89,18171,2,0,P|388:48|375:9,1,82.5000007867812,0|0,1:0|0:0,0:0:0:0:
332,188,18532,2,0,P|327:228|340:267,1,82.5000007867812,8|0,0:2|0:0,0:0:0:0:
492,160,18894,5,0,1:0:0:0:
384,89,19075,1,0,0:0:0:0:
483,288,19256,1,8,0:2:0:0:
492,160,19437,1,0,0:0:0:0:
367,345,19618,2,0,P|326:349|287:336,1,82.5000007867812,0|0,1:0|0:0,0:0:0:0:
140,242,19980,2,0,P|180:237|219:250,1,82.5000007867812,8|0,0:2|0:0,0:0:0:0:
168,355,20342,6,0,L|76:346,1,82.5000007867812,0|0,1:0|0:0,0:0:0:0:
255,127,20704,1,8,0:2:0:0:
343,219,20885,1,0,0:0:0:0:
131,157,21066,2,0,P|124:116|136:77,1,82.5000007867812,0|0,1:0|0:0,0:0:0:0:
219,250,21428,2,0,P|226:291|214:330,1,82.5000007867812,8|0,0:2|0:0,0:0:0:0:
6,186,21789,5,0,1:0:0:0:
131,157,21970,1,0,0:0:0:0:
69,351,22151,1,8,0:2:0:0:
100,254,22332,1,0,0:0:0:0:
298,254,22513,2,0,P|257:261|218:249,1,82.5000007867812,0|0,1:0|0:0,0:0:0:0:
275,143,22875,2,8,P|316:136|355:148,1,82.5000007867812,8|8,0:2|0:2,0:2:0:0:
423,255,23237,6,0,L|414:347,1,82.5000007867812,0|0,1:0|0:0,0:0:0:0:
218,249,23599,1,8,0:2:0:0:
275,143,23780,1,0,0:0:0:0:
281,351,23961,2,0,P|243:369|203:369,1,82.5000007867812,0|0,1:0|0:0,0:0:0:0:
28,315,24323,2,0,P|65:296|105:296,1,82.5000007867812,8|0,0:2|0:0,0:0:0:0:
218,249,24684,5,0,1:0:0:0:
155,147,24865,1,0,0:0:0:0:
337,245,25046,1,8,0:2:0:0:
218,249,25227,1,0,0:0:0:0:
316,67,25408,2,0,P|307:107|282:139,1,82.5000007867812,0|0,1:0|0:0,0:0:0:0:
101,205,25770,2,0,P|121:169|156:146,1,82.5000007867812,8|0,0:2|0:0,0:0:0:0:
218,249,26132,6,0,L|227:341,1,82.5000007867812,0|0,1:0|0:0,0:0:0:0:
473,314,26494,1,10,0:2:0:0:
350,329,26675,1,0,0:0:0:0:
446,102,26856,1,2,1:2:0:0:
398,215,27037,1,0,0:0:0:0:
252,19,27218,1,10,0:2:0:0:
325,117,27399,1,0,0:0:0:0:
278,230,27580,6,0,L|195:237,1,82.5000007867812,0|0,1:0|0:0,0:0:0:0:
21,329,27941,1,10,0:2:0:0:
150,344,28122,1,0,0:0:0:0:
49,106,28303,1,2,1:2:0:0:
99,225,28484,1,0,0:0:0:0:
252,19,28665,1,10,0:2:0:0:
176,122,28846,1,0,0:0:0:0:
305,209,29027,6,0,L|297:126,1,82.5000007867812,4|0,1:1|0:0,0:0:0:0:
188,222,29389,1,8,0:2:0:0:
258,317,29570,1,0,0:0:0:0:
70,235,29751,2,0,P|70:194|88:157,1,82.5000007867812,0|0,1:0|0:0,0:0:0:0:
211,25,30113,2,0,P|210:65|192:102,1,82.5000007867812,8|0,0:2|0:0,0:0:0:0:
43,52,30475,5,0,1:0:0:0:
87,157,30656,1,0,0:0:0:0:
270,78,30836,1,8,0:2:0:0:
156,64,31017,1,0,0:0:0:0:
133,261,31198,2,0,P|172:265|211:251,1,82.5000007867812,0|0,1:0|0:0,3:0:0:0:
395,182,31560,2,0,P|354:176|315:190,1,82.5000007867812,8|0,0:2|0:0,3:0:0:0:
371,297,31922,6,0,L|454:305,1,82.5000007867812,0|0,1:0|0:0,0:0:0:0:
407,59,32284,1,8,0:2:0:0:
395,182,32465,1,0,0:0:0:0:
182,162,32646,1,8,0:2:0:0:
294,110,32827,1,0,0:0:0:0:
384,306,33008,1,8,0:2:0:0:
283,234,33189,1,0,0:0:0:0:
509,134,33370,6,0,P|491:186|395:182,1,165.000001573562,0|8,1:0|0:2,0:0:0:0:
410,59,33912,1,0,0:0:0:0:
281,231,34093,6,8,P|244:189|296:108,1,165.000001573562,8|0,1:0|0:2,0:0:0:0:
395,182,34635,1,0,0:0:0:0:
265,353,34817,6,0,P|339:371|378:304,1,165.000001573562,0|8,1:0|0:2,0:0:0:0:
281,231,35359,1,0,0:0:0:0:
182,156,35541,6,0,P|221:89|295:107,1,165.000001573562,0|8,1:0|0:2,0:0:0:0:
281,231,36083,1,0,0:0:0:0:
256,192,36265,12,2,37712,0:0:0:0:
8,206,38436,6,0,B|27:161|90:173|119:259|19:242|65:320,1,200,2|0,0:0|0:0,0:0:0:0:
