osu file format v14

[General]
AudioFilename: audio.mp3
AudioLeadIn: 0
PreviewTime: -1
Countdown: 0
SampleSet: None
StackLeniency: 0.3
Mode: 0
LetterboxInBreaks: 0
WidescreenStoryboard: 1

[Editor]
DistanceSpacing: 1.1
BeatDivisor: 4
GridSize: 4
TimelineZoom: 1

[Metadata]
Title:Gravity Falls Main Title Theme
TitleUnicode:Gravity Falls Main Title Theme
Artist:Brad Breeck
ArtistUnicode:Brad Breeck
Creator:Sassbjorn
Version:Hard
Source:Gravity Falls
Tags:Gravity Falls OP TV size
BeatmapID:1594955
BeatmapSetID:751768

[Difficulty]
HPDrainRate:5
CircleSize:3.6
OverallDifficulty:6
ApproachRate:8
SliderMultiplier:0.999999999999999
SliderTickRate:1

[Events]
//Background and Video events
0,0,"bg.jpg",0,0
//Break Periods
//Storyboard Layer 0 (Background)
//Storyboard Layer 1 (Fail)
//Storyboard Layer 2 (Pass)
//Storyboard Layer 3 (Foreground)
//Storyboard Sound Samples

[TimingPoints]
77,361.881785283474,4,1,0,100,1,0
77,-100,4,2,0,40,0,0
5867,-90.9090909090909,4,3,0,55,0,0
14552,-86.9565217391304,4,3,0,55,0,0
17447,-76.9230769230769,4,3,0,60,0,1
26132,-71.4285714285714,4,3,0,65,0,0
29027,-76.9230769230769,4,3,0,60,0,1
33732,-76.9230769230769,4,3,0,30,0,1
34093,-76.9230769230769,4,3,0,60,0,1
34455,-76.9230769230769,4,3,0,35,0,1
34817,-76.9230769230769,4,3,0,60,0,1
35179,-76.9230769230769,4,3,0,35,0,1
35541,-76.9230769230769,4,3,0,60,0,1
35903,-76.9230769230769,4,3,0,35,0,1
36265,-100,4,2,0,30,0,0
39160,-100,4,2,0,5,0,0

[Colours]
Combo1 : 106,165,193
Combo2 : 223,190,88
Combo3 : 174,28,28

[HitObjects]
419,123,77,6,0,L|414:172,1,50
408,254,439,1,8,0:1:0:0:
338,210,620,1,8,0:2:0:0:
298,284,801,2,0,L|248:279,1,50
203,195,1163,2,0,L|252:190,1,50,8|0,0:1|0:0,0:0:0:0:
326,131,1525,6,0,L|330:81,1,50,8|0,0:2|0:0,0:0:0:0:
337,0,1887,1,8,0:1:0:0:
407,44,2068,1,8,0:2:0:0:
462,124,2249,2,0,L|412:129,1,50
367,213,2610,2,0,L|416:218,1,50,8|0,0:1|0:0,0:0:0:0:
506,217,2972,6,0,L|502:267,1,50,8|0,0:2|0:0,0:0:0:0:
495,348,3334,1,8,0:1:0:0:
425,304,3515,1,8,0:2:0:0:
343,352,3696,2,0,L|339:302,1,50
258,215,4057,2,0,L|254:265,1,50,8|0,0:1|0:0,0:0:0:0:
243,350,4419,6,0,L|193:354,1,50,0|0,3:0|3:0,3:0:0:0:
95,348,4781,1,0,3:0:0:0:
156,278,4962,1,8,3:2:0:0:
59,260,5143,1,0,3:0:0:0:
122,189,5324,1,0,3:0:0:0:
229,209,5505,1,8,3:2:0:0:
229,209,5595,1,0,3:0:0:0:
229,209,5686,1,0,3:0:0:0:
314,182,5867,6,2,P|351:142|363:89,1,110.000003356934,4|8,1:1|0:2,0:0:0:0:
272,98,6409,1,0,0:0:0:0:
204,37,6590,2,0,L|149:32,1,55.0000016784668,0|0,1:0|0:0,0:0:0:0:
59,90,6952,2,0,P|51:116|52:143,1,55.0000016784668,8|0,0:2|0:0,0:0:0:0:
143,193,7314,6,2,P|148:247|137:301,1,110.000003356934,0|8,1:0|0:2,0:0:0:0:
94,381,7857,1,0,0:0:0:0:
5,360,8038,2,0,L|0:305,1,55.0000016784668,0|0,1:0|0:0,0:0:0:0:
60,236,8400,2,0,L|64:181,1,55.0000016784668,8|0,0:2|0:0,0:0:0:0:
21,84,8762,6,2,P|75:80|129:92,1,110.000003356934,0|8,1:0|0:2,0:0:0:0:
181,180,9304,2,2,P|235:183|289:171,1,110.000003356934,0|0,0:0|0:0,0:0:0:0:
381,124,9847,2,0,P|390:149|392:176,1,55.0000016784668,8|0,0:2|0:0,0:0:0:0:
342,270,10209,6,2,P|396:277|450:269,1,110.000003356934,0|8,1:0|0:2,0:0:0:0:
512,202,10752,1,0,0:0:0:0:
481,116,10933,2,0,L|476:61,1,55.0000016784668,0|0,1:0|0:0,0:0:0:0:
393,13,11295,2,0,L|388:67,1,55.0000016784668,8|0,0:2|0:0,0:0:0:0:
386,171,11657,6,2,P|332:178|278:170,1,110.000003356934,0|8,1:0|0:2,0:0:0:0:
236,88,12200,1,0,0:0:0:0:
186,165,12380,2,0,L|181:219,1,55.0000016784668,0|0,1:0|0:0,0:0:0:0:
169,322,12742,2,0,P|196:322|222:315,1,55.0000016784668,8|0,0:2|0:0,0:0:0:0:
282,232,13104,6,2,P|336:225|390:233,1,110.000003356934,0|8,1:0|0:2,0:0:0:0:
473,271,13647,1,0,0:0:0:0:
445,370,13828,2,2,P|391:377|337:369,1,110.000003356934,0|8,1:0|0:2,0:0:0:0:
254,331,14371,1,0,0:0:0:0:
287,220,14552,6,2,P|290:162|273:108,1,115.000002193451,0|8,1:0|0:2,3:0:0:0:
189,171,15095,1,0,0:0:0:0:
100,236,15276,2,2,P|82:181|86:124,1,115.000002193451,0|8,1:0|0:2,3:0:0:0:
189,171,15819,1,0,0:0:0:0:
287,220,15999,6,2,P|290:163|273:109,1,115.000002193451,0|8,1:0|0:2,3:0:0:0:
189,171,16542,1,0,0:0:0:0:
100,236,16723,2,2,P|81:181|86:124,1,115.000002193451,0|8,1:0|0:2,3:0:0:0:
189,171,17266,1,0,0:0:0:0:
274,109,17447,5,4,0:1:0:0:
274,109,17809,2,0,P|305:99|337:103,1,64.9999970245362,8|0,0:2|0:0,0:0:0:0:
387,207,18171,2,0,P|355:216|323:212,1,64.9999970245362,0|0,1:0|0:0,0:0:0:0:
218,201,18532,2,0,P|185:203|156:217,1,64.9999970245362,8|0,0:2|0:0,0:0:0:0:
118,333,18894,5,0,1:0:0:0:
209,297,19075,1,0,0:0:0:0:
304,373,19256,1,8,0:2:0:0:
333,279,19437,1,0,0:0:0:0:
429,363,19618,2,0,P|449:337|458:306,1,64.9999970245362,0|0,1:0|0:0,0:0:0:0:
473,200,19980,2,0,P|440:200|410:213,1,64.9999970245362,8|0,0:2|0:0,0:0:0:0:
333,279,20342,5,0,1:0:0:0:
333,279,20704,2,0,P|300:282|270:272,1,64.9999970245362,8|0,0:2|0:0,0:0:0:0:
227,167,21066,2,0,P|196:156|164:160,1,64.9999970245362,0|0,1:0|0:0,0:0:0:0:
115,264,21428,2,0,P|145:274|177:270,1,64.9999970245362,8|0,0:2|0:0,0:0:0:0:
292,261,21789,5,0,1:0:0:0:
256,352,21970,1,0,0:0:0:0:
374,320,22151,1,8,0:2:0:0:
454,373,22332,1,0,0:0:0:0:
483,279,22513,2,0,P|470:248|448:226,1,64.9999970245362,0|0,1:0|0:0,0:0:0:0:
341,190,22875,2,0,P|318:167|306:137,1,64.9999970245362,8|0,0:2|0:0,0:0:0:0:
294,36,23237,5,0,1:0:0:0:
294,36,23599,2,0,P|262:27|230:34,1,64.9999970245362,8|0,0:2|0:0,0:0:0:0:
177,127,23961,2,0,P|145:133|114:125,1,64.9999970245362,0|0,1:0|0:0,0:0:0:0:
33,47,24323,2,0,P|10:69|0:100,1,64.9999970245362,8|0,0:2|0:0,0:0:0:0:
38,202,24684,5,0,1:0:0:0:
129,232,24865,1,0,0:0:0:0:
151,342,25046,1,8,0:2:0:0:
235,300,25227,1,0,0:0:0:0:
221,202,25408,2,0,P|254:198|284:211,1,64.9999970245362,0|0,1:0|0:0,0:0:0:0:
391,272,25770,2,0,P|407:244|408:211,1,64.9999970245362,8|0,0:2|0:0,0:0:0:0:
343,116,26132,5,0,1:0:0:0:
343,116,26494,2,0,L|336:185,1,69.9999978637695,10|0,0:2|0:0,0:0:0:0:
231,65,26856,2,0,L|237:134,1,69.9999978637695,2|0,1:2|0:0,0:0:0:0:
136,133,27218,2,0,L|129:202,1,69.9999978637695,10|0,0:2|0:0,0:0:0:0:
212,294,27580,5,0,1:0:0:0:
212,294,27941,2,0,L|218:220,1,69.9999978637695,10|0,0:2|0:0,0:0:0:0:
343,353,28303,2,0,L|336:279,1,69.9999978637695,2|0,1:2|0:0,0:0:0:0:
452,275,28665,2,0,L|458:201,1,69.9999978637695,10|0,0:2|0:0,0:0:0:0:
414,101,29027,5,4,1:1:0:0:
414,101,29389,2,0,P|382:93|351:99,1,64.9999970245362,8|0,0:2|0:0,0:0:0:0:
282,203,29751,2,0,P|250:209|219:201,1,64.9999970245362,0|0,1:0|0:0,0:0:0:0:
158,94,30113,2,0,P|126:86|95:92,1,64.9999970245362,8|0,0:2|0:0,0:0:0:0:
31,171,30475,5,0,1:0:0:0:
122,201,30656,1,0,0:0:0:0:
133,308,30837,1,8,0:2:0:0:
223,281,31018,1,0,0:0:0:0:
228,384,31198,2,0,P|260:380|287:364,1,64.9999970245362,0|0,1:0|0:0,0:0:0:0:
337,255,31560,2,0,P|364:238|396:235,1,64.9999970245362,8|0,0:2|0:0,0:0:0:0:
500,282,31922,5,0,1:0:0:0:
500,282,32284,2,0,P|512:252|510:219,1,64.9999970245362,8|0,0:2|0:0,0:0:0:0:
416,139,32646,2,0,P|403:168|405:201,1,64.9999970245362,0|0,1:0|0:0,0:0:0:0:
493,62,33007,2,0,P|505:32|503:0,1,64.9999970245362,8|0,0:2|0:0,0:0:0:0:
382,9,33370,6,2,P|317:7|252:15,1,129.999994049072,0|8,1:0|0:2,0:0:0:0:
46,102,34093,2,2,P|110:100|175:108,1,129.999994049072,0|8,1:0|0:2,0:0:0:0:
382,195,34817,2,2,P|317:193|252:201,1,129.999994049072,0|8,1:0|0:2,0:0:0:0:
46,288,35541,2,2,P|110:286|175:294,1,129.999994049072,0|8,1:0|0:2,0:0:0:0:
256,192,36265,12,0,37712,0:0:0:0:
2,204,38436,6,0,B|21:159|84:171|113:257|13:240|59:318,1,200,2|0,0:0|0:0,0:0:0:0:
