osu file format v14

[General]
AudioFilename: audio.mp3
AudioLeadIn: 0
PreviewTime: 26832
Countdown: 0
SampleSet: Soft
StackLeniency: 0.7
Mode: 2
LetterboxInBreaks: 0
WidescreenStoryboard: 1

[Editor]
Bookmarks: 38942
DistanceSpacing: 1.5
BeatDivisor: 4
GridSize: 4
TimelineZoom: 1

[Metadata]
Title:Fury Heart
TitleUnicode:Fury Heart
Artist:Brad Breeck
ArtistUnicode:Brad Breeck
Creator:Chatie
Version:Salad
Source:We Bare Bears
Tags:cartoon network bear bradbreeck animated animation wbb panda ice grizzly daniel chong tv television panpan charlie english rock brother up
BeatmapID:2141706
BeatmapSetID:1023839

[Difficulty]
HPDrainRate:4
CircleSize:3
OverallDifficulty:7
ApproachRate:7
SliderMultiplier:1.8
SliderTickRate:2

[Events]
//Background and Video events
0,0,"Bro_128.png",0,0
//Break Periods
//Storyboard Layer 0 (Background)
//Storyboard Layer 1 (Fail)
//Storyboard Layer 2 (Pass)
//Storyboard Layer 3 (Foreground)
//Storyboard Layer 4 (Overlay)
//Storyboard Sound Samples

[TimingPoints]
420,550.45871559633,4,2,1,70,1,0
26842,-100,4,2,1,75,0,1
34548,-100,4,2,1,60,0,1
35098,-100,4,2,1,60,0,0
35374,-100,4,2,1,30,0,0
38952,-100,4,2,1,5,0,0

[Colours]
Combo1 : 221,221,0
Combo2 : 0,128,192
Combo3 : 64,128,128

[HitObjects]
353,181,420,5,4,0:0:0:0:
163,179,970,2,0,L|53:180,1,90,8|0,0:0|0:0,0:0:0:0:
163,179,1520,1,2,0:0:0:0:
361,188,2071,1,8,0:0:0:0:
447,175,2346,1,0,0:0:0:0:
209,180,2621,6,0,L|113:180,1,90,2|0,0:0|0:0,0:0:0:0:
227,180,3172,1,8,0:0:0:0:
128,211,3447,2,0,P|77:138|149:72,1,180
242,175,4273,2,0,L|126:175,1,90,8|0,0:0|0:0,0:0:0:0:
386,178,4823,5,2,0:0:0:0:
235,190,5374,2,0,L|120:189,1,90,8|0,0:0|0:0,0:0:0:0:
37,193,5924,2,0,L|229:192,1,180,0|8,0:0|0:0,0:0:0:0:
138,192,6750,1,0,0:0:0:0:
376,219,7025,6,0,P|429:155|355:76,1,180,2|8,0:0|0:0,0:0:0:0:
276,96,7851,1,0,0:0:0:0:
168,105,8126,2,0,L|52:103,1,90
186,105,8676,2,0,L|309:105,1,90,8|0,0:0|0:0,0:0:0:0:
41,112,9227,5,6,0:0:0:0:
137,112,9502,1,0,0:0:0:0:
240,190,9777,2,0,L|135:190,1,90,8|0,0:0|0:0,0:0:0:0:
240,190,10328,1,0,0:0:0:0:
95,178,10878,2,0,L|205:180,1,90,8|0,0:0|0:0,0:0:0:0:
420,177,11429,6,0,L|323:177,1,90,2|0,0:0|0:0,0:0:0:0:
233,173,11979,1,8,0:0:0:0:
330,177,12254,2,0,P|383:102|311:42,1,180,0|0,0:0|0:0,0:0:0:0:
244,44,13080,2,0,L|361:44,1,90,8|0,0:0|0:0,0:0:0:0:
99,45,13631,5,2,0:0:0:0:
314,133,14181,2,0,L|435:134,1,90,8|0,0:0|0:0,0:0:0:0:
308,173,14731,2,0,P|281:60|338:19,1,180,0|8,0:0|0:0,0:0:0:0:
404,29,15557,1,0,0:0:0:0:
170,64,15832,6,0,L|60:63,2,90,2|0|8,0:0|0:0|0:0,0:0:0:0:
264,65,16658,2,0,L|69:68,1,180,0|4,0:0|0:3,0:0:0:0:
192,69,17484,1,4,0:3:0:0:
84,67,17759,1,4,0:3:0:0:
318,73,18034,6,0,L|428:73,1,90,6|0,0:0|0:0,0:0:0:0:
318,73,18585,1,8,0:0:0:0:
138,81,19135,2,0,L|28:81,1,90,2|0,0:0|0:0,0:0:0:0:
138,81,19686,1,8,0:0:0:0:
346,212,20236,6,0,P|396:111|328:57,1,180,2|8,0:0|0:0,0:0:0:0:
275,69,21062,1,0,0:0:0:0:
188,205,21337,2,0,L|389:206,1,180,2|8,0:0|0:0,0:0:0:0:
294,205,22163,1,0,0:0:0:0:
60,201,22438,5,2,0:0:0:0:
160,200,22713,1,0,0:0:0:0:
60,201,22988,2,0,L|167:203,1,90,8|0,0:0|0:0,0:0:0:0:
376,205,23539,2,0,P|413:101|353:44,1,180,2|8,0:0|0:0,0:0:0:0:
286,58,24364,1,0,0:0:0:0:
60,88,24640,6,0,L|224:88,1,135,8|8,0:0|0:0,0:0:0:0:
60,218,25465,2,0,P|58:110|116:80,1,180,10|8,0:0|0:0,0:0:0:0:
337,155,26291,2,0,L|420:150,2,45,8|8|8,0:0|0:0|0:0,0:0:0:0:
129,206,26842,6,0,L|32:186,1,90,4|0,0:0|0:0,0:0:0:0:
304,173,27392,2,0,L|422:172,1,90,8|0,0:0|0:0,0:0:0:0:
304,173,27942,2,0,L|185:171,1,90,0|0,0:0|0:0,0:0:0:0:
304,173,28493,1,8,0:0:0:0:
393,172,28768,1,0,0:0:0:0:
186,183,29043,6,0,L|83:184,1,90,2|0,0:0|0:0,0:0:0:0:
6,182,29594,1,8,0:0:0:0:
96,183,29869,1,0,0:0:0:0:
186,183,30144,2,0,L|94:184,1,90,0|0,0:0|0:0,0:0:0:0:
12,186,30695,2,0,L|115:186,1,90,8|0,0:0|0:0,0:0:0:0:
353,185,31245,5,2,0:0:0:0:
133,192,31796,2,0,L|12:192,1,90,8|0,0:0|0:0,0:0:0:0:
133,192,32346,1,0,0:0:0:0:
223,192,32621,1,0,0:0:0:0:
133,192,32897,2,0,L|236:192,1,90,8|0,0:0|0:0,0:0:0:0:
457,202,33447,6,0,L|289:200,1,135,8|8,0:0|0:0,0:0:0:0:
130,192,34273,1,8,0:0:0:0:
364,187,34548,5,8,0:0:0:0:
256,192,35098,12,0,38952,0:0:0:0:
