osu file format v14

[General]
AudioFilename: audio.mp3
AudioLeadIn: 0
PreviewTime: 132
Countdown: 0
SampleSet: Soft
StackLeniency: 0.7
Mode: 3
LetterboxInBreaks: 0
SpecialStyle: 0
WidescreenStoryboard: 0

[Editor]
DistanceSpacing: 1.5
BeatDivisor: 4
GridSize: 4
TimelineZoom: 1

[Metadata]
Title:Fury Heart
TitleUnicode:Fury Heart
Artist:Brad Breeck
ArtistUnicode:Brad Breeck
Creator:Ayachi Meme
Version:NM
Source:We Bare Bears
Tags:cartoon network bear bradbreeck tv television animated animation wbb panda panpan ice grizzly charlie
BeatmapID:1315247
BeatmapSetID:624003

[Difficulty]
HPDrainRate:7
CircleSize:4
OverallDifficulty:7
ApproachRate:5
SliderMultiplier:1.4
SliderTickRate:1

[Events]
//Background and Video events
0,0,"www.jpg",0,0
Video,0,"Fufuryy.avi"
//Break Periods
//Storyboard Layer 0 (Background)
//Storyboard Layer 1 (Fail)
//Storyboard Layer 2 (Pass)
//Storyboard Layer 3 (Foreground)
//Storyboard Sound Samples

[TimingPoints]
408,550.45871559633,4,2,1,50,1,0
26830,-100,4,2,1,50,0,1
35086,-100,4,2,1,50,0,0

[HitObjects]
64,192,408,5,4,0:0:0:0:
448,192,408,1,2,0:0:0:0:
320,192,683,1,0,0:0:0:0:
192,192,958,1,8,0:0:0:0:
448,192,1508,1,2,0:0:0:0:
64,192,1784,1,0,0:0:0:0:
320,192,2059,1,8,0:0:0:0:
192,192,2196,1,0,0:0:0:0:
64,192,2609,1,2,0:0:0:0:
320,192,2609,1,0,0:0:0:0:
192,192,2885,1,0,0:0:0:0:
448,192,3160,1,8,0:0:0:0:
320,192,3710,1,2,0:0:0:0:
192,192,3985,1,0,0:0:0:0:
64,192,4261,1,8,0:0:0:0:
320,192,4398,1,2,0:0:0:0:
192,192,4811,1,2,0:0:0:0:
448,192,4811,1,0,0:0:0:0:
64,192,5086,1,0,0:0:0:0:
320,192,5362,1,8,0:0:0:0:
64,192,5912,1,2,0:0:0:0:
192,192,6187,1,0,0:0:0:0:
448,192,6463,1,8,0:0:0:0:
320,192,6600,1,0,0:0:0:0:
64,192,7013,1,2,0:0:0:0:
192,192,7013,1,0,0:0:0:0:
448,192,7288,1,0,0:0:0:0:
320,192,7563,1,8,0:0:0:0:
64,192,8114,1,2,0:0:0:0:
320,192,8389,1,0,0:0:0:0:
448,192,8664,1,8,0:0:0:0:
192,192,8802,1,0,0:0:0:0:
64,192,8940,1,2,0:0:0:0:
320,192,9215,1,2,0:0:0:0:
448,192,9215,1,4,0:0:0:0:
64,192,9490,1,0,0:0:0:0:
192,192,9765,1,8,0:0:0:0:
448,192,10316,1,2,0:0:0:0:
192,192,10591,1,0,0:0:0:0:
64,192,10866,1,8,0:0:0:0:
320,192,11004,1,0,0:0:0:0:
192,192,11417,1,2,0:0:0:0:
448,192,11417,1,0,0:0:0:0:
64,192,11692,1,0,0:0:0:0:
320,192,11967,1,8,0:0:0:0:
64,192,12518,1,2,0:0:0:0:
192,192,12793,1,0,0:0:0:0:
320,192,13068,1,8,0:0:0:0:
448,192,13206,1,2,0:0:0:0:
192,192,13619,1,2,0:0:0:0:
64,192,13619,1,0,0:0:0:0:
448,192,13894,1,0,0:0:0:0:
320,192,14169,1,8,0:0:0:0:
64,192,14719,1,2,0:0:0:0:
448,192,14995,1,0,0:0:0:0:
192,192,15270,1,8,0:0:0:0:
320,192,15407,1,0,0:0:0:0:
448,192,15820,1,2,0:0:0:0:
64,192,15820,1,0,0:0:0:0:
320,192,16096,1,0,0:0:0:0:
192,192,16371,1,8,0:0:0:0:
448,192,16921,1,8,0:0:0:0:
64,192,17196,1,8,0:0:0:0:
320,192,17472,1,8,0:0:0:0:
192,192,17747,1,8,0:0:0:0:
64,192,17885,1,8,0:0:0:0:
320,192,18022,1,2,0:0:0:0:
448,192,18022,128,4,20224:0:0:0:0:
192,192,18297,1,0,0:0:0:0:
320,192,18573,1,8,0:0:0:0:
64,192,18573,1,0,0:0:0:0:
192,192,18848,1,0,0:0:0:0:
64,192,19123,1,2,0:0:0:0:
320,192,19398,1,0,0:0:0:0:
64,192,19674,1,8,0:0:0:0:
192,192,19674,1,0,0:0:0:0:
320,192,19949,1,0,0:0:0:0:
192,192,20224,128,2,22426:0:0:0:0:
320,192,20499,1,0,0:0:0:0:
64,192,20774,1,8,0:0:0:0:
448,192,20774,1,0,0:0:0:0:
320,192,21050,1,0,0:0:0:0:
64,192,21325,1,2,0:0:0:0:
448,192,21600,1,0,0:0:0:0:
64,192,21875,1,8,0:0:0:0:
320,192,21875,1,0,0:0:0:0:
448,192,22151,1,0,0:0:0:0:
64,192,22426,128,2,24628:0:0:0:0:
448,192,22701,1,0,0:0:0:0:
320,192,22976,1,8,0:0:0:0:
192,192,22976,1,0,0:0:0:0:
448,192,23252,1,0,0:0:0:0:
192,192,23527,1,2,0:0:0:0:
320,192,23802,1,0,0:0:0:0:
448,192,24077,1,8,0:0:0:0:
192,192,24077,1,0,0:0:0:0:
320,192,24352,1,0,0:0:0:0:
192,192,24628,128,6,24903:0:0:0:0:
448,192,24903,1,8,0:0:0:0:
320,192,25041,128,6,25316:0:0:0:0:
192,192,25316,1,8,0:0:0:0:
448,192,25453,128,6,26004:0:0:0:0:
64,192,25729,1,2,0:0:0:0:
192,192,26004,1,8,0:0:0:0:
64,192,26279,1,8,0:0:0:0:
192,192,26417,1,8,0:0:0:0:
320,192,26554,1,8,0:0:0:0:
192,192,26692,1,8,0:0:0:0:
448,192,26830,1,2,0:0:0:0:
320,192,26830,128,4,29031:0:0:0:0:
192,192,27105,1,0,0:0:0:0:
64,192,27380,1,8,0:0:0:0:
448,192,27380,1,0,0:0:0:0:
192,192,27655,1,0,0:0:0:0:
448,192,27930,1,2,0:0:0:0:
192,192,28206,1,0,0:0:0:0:
448,192,28481,1,8,0:0:0:0:
64,192,28481,1,0,0:0:0:0:
192,192,28756,1,0,0:0:0:0:
64,192,29031,128,2,31233:0:0:0:0:
448,192,29307,1,0,0:0:0:0:
320,192,29582,1,8,0:0:0:0:
192,192,29582,1,0,0:0:0:0:
448,192,29857,1,0,0:0:0:0:
192,192,30132,1,2,0:0:0:0:
448,192,30407,1,0,0:0:0:0:
320,192,30683,1,8,0:0:0:0:
192,192,30683,1,0,0:0:0:0:
448,192,30958,1,0,0:0:0:0:
192,192,31233,128,6,33435:0:0:0:0:
320,192,31508,1,0,0:0:0:0:
64,192,31784,1,8,0:0:0:0:
448,192,31784,1,0,0:0:0:0:
320,192,32059,1,0,0:0:0:0:
64,192,32334,1,2,0:0:0:0:
320,192,32609,1,0,0:0:0:0:
64,192,32885,1,8,0:0:0:0:
448,192,32885,1,0,0:0:0:0:
320,192,33160,1,8,0:0:0:0:
448,192,33435,128,6,33710:0:0:0:0:
64,192,33710,1,8,0:0:0:0:
320,192,33848,128,6,34123:0:0:0:0:
192,192,34123,1,8,0:0:0:0:
448,192,34261,128,6,34536:0:0:0:0:
64,192,34536,128,6,35086:0:0:0:0:
448,192,35086,128,6,38940:0:0:0:0:
64,192,36050,1,0,0:0:0:0:
192,192,36325,1,0,0:0:0:0:
320,192,36600,1,0,0:0:0:0:
64,192,36738,1,0,0:0:0:0:
192,192,37151,128,0,38664:0:0:0:0:
