osu file format v14

[General]
AudioFilename: audio.mp3
AudioLeadIn: 0
PreviewTime: 12748
Countdown: 0
SampleSet: Soft
StackLeniency: 0.7
Mode: 2
LetterboxInBreaks: 0
WidescreenStoryboard: 1

[Editor]
DistanceSpacing: 3.2
BeatDivisor: 7
GridSize: 8
TimelineZoom: 1

[Metadata]
Title:Emotional Uplifting Orchestral
TitleUnicode:Emotional Uplifting Orchestral
Artist:Brad Breeck
ArtistUnicode:Brad Breeck
Creator:bigh
Version:Platter
Source:We Bare Bears
Tags:cartoon network cn animation animated tv daniel chong wbb grizzly panda panpan ice bear bradbreeck episode 004 e004 Chloe other instrumental Monika DDD Monika_DDD bighzonda
BeatmapID:3700613
BeatmapSetID:1804625

[Difficulty]
HPDrainRate:5
CircleSize:3.5
OverallDifficulty:7.7
ApproachRate:7.7
SliderMultiplier:3.59999990463257
SliderTickRate:3

[Events]
//Background and Video events
0,0,"bg.jpg",0,0
//Break Periods
//Storyboard Layer 0 (Background)
//Storyboard Layer 1 (Fail)
//Storyboard Layer 2 (Pass)
//Storyboard Layer 3 (Foreground)
//Storyboard Layer 4 (Overlay)
//Storyboard Sound Samples

[TimingPoints]
281,779.220779220779,4,2,1,50,1,0
12748,-100,4,2,1,70,0,0
31969,-100,4,2,1,60,0,0
32293,-100,4,2,1,53,0,0
32618,-100,4,2,1,45,0,0
32943,-100,4,2,1,38,0,0
33268,-100,4,2,1,30,0,0
33592,-100,4,2,1,23,0,0
33917,-100,4,2,1,16,0,0
34242,-100,4,2,1,9,0,0
34566,-100,4,2,1,5,0,0

[Colours]
Combo1 : 185,176,151
Combo2 : 131,124,153
Combo3 : 100,121,176
Combo4 : 217,196,164

[HitObjects]
160,96,280,6,0,L|84:200,1,119.999996821086,2|0,0:0|0:0,0:0:0:0:
208,200,800,1,0,0:0:0:0:
328,200,1060,2,0,L|404:96,1,119.999996821086
280,96,1580,1,0,0:0:0:0:
80,88,1839,6,0,L|80:228,1,119.999996821086,2|0,0:0|0:0,0:0:0:0:
200,200,2358,1,0,0:0:0:0:
320,192,2618,2,0,L|168:192,1,119.999996821086,2|0,0:0|0:0,0:0:0:0:
80,188,3138,1,0,0:0:0:0:
296,96,3397,6,0,L|372:200,1,119.999996821086,2|0,0:0|0:0,0:0:0:0:
248,200,3917,1,0,0:0:0:0:
128,200,4177,2,0,L|52:96,1,119.999996821086,2|0,0:0|0:0,0:0:0:0:
176,96,4697,1,0,0:0:0:0:
376,88,4956,6,0,L|376:228,1,119.999996821086,2|0,0:0|0:0,0:0:0:0:
256,200,5475,1,0,0:0:0:0:
136,192,5735,2,0,L|288:192,1,119.999996821086,2|0,0:0|0:0,0:0:0:0:
376,188,6255,1,0,0:0:0:0:
140,124,6514,6,0,L|296:120,2,119.999996821086,2|0|0,0:0|0:0|0:0,0:0:0:0:
264,128,7293,2,0,L|324:20,1,119.999996821086,2|0,0:0|0:0,0:0:0:0:
200,20,7813,1,0,0:0:0:0:
416,24,8073,2,0,P|472:116|376:176,1,239.999993642171,2|0,0:0|0:0,0:0:0:0:
260,104,8852,2,0,L|500:104,1,239.999993642171,2|0,0:0|0:0,0:0:0:0:
268,100,9631,6,0,L|104:100,1,119.999996821086,2|0,0:0|0:0,0:0:0:0:
120,48,10151,1,0,0:0:0:0:
240,48,10410,2,0,L|404:48,1,119.999996821086,2|0,0:0|0:0,0:0:0:0:
388,100,10930,1,0,0:0:0:0:
160,164,11190,2,0,P|86:140|172:40,1,239.999993642171,2|0,0:0|0:0,0:0:0:0:
268,24,11969,2,0,L|508:24,1,239.999993642171,2|0,0:0|0:0,0:0:0:0:
186,79,12748,6,0,L|54:79,2,119.999996821086,2|0|0,0:0|0:0|0:0,0:0:0:0:
308,127,13527,2,0,L|440:127,2,119.999996821086,2|0|0,0:0|0:0|0:0,0:0:0:0:
96,103,14306,2,0,L|96:231,1,119.999996821086,2|0,0:0|0:0,0:0:0:0:
216,103,14826,1,0,0:0:0:0:
336,103,15086,2,0,L|72:103,1,239.999993642171,2|0,0:0|0:0,0:0:0:0:
320,79,15865,6,0,L|452:79,2,119.999996821086,2|0|0,0:0|0:0|0:0,0:0:0:0:
198,127,16644,2,0,L|66:127,2,119.999996821086,2|0|0,0:0|0:0|0:0,0:0:0:0:
410,103,17423,2,0,L|410:231,1,119.999996821086,2|0,0:0|0:0,0:0:0:0:
290,103,17943,1,0,0:0:0:0:
170,103,18203,2,0,L|434:103,1,239.999993642171,2|0,0:0|0:0,0:0:0:0:
88,172,18982,6,0,L|33:50,2,119.999996821086,2|0|0,0:0|0:0|0:0,0:0:0:0:
208,48,19761,1,2,0:0:0:0:
328,40,20021,1,0,0:0:0:0:
448,32,20280,1,0,0:0:0:0:
232,128,20540,6,0,L|96:128,1,119.999996821086,2|0,0:0|0:0,0:0:0:0:
72,192,21060,1,0,0:0:0:0:
192,192,21319,2,0,L|328:192,1,119.999996821086,2|0,0:0|0:0,0:0:0:0:
352,128,21839,1,0,0:0:0:0:
132,220,22099,6,0,L|80:88,1,119.999996821086,2|0,0:0|0:0,0:0:0:0:
112,80,22488,1,0,0:0:0:0:
168,64,22618,1,0,0:0:0:0:
288,64,22878,2,0,L|428:64,1,119.999996821086,2|0,0:0|0:0,0:0:0:0:
348,64,23268,1,0,0:0:0:0:
288,64,23397,1,0,0:0:0:0:
72,64,23657,2,0,P|11:132|124:204,1,239.999993642171,2|0,0:0|0:0,0:0:0:0:
224,112,24436,2,0,B|96:112|96:112|4:48,1,239.999993642171,2|0,0:0|0:0,0:0:0:0:
327,211,25216,6,0,P|451:183|320:64,1,359.999990463257,2|2,0:0|0:0,0:0:0:0:
228,52,26255,2,0,L|164:176,1,119.999996821086,0|0,0:0|0:0,0:0:0:0:
388,184,26774,2,0,P|330:65|167:38,1,239.999993642171,2|0,0:0|0:0,0:0:0:0:
115,60,27553,1,2,0:0:0:0:
236,92,27813,1,0,0:0:0:0:
116,112,28073,1,0,0:0:0:0:
438,176,28332,6,0,B|439:169|439:169|438:130|438:130|432:126|432:126|436:52|436:52|160:32,1,359.999990463257,2|2,0:0|0:0,0:0:0:0:
83,77,29371,1,0,0:0:0:0:
203,35,29631,1,0,0:0:0:0:
323,77,29891,1,2,0:0:0:0:
383,161,30151,1,0,0:0:0:0:
323,77,30410,1,0,0:0:0:0:
203,77,30670,2,0,L|331:73,1,119.999996821086,2|0,0:0|0:0,0:0:0:0:
443,69,31190,1,0,0:0:0:0:
323,77,31449,5,0,0:0:0:0:
256,192,32006,12,0,34566,0:0:0:0:
