osu file format v14

[General]
AudioFilename: audio.mp3
AudioLeadIn: 0
PreviewTime: 14514
Countdown: 0
SampleSet: Normal
StackLeniency: 0.2
Mode: 1
LetterboxInBreaks: 0
WidescreenStoryboard: 1

[Editor]
Bookmarks: 193,2575,4926,7368,9767,12163,14541,16965,19408,21772,24163,26578,28978,31369,34982
DistanceSpacing: 1.2
BeatDivisor: 2
GridSize: 32
TimelineZoom: 1.1456

[Metadata]
Title:Emotional Sincere Touching Banjo Celeste
TitleUnicode:Emotional Sincere Touching Banjo Celeste
Artist:Brad Breeck
ArtistUnicode:Brad Breeck
Creator:liku
Version:Futsuu
Source:We Bare Bears
Tags:bradbreeck Instrumental Indie Folk Cartoon Network CN WBB Ice Bear Grizzly Panda Western Animation ending ed season 1
BeatmapID:3904459
BeatmapSetID:1845899

[Difficulty]
HPDrainRate:10
CircleSize:5
OverallDifficulty:2
ApproachRate:5
SliderMultiplier:1.3
SliderTickRate:1

[Events]
//Background and Video events
0,0,"screen.jpg",0,-120
//Break Periods
//Storyboard Layer 0 (Background)
//Storyboard Layer 1 (Fail)
//Storyboard Layer 2 (Pass)
//Storyboard Layer 3 (Foreground)
//Storyboard Layer 4 (Overlay)
//Storyboard Sound Samples

[TimingPoints]
193,595.533498759305,4,1,0,30,1,0
193,-100.75,4,1,0,30,0,0
2575,588.235294117647,4,1,0,35,1,0
2575,-102,4,1,0,35,0,0
3751,600,4,1,0,35,1,8
3751,-100,4,1,0,35,0,8
4926,610.687022900763,4,1,0,40,1,0
4926,-98.25,4,1,0,40,0,0
7354,-98.25,4,1,0,45,0,0
7368,600,4,1,0,45,1,0
7368,-100,4,1,0,45,0,0
9750,-100,4,1,0,50,0,0
9768,612.244897959184,4,1,0,50,1,0
9768,-98,4,1,0,50,0,0
10380,638.297872340425,4,1,0,50,1,8
10380,-94.0000000000001,4,1,0,50,0,8
11018,572.792362768496,4,1,0,50,1,8
11018,-104.75,4,1,0,50,0,8
12163,612.244897959184,4,1,0,50,1,0
12163,-98,4,1,0,50,0,0
13360,590.551181102362,4,1,0,50,1,8
13360,-101.6,4,1,0,50,0,8
14514,-101.6,4,1,0,55,0,8
14541,600,4,1,0,55,1,0
14541,-100,4,1,0,55,0,0
16359,606.060606060606,4,1,0,55,1,8
16359,-99,4,1,0,55,0,8
16965,606.060606060606,4,1,0,55,1,0
16965,-99,4,1,0,55,0,0
17571,625,4,1,0,55,1,8
17571,-96,4,1,0,55,0,8
18196,600,4,1,0,55,1,8
18196,-100,4,1,0,55,0,8
18796,612.244897959184,4,1,0,55,1,8
18796,-98,4,1,0,55,0,8
19408,600,4,1,0,55,1,0
19408,-100,4,1,0,55,0,0
20008,588.235294117647,4,1,0,55,1,8
20008,-102,4,1,0,55,0,8
21772,594.059405940594,4,1,0,55,1,0
21772,-101,4,1,0,55,0,0
22972,594.059405940594,4,1,0,55,1,8
22972,-101,4,1,0,55,0,8
24160,594.059405940594,4,1,0,55,1,0
24160,-101,4,1,0,55,0,0
25957,621.761658031088,4,1,0,55,1,8
25957,-96.5,4,1,0,55,0,8
26578,594.059405940594,4,1,0,55,1,0
26578,-101,4,1,0,55,0,0
28360,618.556701030928,4,1,0,55,1,8
28360,-97,4,1,0,55,0,8
28963,-97,4,1,0,50,0,8
28978,591.133004926108,4,1,0,50,1,0
28978,-101.5,4,1,0,50,0,0
29569,603.015075376884,4,1,0,50,1,8
29569,-99.5000000000001,4,1,0,50,0,8
30172,588.235294117647,4,1,0,50,1,8
30172,-102,4,1,0,50,0,8
30760,609.137055837563,4,1,0,50,1,8
30760,-98.5000000000001,4,1,0,50,0,8
31369,594.059405940594,4,1,0,50,1,0
31369,-101,4,1,0,50,0,0
31963,606.060606060606,4,1,0,50,1,8
31963,-99,4,1,0,50,0,8
32558,-99,4,1,0,30,0,8
32569,621.761658031088,4,1,0,30,1,8
32569,-96.5,4,1,0,30,0,8
33190,650.406504065041,4,1,0,30,1,8
33190,-92.25,4,1,0,30,0,8
33830,-92.25,4,1,0,20,0,8
33840,689.655172413793,4,1,0,20,1,0
33840,-87,4,1,0,20,0,8
34529,453.686200378072,4,1,0,20,1,8
34529,-132.25,4,1,0,20,0,8
34982,600,4,1,0,20,1,8
34982,-100,4,1,0,20,0,0

[HitObjects]
160,179,193,5,0,0:0:0:0:
81,118,788,1,0,0:0:0:0:
159,183,1384,1,0,0:0:0:0:
81,118,1979,1,0,0:0:0:0:
168,189,2575,5,0,0:0:0:0:
129,138,2869,1,0,0:0:0:0:
130,150,3163,1,8,0:0:0:0:
103,134,3751,1,8,0:0:0:0:
261,197,4051,1,0,0:0:0:0:
261,197,4351,1,8,0:0:0:0:
240,205,4926,1,8,0:0:0:0:
288,207,5231,1,8,0:0:0:0:
276,221,5536,1,0,0:0:0:0:
283,228,6147,1,8,0:0:0:0:
285,227,6758,1,8,0:0:0:0:
275,229,7063,1,0,0:0:0:0:
265,220,7368,1,8,0:0:0:0:
265,220,7968,1,0,0:0:0:0:
265,220,8568,1,8,0:0:0:0:
264,227,9768,1,0,0:0:0:0:
143,167,10074,1,8,0:0:0:0:
224,121,10380,1,0,0:0:0:0:
209,113,11018,1,0,0:0:0:0:
209,113,11304,1,0,0:0:0:0:
209,113,11590,1,8,0:0:0:0:
207,120,12163,1,0,0:0:0:0:
115,183,12775,1,8,0:0:0:0:
115,183,13360,1,0,0:0:0:0:
95,167,13655,1,0,0:0:0:0:
96,166,13950,1,0,0:0:0:0:
90,176,14541,1,8,0:0:0:0:
109,170,15141,1,8,0:0:0:0:
79,132,15441,1,8,0:0:0:0:
117,179,15741,1,0,0:0:0:0:
116,183,16041,1,8,0:0:0:0:
115,182,16359,1,0,0:0:0:0:
110,184,16965,1,0,0:0:0:0:
110,184,17571,1,0,0:0:0:0:
74,129,17883,1,8,0:0:0:0:
106,187,18196,1,0,0:0:0:0:
200,210,19408,1,0,0:0:0:0:
200,210,19708,1,0,0:0:0:0:
200,210,20008,1,8,0:0:0:0:
200,210,20302,1,8,0:0:0:0:
198,215,20596,1,0,0:0:0:0:
200,210,21184,1,8,0:0:0:0:
203,210,21772,1,0,0:0:0:0:
200,210,22069,1,8,0:0:0:0:
203,210,22366,1,0,0:0:0:0:
203,210,22663,1,8,0:0:0:0:
200,210,22972,1,0,0:0:0:0:
203,210,23566,1,8,0:0:0:0:
188,183,24160,1,8,0:0:0:0:
177,142,24457,1,0,0:0:0:0:
177,142,24754,1,8,0:0:0:0:
177,142,25051,1,0,0:0:0:0:
180,145,25348,1,8,0:0:0:0:
180,145,25957,1,8,0:0:0:0:
222,88,26578,1,0,0:0:0:0:
224,97,26875,1,0,0:0:0:0:
224,97,27172,1,8,0:0:0:0:
220,96,27469,1,8,0:0:0:0:
213,95,27766,1,0,0:0:0:0:
242,101,28978,1,0,0:0:0:0:
242,101,29273,1,8,0:0:0:0:
242,101,29569,1,8,0:0:0:0:
242,101,30172,1,8,0:0:0:0:
242,101,30466,1,0,0:0:0:0:
242,101,30760,1,0,0:0:0:0:
242,101,31369,1,0,0:0:0:0:
239,105,31963,1,0,0:0:0:0:
239,105,32266,1,8,0:0:0:0:
241,106,32569,1,0,0:0:0:0:
231,109,33190,1,0,0:0:0:0:
231,109,33840,1,8,0:0:0:0:
231,108,34982,1,0,0:0:0:0:
