osu file format v14

[General]
AudioFilename: audio.mp3
AudioLeadIn: 0
PreviewTime: -1
Countdown: 1
SampleSet: Normal
StackLeniency: 0.7
Mode: 0
LetterboxInBreaks: 0
WidescreenStoryboard: 0

[Editor]
DistanceSpacing: 0.8
BeatDivisor: 4
GridSize: 4
TimelineZoom: 1

[Metadata]
Title:Always Here
TitleUnicode:Always Here
Artist:Brad Breeck
ArtistUnicode:Brad Breeck
Creator:Mikojel
Version:Whisper
Source:We Bare Bears
Tags:we bare bears bear flu
BeatmapID:1714478
BeatmapSetID:817575

[Difficulty]
HPDrainRate:5.5
CircleSize:3.8
OverallDifficulty:7
ApproachRate:7
SliderMultiplier:1.2
SliderTickRate:1

[Events]
//Background and Video events
0,0,"SlumberpartyTITLECARD.png",0,0
//Break Periods
//Storyboard Layer 0 (Background)
//Storyboard Layer 1 (Fail)
//Storyboard Layer 2 (Pass)
//Storyboard Layer 3 (Foreground)
//Storyboard Sound Samples

[TimingPoints]
0.133825819028687,429.031104755095,4,1,0,30,1,0
11154,-133.333333333333,4,1,0,30,0,0
12013,-200,4,1,0,30,0,0
12871,-133.333333333333,4,1,0,30,0,0
13729,-100,4,1,0,30,0,0

[Colours]
Combo1 : 32,22,41
Combo2 : 100,58,38
Combo3 : 221,221,221

[HitObjects]
33,76,0,6,0,P|67:124|121:148,1,120,0|0,3:0|0:0,0:0:0:0:
153,13,858,1,0,0:0:0:0:
36,178,1287,1,0,0:0:0:0:
234,213,1716,5,0,3:0:0:0:
126,118,2145,1,0,0:0:0:0:
175,307,2574,1,0,0:0:0:0:
250,143,3003,1,0,0:0:0:0:
78,258,3432,6,0,B|86:320|161:362|212:349|212:349|237:330|237:330|287:328|333:284|323:224,1,360,0|0,3:0|0:0,0:0:0:0:
191,230,5148,1,0,3:0:0:0:
387,287,5577,1,0,0:0:0:0:
233,237,6006,1,0,0:0:0:0:
432,198,6435,1,0,0:0:0:0:
219,161,6864,6,0,B|172:175|145:210|145:257|169:291|201:306|201:306|197:333|197:333|241:376|304:366|325:313,1,360,0|0,3:0|0:0,0:0:0:0:
233,237,8580,1,0,3:0:0:0:
300,137,9009,1,0,0:0:0:0:
258,293,9438,1,0,0:0:0:0:
232,85,9867,1,0,0:0:0:0:
335,245,10296,6,0,P|298:188|271:146,1,120,0|0,3:0|0:0,0:0:0:0:
387,81,11154,2,0,L|294:81,1,90.0000034332277
319,0,12013,2,0,L|275:41,1,60,0|0,3:0|0:0,0:0:0:0:
105,2,12871,2,0,L|182:47,1,90.0000034332277
67,169,13729,2,0,P|120:142|173:114,1,120,0|0,3:0|0:0,0:0:0:0:
295,44,14587,5,0,0:0:0:0:
237,197,15016,1,0,0:0:0:0:
402,40,15445,1,0,3:0:0:0:
244,123,15874,1,0,0:0:0:0:
448,113,16303,1,0,0:0:0:0:
322,73,16732,1,0,0:0:0:0:
389,170,17161,6,0,B|382:221|354:244|312:275|257:249|257:249|305:262|322:287|334:349|292:374|259:383,1,360,0|0,3:0|0:0,0:0:0:0:
296,164,18877,1,0,3:0:0:0:
249,316,19306,1,0,0:0:0:0:
344,225,19735,1,0,0:0:0:0:
155,282,20164,1,0,0:0:0:0:
132,193,20593,6,0,P|82:224|66:281,1,120,0|0,3:0|0:0,0:0:0:0:
36,158,21451,2,0,P|85:126|102:70,1,120
171,107,22309,2,0,P|202:156|258:173,1,120,0|0,3:0|0:0,0:0:0:0:
385,35,23167,1,0,0:0:0:0:
250,91,23596,1,0,0:0:0:0:
360,101,24025,6,0,P|375:158|369:217,1,120,0|0,3:0|0:0,0:0:0:0:
473,149,24883,2,0,P|457:206|463:265,1,120
304,303,25742,1,0,3:0:0:0:
468,337,26171,1,0,0:0:0:0:
328,215,26600,1,0,0:0:0:0:
400,372,27029,1,0,0:0:0:0:
259,188,27458,6,0,P|259:246|303:288,1,120,0|0,3:0|0:0,0:0:0:0:
410,159,28316,1,0,0:0:0:0:
331,314,28745,1,0,0:0:0:0:
234,162,29174,1,0,3:0:0:0:
396,254,29603,1,0,0:0:0:0:
179,302,30032,1,0,0:0:0:0:
268,353,30461,1,0,0:0:0:0:
256,192,30890,12,0,36038,0:0:0:0:
