osu file format v14

[General]
AudioFilename: audio.mp3
AudioLeadIn: 0
PreviewTime: -1
Countdown: 1
SampleSet: None
StackLeniency: 0.7
Mode: 3
LetterboxInBreaks: 0
SpecialStyle: 0
WidescreenStoryboard: 1

[Editor]
DistanceSpacing: 0.8
BeatDivisor: 4
GridSize: 4
TimelineZoom: 2

[Metadata]
Title:Always Here
TitleUnicode:Always Here
Artist:Brad Breeck
ArtistUnicode:Brad Breeck
Creator:Mikojel
Version:NM
Source:We Bare Bears
Tags:we bare bears bear flu
BeatmapID:1860347
BeatmapSetID:817575

[Difficulty]
HPDrainRate:5.5
CircleSize:4
OverallDifficulty:7
ApproachRate:7
SliderMultiplier:0.800000005960464
SliderTickRate:1

[Events]
//Background and Video events
0,0,"Brotherup.png",0,0
//Break Periods
//Storyboard Layer 0 (Background)
//Storyboard Layer 1 (Fail)
//Storyboard Layer 2 (Pass)
//Storyboard Layer 3 (Foreground)
//Storyboard Sound Samples

[TimingPoints]
0.133825819028687,429.031104755095,4,1,0,30,1,0

[Colours]
Combo1 : 32,22,41
Combo2 : 100,58,38
Combo3 : 221,221,221

[HitObjects]
448,192,0,128,0,858:0:0:0:0:
192,192,858,128,0,1287:0:0:0:0:
448,192,1287,128,0,1716:0:0:0:0:
64,192,1716,128,0,2574:0:0:0:0:
192,192,2574,128,0,3003:0:0:0:0:
448,192,3003,128,0,3432:0:0:0:0:
192,192,3432,128,0,4290:0:0:0:0:
64,192,4290,128,0,4719:0:0:0:0:
320,192,4719,1,0,0:0:0:0:
448,192,5148,1,0,0:0:0:0:
192,192,5577,1,0,0:0:0:0:
448,192,6006,1,0,0:0:0:0:
64,192,6435,1,0,0:0:0:0:
448,192,6864,128,0,7722:0:0:0:0:
64,192,7722,128,0,8151:0:0:0:0:
320,192,8151,1,0,0:0:0:0:
192,192,8580,1,0,0:0:0:0:
320,192,9009,1,0,0:0:0:0:
64,192,9438,1,0,0:0:0:0:
448,192,9867,1,0,0:0:0:0:
64,192,10296,128,0,11154:0:0:0:0:
320,192,10725,1,0,0:0:0:0:
192,192,11154,128,0,12013:0:0:0:0:
448,192,11583,1,0,0:0:0:0:
320,192,12013,128,0,12442:0:0:0:0:
64,192,12442,1,0,0:0:0:0:
448,192,12871,128,0,13729:0:0:0:0:
192,192,13729,128,0,15445:0:0:0:0:
448,192,14158,1,0,0:0:0:0:
320,192,14587,1,0,0:0:0:0:
448,192,15016,1,0,0:0:0:0:
320,192,15445,128,0,17161:0:0:0:0:
64,192,15874,1,0,0:0:0:0:
192,192,16303,1,0,0:0:0:0:
64,192,16732,1,0,0:0:0:0:
448,192,17161,128,0,18019:0:0:0:0:
320,192,18019,128,0,18448:0:0:0:0:
64,192,18448,1,0,0:0:0:0:
320,192,18877,1,0,0:0:0:0:
192,192,19306,1,0,0:0:0:0:
448,192,19735,1,0,0:0:0:0:
64,192,20164,1,0,0:0:0:0:
64,192,20593,128,0,21022:0:0:0:0:
192,192,21022,1,0,0:0:0:0:
192,192,21451,128,0,21880:0:0:0:0:
320,192,21880,1,0,0:0:0:0:
320,192,22309,128,0,22738:0:0:0:0:
64,192,23167,128,0,23596:0:0:0:0:
192,192,23596,128,0,24025:0:0:0:0:
448,192,24025,128,0,24883:0:0:0:0:
64,192,24454,1,0,0:0:0:0:
192,192,24883,128,0,25312:0:0:0:0:
448,192,25312,1,0,0:0:0:0:
64,192,25742,1,0,0:0:0:0:
192,192,26171,1,0,0:0:0:0:
320,192,26600,1,0,0:0:0:0:
448,192,27029,1,0,0:0:0:0:
192,192,27458,128,0,30890:0:0:0:0:
320,192,30890,1,0,0:0:0:0:
