osu file format v14

[General]
AudioFilename: ayy.mp3
AudioLeadIn: 0
PreviewTime: 43916
Countdown: 0
SampleSet: Soft
StackLeniency: 0.7
Mode: 0
LetterboxInBreaks: 0
WidescreenStoryboard: 0

[Editor]
Bookmarks: 10831,16145,21973,32945,43916,54888,65859,76831,80945,82316,85059,93288
DistanceSpacing: 1.2
BeatDivisor: 4
GridSize: 4
TimelineZoom: 1

[Metadata]
Title:We Wish You A Merry Christmas (Boyinaband Liquid DnB Remix)
TitleUnicode:We Wish You A Merry Christmas (Boyinaband Liquid DnB Remix)
Artist:Boyinaband
ArtistUnicode:Boyinaband
Creator:Strategas
Version:Hard
Source:
Tags:dnb drum and bass &
BeatmapID:857416
BeatmapSetID:390318

[Difficulty]
HPDrainRate:5
CircleSize:3.5
OverallDifficulty:6.5
ApproachRate:8
SliderMultiplier:1.4
SliderTickRate:2

[Events]
//Background and Video events
0,0,"yes.jpg",0,0
//Break Periods
2,77031,80120
//Storyboard Layer 0 (Background)
//Storyboard Layer 1 (Fail)
//Storyboard Layer 2 (Pass)
//Storyboard Layer 3 (Foreground)
//Storyboard Sound Samples

[TimingPoints]
31,342.857142857143,4,2,0,50,1,0
11002,-200,4,2,0,70,0,0
11088,-200,4,2,0,35,0,0
13745,-166.666666666667,4,2,0,40,0,0
16145,-125,4,2,0,50,0,0
21631,-100,4,2,0,70,0,0
21973,-100,4,2,0,60,0,0
24716,-100,4,2,0,65,0,0
27459,-100,4,2,0,70,0,0
30202,-100,4,2,0,65,0,0
32945,-100,4,2,0,60,0,0
35688,-100,4,2,0,65,0,0
38431,-100,4,2,0,70,0,0
41173,-100,4,2,0,65,0,0
43916,-100,4,1,0,60,0,1
46659,-100,4,1,0,65,0,1
49402,-100,4,1,0,70,0,1
52145,-100,4,1,0,65,0,1
54888,-100,4,1,0,60,0,1
57631,-100,4,1,0,65,0,1
60373,-100,4,1,0,70,0,1
63116,-100,4,1,0,65,0,1
65859,-100,4,2,0,50,0,0
68602,-100,4,2,0,55,0,0
71345,-100,4,2,0,60,0,0
74088,-100,4,2,0,55,0,0
80945,-100,4,2,0,60,0,0
82316,-100,4,2,0,70,0,0
89773,-100,4,2,0,5,0,0

[Colours]
Combo1 : 255,128,255
Combo2 : 4,255,4
Combo3 : 74,156,255
Combo4 : 244,74,100
Combo5 : 255,209,72

[HitObjects]
189,160,10831,5,2,0:3:0:0:
189,160,11002,6,0,P|242:172|296:166,1,105,4|2,0:0|0:0,0:0:0:0:
291,167,11859,1,2,0:0:0:0:
403,260,12373,6,0,P|350:248|296:254,1,105,0|2,0:0|0:0,0:0:0:0:
300,252,13231,1,2,0:0:0:0:
168,322,13745,6,0,B|154:258|154:258|164:196,1,125.999996154785,0|2,0:0|0:0,0:0:0:0:
163,198,14602,1,2,0:0:0:0:
305,255,15116,6,0,B|319:191|319:191|309:129,1,125.999996154785,0|2,0:0|0:0,0:0:0:0:
394,115,15973,2,0,L|405:176,1,41.9999987182618,2|2,0:0|0:3,0:0:0:0:
334,43,16488,5,2,0:3:0:0:
110,95,17002,1,2,0:3:0:0:
232,197,17345,2,0,L|230:133,1,56,2|2,0:3|0:3,0:0:0:0:
195,55,17688,1,2,0:3:0:0:
195,55,17859,5,2,0:3:0:0:
422,113,18373,1,2,0:3:0:0:
354,254,18716,2,0,L|419:261,1,56,2|2,0:0|0:3,0:0:0:0:
504,273,19059,1,2,0:3:0:0:
504,273,19231,5,2,0:3:0:0:
271,239,19745,1,2,0:3:0:0:
403,154,20088,2,0,L|458:143,1,56,2|2,0:0|0:3,0:0:0:0:
304,112,20602,6,0,L|299:37,1,56,2|2,0:3|0:3,0:0:0:0:
217,67,20945,2,0,L|212:-8,1,56,2|2,0:3|0:3,0:0:0:0:
135,82,21288,2,0,L|140:128,3,28,2|2|2|2,0:3|0:3|0:3|0:3,0:3:0:0:
101,119,21631,6,0,P|115:178|106:241,1,105,8|8,1:3|1:3,0:0:0:0:
80,243,21973,6,0,P|152:249|230:237,1,140,4|8,0:0|0:0,0:0:0:0:
293,199,22488,2,0,P|304:234|298:267,1,70,0|2,0:0|0:0,0:0:0:0:
238,324,22831,1,2,0:3:0:0:
318,348,23002,1,8,0:0:0:0:
379,291,23173,1,0,0:0:0:0:
460,312,23345,6,0,L|472:264,2,35,2|0|0,0:3|0:0|0:0,0:0:0:0:
400,371,23688,1,8,0:0:0:0:
379,291,23859,2,0,P|388:216|381:151,1,140,0|2,0:0|0:3,0:0:0:0:
340,78,24373,2,0,P|374:67|408:72,1,70,8|0,0:0|0:0,0:0:0:0:
298,154,24716,6,0,P|254:82|287:10,1,140,4|8,0:0|0:0,0:0:0:0:
227,107,25231,2,0,L|142:117,1,70,0|2,0:0|0:0,0:0:0:0:
263,228,25573,1,8,0:0:0:0:
346,220,25745,1,0,0:0:0:0:
380,143,25916,1,2,0:3:0:0:
429,211,26088,6,0,P|418:264|392:292,1,70,2|0,0:3|0:0,0:0:0:0:
313,296,26431,1,8,0:0:0:0:
313,296,26602,1,0,0:0:0:0:
215,298,26773,1,8,0:0:0:0:
215,298,26944,1,0,0:0:0:0:
181,205,27116,1,8,0:0:0:0:
181,205,27287,1,0,0:0:0:0:
346,220,27459,6,0,L|353:64,1,140,4|8,0:0|0:0,0:0:0:0:
434,97,27973,2,0,L|431:182,1,70,0|2,0:0|0:0,0:0:0:0:
325,301,28316,1,2,0:3:0:0:
264,241,28488,1,8,0:0:0:0:
265,157,28659,1,0,0:0:0:0:
191,197,28831,6,0,L|140:197,2,35,2|0|0,0:3|0:0|0:0,0:0:0:0:
194,113,29173,1,8,0:0:0:0:
265,157,29345,2,0,P|271:225|206:279,1,140,0|2,0:0|0:3,0:0:0:0:
299,236,29859,2,0,P|333:245|368:247,1,70,8|0,0:0|0:0,0:0:0:0:
413,175,30202,6,0,P|452:234|427:308,1,140,2|8,0:3|0:0,0:0:0:0:
368,247,30716,2,0,P|329:185|360:109,1,140,2|2,0:0|0:3,0:0:0:0:
300,196,31231,2,0,L|227:197,1,70,8|0,0:0|0:0,0:0:0:0:
207,116,31573,6,0,L|376:115,1,140,2|8,0:3|0:0,0:0:0:0:
313,280,32259,1,2,0:3:0:0:
313,280,32431,1,2,0:3:0:0:
236,331,32602,1,8,0:0:0:0:
236,331,32773,1,2,0:3:0:0:
124,199,32945,6,0,P|177:242|244:229,1,140,4|8,0:0|0:0,0:0:0:0:
199,160,33459,2,0,L|229:114,2,35,0|0|2,0:0|0:0|0:0,0:0:0:0:
127,115,33802,1,2,0:3:0:0:
54,156,33973,1,8,0:0:0:0:
52,240,34145,1,0,0:0:0:0:
124,199,34316,6,0,L|156:253,2,35,2|0|0,0:3|0:0|0:0,0:0:0:0:
105,302,34659,1,8,0:0:0:0:
188,298,34831,2,0,L|253:294,2,35,0|0|2,0:0|0:0|0:0,0:0:0:0:
218,379,35173,1,2,0:3:0:0:
290,343,35345,2,0,P|303:310|302:275,1,70,8|0,0:0|0:0,0:0:0:0:
245,213,35688,6,0,P|324:195|377:236,1,140,4|8,0:0|0:0,0:0:0:0:
378,309,36202,2,0,L|395:359,2,35,0|0|2,0:0|0:0|0:0,0:0:0:0:
424,160,36545,1,8,0:0:0:0:
351,117,36716,1,0,0:0:0:0:
266,114,36888,1,2,0:3:0:0:
311,43,37059,6,0,P|359:32|406:53,1,70,2|0,0:3|0:0,0:0:0:0:
351,117,37402,1,8,0:0:0:0:
351,117,37573,1,2,0:0:0:0:
312,191,37745,1,8,0:0:0:0:
312,191,37916,1,2,0:3:0:0:
402,186,38088,1,8,0:0:0:0:
402,186,38259,1,2,0:3:0:0:
279,318,38431,6,0,P|196:328|110:317,1,140,4|8,0:0|0:0,0:0:0:0:
56,312,38945,1,0,0:0:0:0:
56,312,39031,1,0,0:0:0:0:
56,312,39116,1,0,0:0:0:0:
158,243,39288,1,2,0:3:0:0:
241,232,39459,1,8,0:0:0:0:
324,240,39631,1,2,0:0:0:0:
289,163,39802,6,0,L|298:109,2,35,2|0|0,0:3|0:0|0:0,0:0:0:0:
372,170,40145,1,8,0:0:0:0:
366,86,40316,1,0,0:0:0:0:
366,86,40402,1,0,0:0:0:0:
366,86,40488,2,0,L|361:45,2,35,2|0|2,0:0|0:0|0:3,0:0:0:0:
281,48,40831,1,8,0:0:0:0:
281,48,41002,1,0,0:0:0:0:
204,81,41173,6,0,P|120:97|40:82,1,140,2|8,0:3|0:0,0:0:0:0:
120,24,41688,2,0,P|135:91|129:161,1,140,2|2,0:0|0:3,0:0:0:0:
126,245,42202,2,0,P|162:238|189:218,1,70,8|0,0:0|0:0,0:0:0:0:
234,147,42545,6,0,P|236:119|235:99,2,35,2|0|0,0:3|0:0|0:0,0:0:0:0:
285,214,42888,2,0,P|313:179|317:137,1,70,8|0,0:0|0:0,0:0:0:0:
308,71,43231,1,2,0:3:0:0:
308,71,43402,1,2,0:3:0:0:
394,113,43573,1,8,0:0:0:0:
394,113,43745,1,2,0:3:0:0:
205,225,43916,6,0,B|155:215|155:215|115:224|115:224|57:217,1,140,4|8,0:0|0:0,0:0:0:0:
109,140,44431,2,0,L|119:63,1,70,0|2,0:0|0:2,0:0:0:0:
200,59,44773,1,2,0:3:0:0:
284,75,44945,1,8,0:0:0:0:
242,149,45116,1,2,0:2:0:0:
205,225,45288,6,0,L|151:225,2,35,2|0|0,0:3|0:0|0:0,0:0:0:0:
290,217,45631,1,8,0:0:0:0:
242,149,45802,2,0,L|95:147,1,140,0|2,0:0|0:3,0:0:0:0:
89,230,46316,2,0,L|5:228,1,70,8|0,0:0|0:0,0:0:0:0:
45,308,46659,6,0,P|123:315|208:304,1,140,4|8,0:0|0:0,0:0:0:0:
267,301,47173,2,0,P|263:336|246:366,1,70,0|2,0:0|0:2,0:0:0:0:
218,232,47516,1,8,0:0:0:0:
301,223,47688,1,2,0:2:0:0:
349,291,47859,1,2,0:3:0:0:
385,214,48031,6,0,P|405:149|400:50,1,140,2|8,0:3|0:0,0:0:0:0:
342,21,48545,1,0,0:0:0:0:
259,36,48716,1,8,0:0:0:0:
259,36,48888,1,2,0:3:0:0:
177,56,49059,1,8,0:0:0:0:
177,56,49231,1,2,0:3:0:0:
69,150,49402,6,0,B|140:161|140:161|204:137,1,140,4|8,0:0|0:0,0:0:0:0:
276,186,49916,2,0,L|368:182,1,70,2|2,0:2|0:2,0:0:0:0:
223,264,50259,1,2,0:3:0:0:
138,265,50431,1,8,0:0:0:0:
54,266,50602,1,2,0:2:0:0:
95,193,50773,6,0,L|95:149,2,35,2|0|0,0:3|0:0|0:0,0:0:0:0:
54,266,51116,1,8,0:0:0:0:
138,265,51288,2,0,B|178:231|175:192|175:192|170:116,1,140,0|2,0:0|0:3,0:0:0:0:
167,53,51802,1,8,0:0:0:0:
167,53,51973,1,0,0:0:0:0:
239,96,52145,6,0,P|325:110|407:93,1,140,2|8,0:3|0:0,0:0:0:0:
449,145,52659,2,0,P|363:159|281:142,1,140,2|2,0:2|0:3,0:0:0:0:
230,175,53173,2,0,P|270:184|309:180,1,70,8|0,0:0|0:0,0:0:0:0:
303,266,53516,6,0,L|287:356,1,70,2|0,0:3|0:0,0:0:0:0:
218,291,53859,2,0,L|202:381,1,70,8|0,0:0|0:0,0:0:0:0:
131,320,54202,1,2,0:3:0:0:
131,320,54373,1,0,0:0:0:0:
39,348,54545,1,8,0:0:0:0:
39,348,54716,1,2,0:3:0:0:
94,232,54888,6,0,P|109:176|106:89,1,140,4|8,0:0|0:0,0:0:0:0:
48,34,55402,2,0,P|78:16|106:12,2,35,0|0|2,0:0|0:0|0:2,0:0:0:0:
163,29,55745,1,2,0:3:0:0:
188,108,55916,1,8,0:0:0:0:
188,192,56088,1,2,0:2:0:0:
115,240,56259,6,0,L|65:243,2,35,2|0|0,0:3|0:0|0:0,0:0:0:0:
188,192,56602,1,8,0:0:0:0:
238,274,56773,1,0,0:0:0:0:
238,274,56859,1,0,0:0:0:0:
238,274,56945,2,0,L|295:261,2,35,2|0|2,0:2|0:0|0:3,0:0:0:0:
162,312,57288,1,8,0:0:0:0:
162,312,57459,1,0,0:0:0:0:
232,358,57631,6,0,P|321:341|365:317,1,140,4|8,0:0|0:0,0:0:0:0:
399,241,58145,2,0,L|439:269,2,35,0|0|2,0:0|0:0|0:2,0:0:0:0:
251,274,58488,1,8,0:0:0:0:
226,193,58659,1,2,0:2:0:0:
225,108,58831,1,2,0:3:0:0:
297,149,59002,6,0,L|395:147,1,70,2|0,0:3|0:0,0:0:0:0:
451,143,59345,1,8,0:0:0:0:
451,143,59516,1,2,0:2:0:0:
415,221,59688,1,8,0:0:0:0:
415,221,59859,1,2,0:3:0:0:
503,214,60031,1,8,0:0:0:0:
503,214,60202,1,2,0:3:0:0:
404,356,60373,6,0,P|334:364|236:354,1,140,4|8,0:0|0:0,0:0:0:0:
194,311,60888,2,0,P|180:335|176:353,2,35,0|0|2,0:0|0:0|0:2,0:0:0:0:
338,282,61231,1,2,0:3:0:0:
421,273,61402,1,8,0:0:0:0:
488,322,61573,1,2,0:2:0:0:
508,240,61745,5,2,0:3:0:0:
508,240,61831,1,0,0:0:0:0:
508,240,61916,1,0,0:0:0:0:
432,187,62088,2,0,P|392:191|362:209,1,70,8|0,0:0|0:0,0:0:0:0:
361,210,62345,1,0,0:0:0:0:
356,215,62431,1,0,0:0:0:0:
335,296,62602,1,2,0:3:0:0:
272,240,62773,2,0,L|268:171,1,70,8|0,0:0|0:0,0:0:0:0:
342,130,63116,6,0,P|337:82|377:-7,1,140,2|8,0:3|0:0,0:0:0:0:
321,160,63631,2,0,P|290:98|292:29,1,140,2|2,0:2|0:3,0:0:0:0:
297,194,64145,2,0,P|271:161|256:126,1,70,8|0,0:0|0:0,0:0:0:0:
216,63,64488,5,0,0:0:0:0:
216,63,64573,1,0,0:0:0:0:
216,63,64659,1,0,0:0:0:0:
123,67,64831,2,0,P|131:102|151:129,1,70,8|0,0:0|0:0,0:0:0:0:
213,185,65173,1,2,0:3:0:0:
297,194,65345,1,2,0:3:0:0:
379,178,65516,1,8,0:0:0:0:
379,178,65688,1,2,0:3:0:0:
263,284,65859,6,0,B|196:307|196:307|166:300|126:308|126:308|55:289,1,210,4|2,0:0|0:3,0:0:0:0:
35,206,66545,1,8,0:0:0:0:
89,139,66716,1,2,0:3:0:0:
171,119,66888,1,0,0:0:0:0:
253,135,67059,1,2,0:3:0:0:
235,52,67231,6,0,L|241:15,2,35,2|0|0,0:3|0:0|0:0,0:0:0:0:
318,82,67573,1,2,0:3:0:0:
318,82,67745,1,2,0:3:0:0:
390,37,67916,1,8,0:0:0:0:
386,209,68259,1,2,0:0:0:0:
251,108,68602,6,0,P|320:123|400:118,1,140,4|2,0:0|0:3,0:0:0:0:
388,120,69116,1,2,0:3:0:0:
386,209,69288,1,8,0:0:0:0:
302,204,69459,1,2,0:3:0:0:
235,256,69631,1,2,0:0:0:0:
212,336,69802,1,2,0:3:0:0:
151,277,69973,5,2,0:3:0:0:
151,277,70145,1,2,0:3:0:0:
94,203,70316,2,0,L|91:120,1,70,8|2,0:0|0:3,0:0:0:0:
173,152,70659,2,0,L|170:69,1,70,8|2,0:0|0:3,0:0:0:0:
252,101,71002,2,0,L|249:18,1,70,8|2,0:0|0:3,0:0:0:0:
423,42,71345,6,0,B|398:142|463:141|438:250,1,210,4|2,0:0|0:3,0:0:0:0:
360,195,72031,1,8,0:0:0:0:
360,278,72202,1,2,0:3:0:0:
280,252,72373,1,2,0:0:0:0:
201,222,72545,1,2,0:3:0:0:
217,305,72716,6,0,L|202:338,1,35,2|2,0:3|0:0,0:0:0:0:
201,222,72973,2,0,L|216:189,1,35,2|2,0:3|0:0,0:0:0:0:
116,204,73231,1,2,0:3:0:0:
108,120,73402,2,0,L|101:26,1,70,8|0,0:0|0:0,0:0:0:0:
187,49,73745,1,2,0:3:0:0:
187,49,73916,1,0,0:0:0:0:
273,34,74088,5,0,0:0:0:0:
432,193,74602,1,0,0:0:0:0:
401,303,74773,1,8,0:0:0:0:
401,303,74859,1,0,0:0:0:0:
401,303,74945,1,0,0:0:0:0:
477,267,75116,1,0,0:0:0:0:
455,100,75459,5,2,0:3:0:0:
379,137,75631,1,2,0:3:0:0:
295,141,75802,1,2,0:3:0:0:
211,129,75973,2,0,P|173:125|128:99,1,70,8|0,0:0|0:0,0:0:0:0:
142,196,76316,1,2,0:3:0:0:
77,129,76488,2,0,P|115:125|160:99,1,70,8|0,0:0|0:0,0:0:0:0:
198,47,76831,5,4,0:0:0:0:
211,68,80945,6,0,L|312:55,1,70,2|2,0:3|0:3,0:3:0:0:
267,142,81288,2,0,L|368:129,1,70,8|2,0:0|0:3,0:3:0:0:
326,216,81631,2,0,L|427:203,1,70,8|2,0:0|0:3,0:3:0:0:
384,290,81973,2,0,L|485:277,1,70,8|2,0:0|0:3,0:3:0:0:
298,298,82316,6,0,L|211:310,1,70,6|2,0:3|0:3,0:0:0:0:
144,311,82659,1,8,0:0:0:0:
180,234,82831,2,0,L|249:224,1,70,2|2,0:3|0:3,0:0:0:0:
332,216,83173,1,2,0:3:0:0:
303,136,83345,2,0,L|216:148,1,70,8|2,0:0|0:3,0:0:0:0:
149,150,83688,5,2,0:3:0:0:
149,150,83773,1,2,0:0:0:0:
149,150,83859,1,2,0:3:0:0:
189,76,84031,2,0,L|183:6,1,70,8|2,0:0|0:3,0:0:0:0:
264,25,84373,1,2,0:3:0:0:
343,54,84545,1,2,0:3:0:0:
337,137,84716,2,0,P|301:128|270:95,1,70,8|2,0:0|0:3,0:0:0:0:
421,100,85059,6,0,P|427:150|412:191,1,70,8|2,0:0|0:3,0:0:0:0:
337,137,85402,1,2,0:3:0:0:
343,54,85573,2,0,P|374:23|420:12,1,70,8|2,0:0|0:3,0:0:0:0:
421,100,85916,1,2,0:3:0:0:
337,137,86088,2,0,P|287:143|246:128,1,70,8|2,0:0|0:3,0:0:0:0:
219,49,86431,6,0,L|221:10,1,35,8|2,0:0|0:3,0:0:0:0:
122,47,86688,2,0,L|83:45,1,35,2|2,0:3|0:0,0:0:0:0:
107,136,86945,2,0,L|102:183,4,35,8|2|2|2|2,0:0|0:3|0:0|0:3|0:0,0:0:0:0:
23,144,87459,1,8,0:0:0:0:
23,144,87545,1,2,0:3:0:0:
23,144,87631,1,2,0:3:0:0:
46,232,87802,6,0,L|50:287,5,35,8|2|2|2|2|2,0:0|0:3|0:3|0:3|0:3|0:3,0:3:0:0:
88,254,88316,2,0,L|92:307,5,35,8|2|2|2|2|2,0:0|0:3|0:3|0:3|0:3|0:3,0:3:0:0:
131,276,88831,2,0,L|132:359,1,70,8|0,0:0|0:0,0:0:0:0:
223,243,89173,5,2,0:3:0:0:
253,164,89345,1,2,0:3:0:0:
283,86,89516,1,2,0:3:0:0:
304,231,89688,1,8,1:0:0:0:
256,192,89773,12,0,93287,0:0:0:0:
