osu file format v14

[General]
AudioFilename: ayy.mp3
AudioLeadIn: 0
PreviewTime: 43916
Countdown: 0
SampleSet: Soft
StackLeniency: 0.7
Mode: 0
LetterboxInBreaks: 0
WidescreenStoryboard: 0

[Editor]
Bookmarks: 10831,16145,21973,32945,43916,54888,65859,76831,80945,82316,85059,93288
DistanceSpacing: 1
BeatDivisor: 4
GridSize: 4
TimelineZoom: 1

[Metadata]
Title:We Wish You A Merry Christmas (Boyinaband Liquid DnB Remix)
TitleUnicode:We Wish You A Merry Christmas (Boyinaband Liquid DnB Remix)
Artist:Boyinaband
ArtistUnicode:Boyinaband
Creator:Strategas
Version:Easy
Source:
Tags:dnb drum and bass &
BeatmapID:860551
BeatmapSetID:390318

[Difficulty]
HPDrainRate:2
CircleSize:3
OverallDifficulty:2
ApproachRate:3
SliderMultiplier:0.8
SliderTickRate:1

[Events]
//Background and Video events
0,0,"yes.jpg",0,0
//Break Periods
2,77031,79505
//Storyboard Layer 0 (Background)
//Storyboard Layer 1 (Fail)
//Storyboard Layer 2 (Pass)
//Storyboard Layer 3 (Foreground)
//Storyboard Sound Samples

[TimingPoints]
31,342.857142857143,4,2,0,50,1,0
11002,-100,4,2,0,70,0,0
11088,-100,4,2,0,35,0,0
13745,-100,4,2,0,40,0,0
16145,-100,4,2,0,50,0,0
21631,-100,4,2,0,70,0,0
21973,-100,4,2,0,60,0,0
24716,-100,4,2,0,65,0,0
27459,-100,4,2,0,70,0,0
30202,-100,4,2,0,65,0,0
32945,-100,4,2,0,60,0,0
35688,-100,4,2,0,65,0,0
38431,-100,4,2,0,70,0,0
41173,-100,4,2,0,65,0,0
43916,-100,4,1,0,60,0,1
46659,-100,4,1,0,65,0,1
49402,-100,4,1,0,70,0,1
52145,-100,4,1,0,65,0,1
54888,-100,4,1,0,60,0,1
57631,-100,4,1,0,65,0,1
60373,-100,4,1,0,70,0,1
63116,-100,4,1,0,65,0,1
65859,-100,4,2,0,50,0,0
68602,-100,4,2,0,55,0,0
71345,-100,4,2,0,60,0,0
74088,-100,4,2,0,55,0,0
80945,-100,4,2,0,60,0,0
82316,-100,4,2,0,70,0,0
89773,-100,4,2,0,5,0,0

[Colours]
Combo1 : 255,128,255
Combo2 : 4,255,4
Combo3 : 74,156,255
Combo4 : 244,74,100
Combo5 : 255,209,72

[HitObjects]
118,243,11002,6,0,P|176:222|195:89,1,200,4|2,0:0|0:0,0:0:0:0:
333,96,12373,2,0,P|335:191|417:241,1,200,0|2,0:0|0:0,0:0:0:0:
403,372,13745,6,0,B|358:357|358:357|281:381|203:373,1,200,0|2,0:0|0:0,0:0:0:0:
103,290,15116,2,0,L|98:171,1,119.999996337891,0|2,0:0|0:0,0:0:0:0:
226,133,16145,1,2,0:3:0:0:
211,45,16488,6,0,P|254:13|338:7,1,120,2|2,0:3|0:3,0:0:0:0:
398,108,17516,1,2,0:3:0:0:
470,157,17859,2,0,P|427:189|335:171,1,120,2|2,0:3|0:3,0:0:0:0:
305,68,18888,1,2,0:3:0:0:
391,51,19231,6,0,B|457:40|457:40|509:46,2,120,2|2|2,0:3|0:3|0:3,0:3:0:0:
414,135,20602,2,0,P|422:173|414:212,2,80,2|2|2,0:3|0:3|0:3,0:3:0:0:
335,174,21631,1,8,1:3:0:0:
272,113,21973,6,0,P|225:95|165:114,1,80,4|8,0:0|0:0,0:0:0:0:
138,164,22659,1,2,0:0:0:0:
166,247,23002,1,8,0:0:0:0:
254,261,23345,2,0,P|285:238|304:203,1,80,2|8,0:3|0:0,0:0:0:0:
220,180,24031,2,0,P|254:130|307:114,1,80,2|8,0:0|0:0,0:0:0:0:
319,48,24716,6,0,P|234:42|200:69,2,80,4|8|2,0:0|0:0|0:2,0:0:0:0:
361,125,25745,1,2,0:0:0:0:
355,212,26088,2,0,P|350:249|376:318,2,80,2|8|8,0:3|0:0|0:0,0:0:0:0:
436,246,27116,1,8,0:0:0:0:
425,158,27459,6,0,P|327:127|270:187,1,160,4|2,0:0|0:0,0:0:0:0:
261,240,28488,1,8,0:0:0:0:
329,296,28831,2,0,P|259:329|191:294,1,160,2|2,0:3|0:0,0:0:0:0:
169,208,29859,1,8,0:0:0:0:
172,120,30202,6,0,P|108:144|81:202,2,120,2|2|8,0:3|0:0|0:0,0:0:0:0:
259,128,31573,2,0,B|354:121,2,80,2|8|2,0:3|0:0|0:0,0:0:0:0:
227,45,32602,1,8,0:0:0:0:
314,32,32945,6,0,L|424:26,2,80,4|8|0,0:0|0:0|0:0,0:0:0:0:
227,45,33973,1,8,0:0:0:0:
141,25,34316,2,0,P|148:86|176:117,1,80,2|8,0:3|0:0,0:0:0:0:
240,129,35002,2,0,P|233:190|205:221,1,80,2|8,0:0|0:0,0:0:0:0:
161,266,35688,5,4,0:0:0:0:
244,292,36031,1,8,0:0:0:0:
331,289,36373,2,0,P|360:284|436:299,1,80,2|2,0:0|0:0,0:0:0:0:
476,231,37059,2,0,P|486:191|475:138,2,80,2|8|8,0:3|0:0|0:0,0:0:0:0:
399,186,38088,1,8,0:0:0:0:
407,98,38431,6,0,P|369:102|290:92,1,80,4|8,0:0|0:0,0:0:0:0:
241,79,39116,1,2,0:0:0:0:
165,33,39459,1,8,0:0:0:0:
161,120,39802,2,0,P|157:181|164:250,2,120,2|2|8,0:3|0:0|0:0,0:0:0:0:
240,81,41173,6,0,P|245:138|237:211,2,120,2|2|8,0:3|0:0|0:0,0:0:0:0:
166,32,42545,1,2,0:3:0:0:
86,70,42888,1,8,0:0:0:0:
71,156,43231,2,0,P|69:210|76:254,1,80,2|8,0:3|0:0,0:0:0:0:
139,292,43916,6,0,P|217:279|321:289,1,160,4|2,0:0|0:2,0:0:0:0:
373,328,44945,1,8,0:0:0:0:
384,240,45288,2,0,P|397:162|387:58,1,160,2|2,0:3|0:2,0:0:0:0:
348,6,46317,1,8,0:0:0:0:
307,83,46659,6,0,L|218:81,1,80,4|8,0:0|0:0,0:0:0:0:
172,150,47345,2,0,L|83:148,2,80,2|2|2,0:2|0:2|0:3,0:0:0:0:
139,231,48373,1,8,0:0:0:0:
132,318,48716,1,8,0:0:0:0:
209,359,49059,1,8,0:0:0:0:
254,284,49402,6,0,P|267:226|253:179,1,80,4|8,0:0|0:0,0:0:0:0:
197,148,50088,1,2,0:2:0:0:
113,176,50431,1,8,0:0:0:0:
130,90,50773,2,0,P|196:60|256:82,2,120,2|2|8,0:3|0:2|0:0,0:0:0:0:
197,148,52145,6,0,P|269:156|311:122,2,120,2|2|8,0:3|0:2|0:0,0:0:0:0:
239,70,53516,1,2,0:3:0:0:
323,46,53859,1,8,0:0:0:0:
390,102,54202,2,0,P|391:141|378:179,1,80,2|8,0:3|0:0,0:0:0:0:
301,222,54888,6,0,P|363:267|438:245,1,160,4|2,0:0|0:2,0:0:0:0:
465,161,55916,1,8,0:0:0:0:
378,179,56259,2,0,P|315:133|240:155,1,160,2|2,0:3|0:2,0:0:0:0:
212,237,57287,1,8,0:0:0:0:
152,302,57631,6,0,P|127:260|130:210,1,80,4|8,0:0|0:0,0:0:0:0:
150,145,58316,2,0,P|175:103|172:53,2,80,2|2|2,0:2|0:2|0:3,0:0:0:0:
88,81,59345,1,8,0:0:0:0:
55,162,59688,1,8,0:0:0:0:
24,244,60031,1,8,0:0:0:0:
65,322,60373,6,0,P|141:330|237:318,1,160,4|2,0:0|0:2,0:0:0:0:
306,291,61402,1,8,0:0:0:0:
363,224,61745,2,0,P|392:296|358:364,2,120,2|2|8,0:3|0:2|0:0,0:0:0:0:
306,291,63116,6,0,P|277:219|311:151,2,120,2|2|8,0:3|0:2|0:0,0:0:0:0:
364,224,64488,1,2,0:3:0:0:
365,135,64831,1,8,0:0:0:0:
286,96,65173,2,0,P|236:114|207:161,1,80,2|8,0:3|0:0,0:0:0:0:
183,214,65859,6,0,P|141:170|153:76,1,160,4|8,0:0|0:0,0:0:0:0:
221,22,66888,1,2,0:0:0:0:
296,67,67231,2,0,P|355:75|415:72,2,120,2|2|2,0:3|0:3|0:0,0:0:0:0:
213,37,68602,6,0,P|209:85|240:136,2,80,4|2|8,0:0|0:3|0:0,0:0:0:0:
296,67,69631,1,2,0:0:0:0:
298,154,69973,2,0,P|309:200|291:260,2,80,2|8|8,0:3|0:0|0:0,0:0:0:0:
220,113,71002,1,8,0:0:0:0:
206,200,71345,6,0,L|165:322,2,120,4|2|2,0:0|0:3|0:0,0:0:0:0:
291,226,72716,2,0,L|313:336,2,80,2|2|8,0:3|0:0|0:0,0:0:0:0:
360,171,73745,1,2,0:3:0:0:
386,254,74088,6,0,P|440:204|442:146,2,120,2|2|2,0:3|0:3|0:3,0:0:0:0:
298,257,75459,2,0,P|307:202|302:161,1,80,2|2,0:3|0:3,0:0:0:0:
225,215,76145,2,0,P|220:163|188:124,1,80,2|8,0:3|0:0,0:0:0:0:
139,197,76831,1,4,0:0:0:0:
226,156,80945,6,0,P|265:151|304:161,2,80,2|8|8,0:3|0:0|0:0,0:0:0:0:
191,237,81973,1,8,0:0:0:0:
137,166,82316,6,0,P|78:172|31:144,1,80,4|8,0:0|0:0,0:0:0:0:
98,88,83002,2,0,P|157:82|204:110,1,80,2|8,0:3|0:0,0:0:0:0:
226,160,83688,2,0,P|213:215|167:252,2,80,2|8|2,0:3|0:0|0:3,0:0:0:0:
139,167,84716,1,8,0:0:0:0:
50,167,85059,6,0,P|51:109|29:49,2,120,8|8|8,0:0|0:0|0:0,0:0:0:0:
138,166,86431,2,0,P|137:108|159:48,2,120,8|8|8,0:0|0:0|0:0,0:0:0:0:
93,241,87802,6,0,P|94:299|72:359,2,120,8|8|8,0:0|0:0|0:0,0:0:0:0:
52,164,89173,2,0,P|51:106|73:46,1,120,2|8,0:3|0:0,0:0:0:0:
256,192,89859,12,0,93288,0:0:0:0:
