osu file format v14

[General]
AudioFilename: audio.mp3
AudioLeadIn: 0
PreviewTime: 149006
Countdown: 0
SampleSet: Soft
StackLeniency: 0.3
Mode: 0
LetterboxInBreaks: 0
EpilepsyWarning: 1
WidescreenStoryboard: 1

[Editor]
Bookmarks: 126926,171064
DistanceSpacing: 0.2
BeatDivisor: 4
GridSize: 32
TimelineZoom: 2.2

[Metadata]
Title:Tramontane (Cut Ver.)
TitleUnicode:Tramontane (Cut Ver.)
Artist:Boxplot
ArtistUnicode:Boxplot
Creator:mapping
Version:Senseabel ft. tatemae's Extra
Source:
Tags:drum & and bass dnb english electronic liquid liquicity featured artist fa mappers' guild mpg capr senseabel hausenberg kerli_ frakturehawkens halgoh ksardas nekroman4ik maruoko delette tatemae akitoshi corinn -laura-
BeatmapID:4576660
BeatmapSetID:2167774

[Difficulty]
HPDrainRate:5
CircleSize:4.1
OverallDifficulty:8.6
ApproachRate:9.5
SliderMultiplier:1.81
SliderTickRate:1

[Events]
//Background and Video events
0,0,"tramontane.png",0,0
//Break Periods
//Storyboard Layer 0 (Background)
//Storyboard Layer 1 (Fail)
//Storyboard Layer 2 (Pass)
//Storyboard Layer 3 (Foreground)
//Storyboard Layer 4 (Overlay)
//Storyboard Sound Samples

[TimingPoints]
41,344.827586206897,4,2,2,30,1,0
11075,-200,4,2,2,20,0,0
12454,-200,4,2,2,20,0,0
44178,-200,4,2,2,20,0,0
49696,-200,4,2,2,25,0,0
51075,-200,4,2,2,30,0,0
52454,-200,4,2,2,35,0,0
53834,-200,4,2,2,40,0,0
55213,-200,4,2,2,30,0,0
66247,-200,4,2,2,35,0,0
77282,-200,4,2,2,45,0,0
88316,-133.333333333333,4,2,2,55,0,0
99351,-200,4,2,2,20,0,0
104868,-500,4,2,1,80,0,0
104954,-500,4,2,1,5,0,0
105041,-500,4,2,1,80,0,0
105127,-500,4,2,1,5,0,0
105213,-500,4,2,1,80,0,0
105299,-500,4,2,1,5,0,0
105385,-500,4,2,1,80,0,0
105472,-500,4,2,1,5,0,0
105558,-500,4,2,1,80,0,0
105644,-500,4,2,1,5,0,0
105730,-500,4,2,1,80,0,0
105816,-500,4,2,1,5,0,0
105903,-500,4,2,1,80,0,0
105989,-500,4,2,1,5,0,0
106075,-500,4,2,1,80,0,0
106161,-500,4,2,1,5,0,0
106247,-500,4,2,1,80,0,0
106334,-500,4,2,1,5,0,0
106420,-500,4,2,1,80,0,0
106506,-500,4,2,1,5,0,0
106592,-500,4,2,1,80,0,0
106678,-500,4,2,1,5,0,0
106765,-500,4,2,1,80,0,0
106851,-500,4,2,1,5,0,0
106937,-500,4,2,1,80,0,0
107023,-500,4,2,1,5,0,0
107109,-500,4,2,1,80,0,0
107196,-500,4,2,1,5,0,0
107282,-500,4,2,1,80,0,0
107368,-500,4,2,1,5,0,0
107454,-500,4,2,1,80,0,0
107541,-500,4,2,1,5,0,0
107627,-500,4,2,1,80,0,0
107713,-500,4,2,1,5,0,0
107799,-500,4,2,1,80,0,0
107885,-500,4,2,1,5,0,0
107972,-500,4,2,1,80,0,0
108058,-500,4,2,1,5,0,0
108144,-500,4,2,1,80,0,0
108230,-500,4,2,1,5,0,0
108316,-500,4,2,1,80,0,0
108403,-500,4,2,1,5,0,0
108489,-500,4,2,1,80,0,0
108575,-500,4,2,1,5,0,0
108661,-500,4,2,1,80,0,0
108747,-500,4,2,1,5,0,0
108834,-500,4,2,1,80,0,0
108920,-500,4,2,1,5,0,0
109006,-500,4,2,1,80,0,0
109092,-500,4,2,1,5,0,0
109178,-500,4,2,1,80,0,0
109265,-500,4,2,1,5,0,0
109351,-500,4,2,1,80,0,0
109437,-500,4,2,1,5,0,0
109523,-500,4,2,1,80,0,0
109609,-500,4,2,1,5,0,0
109696,-500,4,2,1,80,0,0
109782,-500,4,2,1,5,0,0
109868,-500,4,2,1,80,0,0
109954,-500,4,2,1,5,0,0
110041,-500,4,2,1,80,0,0
110127,-500,4,2,1,5,0,0
110213,-500,4,2,1,80,0,0
110299,-500,4,2,1,5,0,0
110385,-500,4,2,1,80,0,0
110471,-500,4,2,1,5,0,0
110558,-500,4,2,1,80,0,0
110644,-500,4,2,1,5,0,0
110730,-500,4,2,1,80,0,0
110816,-500,4,2,1,5,0,0
110902,-500,4,2,1,80,0,0
110989,-500,4,2,1,5,0,0
111075,-500,4,2,1,80,0,0
111161,-500,4,2,1,5,0,0
111247,-500,4,2,1,80,0,0
111333,-500,4,2,1,5,0,0
111420,-500,4,2,1,80,0,0
111506,-500,4,2,1,5,0,0
111592,-500,4,2,1,80,0,0
111678,-500,4,2,1,5,0,0
111764,-500,4,2,1,80,0,0
111851,-500,4,2,1,5,0,0
111937,-500,4,2,1,80,0,0
112023,-500,4,2,1,5,0,0
112109,-500,4,2,1,80,0,0
112195,-500,4,2,1,5,0,0
112282,-500,4,2,1,80,0,0
112368,-500,4,2,1,5,0,0
112454,-500,4,2,1,80,0,0
112540,-500,4,2,1,5,0,0
112626,-500,4,2,1,80,0,0
112713,-500,4,2,1,5,0,0
112799,-500,4,2,1,80,0,0
112885,-500,4,2,1,5,0,0
112971,-500,4,2,1,80,0,0
113058,-500,4,2,1,5,0,0
113144,-500,4,2,1,80,0,0
115903,-83.3333333333333,4,2,1,80,0,0
115989,-83.3333333333333,4,2,1,5,0,0
116076,-83.3333333333333,4,2,1,80,0,0
116162,-83.3333333333333,4,2,1,5,0,0
116248,-83.3333333333333,4,2,1,80,0,0
116334,-83.3333333333333,4,2,1,5,0,0
116420,-83.3333333333333,4,2,1,80,0,0
116507,-83.3333333333333,4,2,1,5,0,0
116593,-83.3333333333333,4,2,1,80,0,0
116679,-83.3333333333333,4,2,1,5,0,0
116765,-83.3333333333333,4,2,1,80,0,0
116851,-83.3333333333333,4,2,1,5,0,0
116936,-83.3333333333333,4,2,1,80,0,0
116938,-83.3333333333333,4,2,1,75,0,0
117022,-83.3333333333333,4,2,1,5,0,0
117024,-83.3333333333333,4,2,1,5,0,0
117110,-83.3333333333333,4,2,1,80,0,0
117196,-83.3333333333333,4,2,1,5,0,0
117282,-83.3333333333333,4,2,1,80,0,0
117369,-83.3333333333333,4,2,1,5,0,0
117455,-83.3333333333333,4,2,1,80,0,0
117541,-83.3333333333333,4,2,1,5,0,0
117627,-83.3333333333333,4,2,1,80,0,0
117713,-83.3333333333333,4,2,1,5,0,0
117800,-83.3333333333333,4,2,1,80,0,0
117886,-83.3333333333333,4,2,1,5,0,0
117972,-83.3333333333333,4,2,1,80,0,0
118058,-83.3333333333333,4,2,1,5,0,0
118144,-83.3333333333333,4,2,1,80,0,0
118231,-83.3333333333333,4,2,1,5,0,0
118317,-83.3333333333333,4,2,1,80,0,0
118403,-83.3333333333333,4,2,1,5,0,0
118489,-83.3333333333333,4,2,1,80,0,0
118576,-83.3333333333333,4,2,1,5,0,0
118662,-83.3333333333333,4,2,1,80,0,0
118748,-83.3333333333333,4,2,1,5,0,0
118834,-83.3333333333333,4,2,1,80,0,0
118920,-83.3333333333333,4,2,1,5,0,0
119007,-83.3333333333333,4,2,1,80,0,0
119093,-83.3333333333333,4,2,1,5,0,0
119179,-83.3333333333333,4,2,1,80,0,0
119265,-83.3333333333333,4,2,1,5,0,0
119351,-83.3333333333333,4,2,1,80,0,0
119438,-83.3333333333333,4,2,1,5,0,0
119524,-83.3333333333333,4,2,1,80,0,0
119610,-83.3333333333333,4,2,1,5,0,0
119696,-83.3333333333333,4,2,1,80,0,0
119782,-83.3333333333333,4,2,1,5,0,0
119869,-83.3333333333333,4,2,1,80,0,0
119955,-83.3333333333333,4,2,1,5,0,0
120041,-83.3333333333333,4,2,1,80,0,0
120127,-83.3333333333333,4,2,1,5,0,0
120213,-83.3333333333333,4,2,1,80,0,0
120300,-83.3333333333333,4,2,1,5,0,0
120386,-83.3333333333333,4,2,1,80,0,0
120472,-83.3333333333333,4,2,1,5,0,0
120558,-83.3333333333333,4,2,1,80,0,0
120644,-83.3333333333333,4,2,1,5,0,0
120731,-83.3333333333333,4,2,1,80,0,0
120817,-83.3333333333333,4,2,1,5,0,0
120903,-83.3333333333333,4,2,1,80,0,0
120989,-83.3333333333333,4,2,1,5,0,0
121076,-83.3333333333333,4,2,1,80,0,0
121162,-83.3333333333333,4,2,1,5,0,0
121248,-83.3333333333333,4,2,1,80,0,0
121334,-83.3333333333333,4,2,1,5,0,0
121420,-83.3333333333333,4,2,1,80,0,0
123834,-83.3333333333333,4,2,1,85,0,0
126937,-50,4,2,1,90,0,1
127196,-50,4,2,1,5,0,1
127282,-66.6666666666667,4,2,1,90,0,1
127368,-66.6666666666667,4,2,1,5,0,1
127454,-66.6666666666667,4,2,1,90,0,1
127799,-50,4,2,1,90,0,1
127928,-50,4,2,1,5,0,1
127972,-100,4,2,1,90,0,1
128058,-100,4,2,1,5,0,1
128144,-66.6666666666667,4,2,1,80,0,1
128273,-66.6666666666667,4,2,1,5,0,1
128316,-50,4,2,1,90,0,1
128575,-50,4,2,1,5,0,1
128661,-83.3333333333333,4,2,1,90,0,1
129178,-50,4,2,1,90,0,1
129265,-50,4,2,1,5,0,1
129351,-100,4,2,1,90,0,1
129437,-100,4,2,1,5,0,1
129523,-66.6666666666667,4,2,1,80,0,1
129609,-66.6666666666667,4,2,1,5,0,1
129696,-50,4,2,1,90,0,1
129954,-50,4,2,1,5,0,1
130041,-83.3333333333333,4,2,1,90,0,1
130816,-83.3333333333333,4,2,1,80,0,1
130903,-50,4,2,1,80,0,1
130989,-66.6666666666667,4,2,1,5,0,1
131075,-50,4,2,1,90,0,1
131334,-50,4,2,1,5,0,1
131420,-66.6666666666667,4,2,1,90,0,1
131506,-66.6666666666667,4,2,1,5,0,1
131592,-66.6666666666667,4,2,1,90,0,1
132196,-66.6666666666667,4,2,1,80,0,1
132282,-66.6666666666667,4,2,1,90,0,1
132368,-66.6666666666667,4,2,1,5,0,1
132454,-50,4,2,1,90,0,1
132713,-50,4,2,1,5,0,1
132799,-66.6666666666667,4,2,1,90,0,1
133316,-50,4,2,1,90,0,1
133403,-50,4,2,1,5,0,1
133489,-133.333333333333,4,2,1,90,0,1
133575,-133.333333333333,4,2,1,5,0,1
133661,-133.333333333333,4,2,1,80,0,1
133747,-133.333333333333,4,2,1,5,0,1
133834,-50,4,2,1,90,0,1
134092,-50,4,2,1,5,0,1
134178,-57.1428571428571,4,2,1,90,0,1
134868,-133.333333333333,4,2,1,90,0,1
134954,-133.333333333333,4,2,1,5,0,1
135041,-133.333333333333,4,2,1,80,0,1
135127,-133.333333333333,4,2,1,5,0,1
135213,-50,4,2,1,90,0,1
135472,-50,4,2,1,5,0,1
135558,-50,4,2,1,90,0,1
135644,-50,4,2,1,5,0,1
135730,-100,4,2,1,90,0,1
135903,-66.6666666666667,4,2,1,90,0,1
136075,-133.333333333333,4,2,1,90,0,1
136161,-133.333333333333,4,2,1,5,0,1
136247,-133.333333333333,4,2,1,90,0,1
136334,-133.333333333333,4,2,1,5,0,1
136420,-133.333333333333,4,2,1,90,0,1
136592,-50,4,2,1,90,0,1
137541,-50,4,2,1,5,0,1
137627,-50,4,2,1,90,0,1
137972,-66.6666666666667,4,2,1,90,0,1
138231,-66.6666666666667,4,2,1,5,0,1
138316,-50,4,2,1,90,0,1
138661,-133.333333333333,4,2,1,90,0,1
138834,-50,4,2,1,90,0,1
138963,-50,4,2,1,5,0,1
139006,-100,4,2,1,90,0,1
139007,-100,4,2,1,90,0,1
139093,-100,4,2,1,5,0,1
139178,-66.6666666666667,4,2,1,80,0,1
139308,-66.6666666666667,4,2,1,5,0,1
139351,-50,4,2,1,90,0,1
139610,-50,4,2,1,5,0,1
139696,-50,4,2,1,90,0,1
140342,-50,4,2,1,5,0,1
140385,-100,4,2,1,90,0,1
140386,-100,4,2,1,90,0,1
140472,-100,4,2,1,5,0,1
140558,-66.6666666666667,4,2,1,80,0,1
140644,-66.6666666666667,4,2,1,5,0,1
140730,-50,4,2,1,90,0,1
140731,-50,4,2,1,90,0,1
141936,-50,4,2,1,80,0,1
142110,-50,4,2,1,90,0,1
142367,-50,4,2,1,5,0,1
142369,-50,4,2,1,5,0,1
142454,-100,4,2,1,90,0,1
142455,-100,4,2,1,90,0,1
142972,-50,4,2,1,90,0,1
143058,-50,4,2,1,5,0,1
143144,-66.6666666666667,4,2,1,90,0,1
143231,-66.6666666666667,4,2,1,5,0,1
143316,-100,4,2,1,90,0,1
143317,-100,4,2,1,90,0,1
143403,-100,4,2,1,5,0,1
143489,-50,4,2,1,90,0,1
143748,-50,4,2,1,5,0,1
143834,-100,4,2,1,90,0,1
144351,-66.6666666666667,4,2,1,90,0,1
144609,-66.6666666666667,4,2,1,80,0,1
144696,-133.333333333333,4,2,1,80,0,1
144782,-133.333333333333,4,2,1,5,0,1
144868,-50,4,2,1,90,0,1
144869,-50,4,2,1,90,0,1
145127,-50,4,2,1,5,0,1
145213,-66.6666666666667,4,2,1,90,0,1
145989,-66.6666666666667,4,2,1,80,0,1
146075,-133.333333333333,4,2,1,80,0,1
146162,-133.333333333333,4,2,1,5,0,1
146247,-50,4,2,1,90,0,1
146505,-50,4,2,1,5,0,1
146507,-50,4,2,1,5,0,1
146592,-66.6666666666667,4,2,1,90,0,1
146593,-66.6666666666667,4,2,1,90,0,1
147196,-66.6666666666667,4,2,1,80,0,1
147282,-66.6666666666667,4,2,1,90,0,1
147369,-66.6666666666667,4,2,1,5,0,1
147455,-66.6666666666667,4,2,1,90,0,1
147799,-50,4,2,1,90,0,1
147928,-50,4,2,1,5,0,1
147972,-50,4,2,1,90,0,1
148058,-50,4,2,1,5,0,1
148144,-50,4,2,1,80,0,1
149006,-50,4,2,1,80,0,1
149265,-50,4,2,1,5,0,1
149351,-66.6666666666667,4,2,1,80,0,1
149523,-133.333333333333,4,2,1,80,0,1
149954,-133.333333333333,4,2,1,5,0,1
150041,-133.333333333333,4,2,1,80,0,1
150299,-133.333333333333,4,2,1,5,0,1
150385,-133.333333333333,4,2,1,80,0,1
150644,-133.333333333333,4,2,1,5,0,1
150730,-133.333333333333,4,2,1,80,0,1
151765,-133.333333333333,4,2,1,80,0,1
151851,-133.333333333333,4,2,1,5,0,1
151937,-79.9999999999999,4,2,1,80,0,1
152023,-79.9999999999999,4,2,1,5,0,1
152109,-100,4,2,1,80,0,1
152196,-100,4,2,1,5,0,1
152282,-66.6666666666667,4,2,1,80,0,1
152454,-50,4,2,1,80,0,1
152627,-57.1428571428571,4,2,1,80,0,1
152713,-57.1428571428571,4,2,1,5,0,1
152799,-57.1428571428571,4,2,1,80,0,1
153230,-57.1428571428571,4,2,1,5,0,1
153316,-57.1428571428571,4,2,1,80,0,1
153403,-57.1428571428571,4,2,1,5,0,1
153489,-57.1428571428571,4,2,1,80,0,1
153575,-57.1428571428571,4,2,1,5,0,1
153661,-57.1428571428571,4,2,1,80,0,1
154092,-57.1428571428571,4,2,1,5,0,1
154178,-57.1428571428571,4,2,1,80,0,1
154523,-50,4,2,1,80,0,1
154782,-50,4,2,1,5,0,1
154868,-100,4,2,1,80,0,1
155558,-50,4,2,1,80,0,1
155816,-50,4,2,1,5,0,1
155903,-100,4,2,1,80,0,1
156420,-66.6666666666667,4,2,1,80,0,1
156937,-50,4,2,1,80,0,1
157627,-100,4,2,1,80,0,1
158144,-50,4,2,1,80,0,1
158230,-50,4,2,1,5,0,1
158316,-50,4,2,1,80,0,1
158575,-50,4,2,1,80,0,1
158661,-100,4,2,1,80,0,1
160041,-50,4,2,1,80,0,1
160299,-50,4,2,1,5,0,1
160385,-66.6666666666667,4,2,1,80,0,1
160472,-66.6666666666667,4,2,1,5,0,1
160558,-66.6666666666667,4,2,1,80,0,1
160903,-100,4,2,1,80,0,1
160989,-100,4,2,1,5,0,1
161075,-100,4,2,1,80,0,1
161334,-100,4,2,1,5,0,1
161420,-100,4,2,1,80,0,1
161678,-100,4,2,1,5,0,1
161765,-100,4,2,1,80,0,1
162799,-133.333333333333,4,2,1,80,0,1
162885,-133.333333333333,4,2,1,5,0,1
162972,-79.9999999999999,4,2,1,80,0,1
163058,-79.9999999999999,4,2,1,5,0,1
163144,-100,4,2,1,80,0,1
163230,-100,4,2,1,5,0,1
163316,-66.6666666666667,4,2,1,80,0,1
163489,-50,4,2,1,80,0,1
163661,-57.1428571428571,4,2,1,80,0,1
163747,-57.1428571428571,4,2,1,5,0,1
163834,-57.1428571428571,4,2,1,80,0,1
164265,-57.1428571428571,4,2,1,5,0,1
164351,-57.1428571428571,4,2,1,80,0,1
164437,-57.1428571428571,4,2,1,5,0,1
164523,-57.1428571428571,4,2,1,80,0,1
164609,-57.1428571428571,4,2,1,5,0,1
164696,-57.1428571428571,4,2,1,80,0,1
165127,-57.1428571428571,4,2,1,5,0,1
165213,-57.1428571428571,4,2,1,80,0,1
165558,-50,4,2,1,80,0,1
165816,-50,4,2,1,5,0,1
165903,-100,4,2,1,80,0,1
166592,-50,4,2,1,80,0,1
166851,-50,4,2,1,5,0,1
166937,-100,4,2,1,80,0,1
167454,-66.6666666666667,4,2,1,80,0,1
167885,-66.6666666666667,4,2,1,5,0,1
167972,-50,4,2,1,80,0,1
168661,-100,4,2,1,80,0,1
169092,-50,4,2,1,80,0,1
169265,-50,4,2,1,5,0,1
169351,-50,4,2,1,80,0,1
169696,-50,4,2,1,45,0,1
169782,-50,4,2,1,5,0,0
169868,-57.1428571428571,4,2,1,45,0,0
169954,-57.1428571428571,4,2,1,5,0,0
170041,-66.6666666666667,4,2,1,45,0,0
170127,-66.6666666666667,4,2,1,5,0,0
170213,-80,4,2,1,45,0,0
170299,-80,4,2,1,5,0,0
170385,-80,4,2,1,45,0,0

[Colours]
Combo1 : 107,27,90
Combo2 : 247,175,2
Combo3 : 246,45,42
Combo4 : 231,8,63
Combo5 : 185,8,82

[HitObjects]
34,336,11075,5,0,0:0:0:0:
34,331,11247,1,0,0:0:0:0:
29,333,11420,1,0,0:0:0:0:
30,338,11592,1,0,0:0:0:0:
34,338,11765,1,0,0:0:0:0:
37,337,11937,1,0,0:0:0:0:
40,334,12109,1,0,0:0:0:0:
39,330,12282,1,0,0:0:0:0:
76,260,12454,5,2,0:0:0:0:
146,222,12799,1,2,0:0:0:0:
225,230,13144,1,2,0:0:0:0:
281,285,13489,1,2,0:0:0:0:
292,364,13834,5,0,0:0:0:0:
287,366,14006,1,0,0:0:0:0:
291,369,14179,1,0,0:0:0:0:
295,366,14351,1,0,0:0:0:0:
293,362,14524,1,0,0:0:0:0:
291,360,14696,1,0,0:0:0:0:
287,359,14868,1,0,0:0:0:0:
284,362,15041,1,0,0:0:0:0:
205,365,15213,5,2,0:0:0:0:
137,324,15558,1,2,0:0:0:0:
104,251,15903,1,2,0:0:0:0:
124,175,16248,1,2,0:0:0:0:
192,139,16592,5,0,0:0:0:0:
196,139,16765,1,0,0:0:0:0:
192,136,16937,1,0,0:0:0:0:
195,133,17109,1,0,0:0:0:0:
191,130,17282,1,0,0:0:0:0:
194,127,17454,1,0,0:0:0:0:
190,124,17627,1,0,0:0:0:0:
193,121,17799,1,0,0:0:0:0:
179,41,17972,5,2,0:0:0:0:
216,199,18316,1,2,0:0:0:0:
179,41,18661,1,2,0:0:0:0:
216,199,19005,1,2,0:0:0:0:
320,139,19351,5,0,0:0:0:0:
316,139,19524,1,0,0:0:0:0:
320,136,19696,1,0,0:0:0:0:
317,133,19868,1,0,0:0:0:0:
321,130,20041,1,0,0:0:0:0:
318,127,20213,1,0,0:0:0:0:
322,124,20386,1,0,0:0:0:0:
319,121,20558,1,0,0:0:0:0:
333,41,20731,5,2,0:0:0:0:
296,199,21075,1,2,0:0:0:0:
333,41,21420,1,2,0:0:0:0:
296,199,21764,1,2,0:0:0:0:
34,48,22109,5,0,0:0:0:0:
34,53,22281,1,0,0:0:0:0:
29,51,22454,1,0,0:0:0:0:
30,46,22626,1,0,0:0:0:0:
34,46,22799,1,0,0:0:0:0:
37,47,22971,1,0,0:0:0:0:
40,50,23143,1,0,0:0:0:0:
39,54,23316,1,0,0:0:0:0:
76,124,23488,5,2,0:0:0:0:
146,162,23833,1,2,0:0:0:0:
225,154,24178,1,2,0:0:0:0:
281,99,24523,1,2,0:0:0:0:
292,20,24868,5,0,0:0:0:0:
287,18,25040,1,0,0:0:0:0:
291,15,25213,1,0,0:0:0:0:
295,18,25385,1,0,0:0:0:0:
293,22,25558,1,0,0:0:0:0:
291,24,25730,1,0,0:0:0:0:
287,25,25902,1,0,0:0:0:0:
284,22,26075,1,0,0:0:0:0:
205,19,26247,5,2,0:0:0:0:
137,60,26592,1,2,0:0:0:0:
104,133,26937,1,2,0:0:0:0:
124,209,27282,1,2,0:0:0:0:
192,245,27626,5,0,0:0:0:0:
196,245,27799,1,0,0:0:0:0:
192,248,27971,1,0,0:0:0:0:
195,251,28143,1,0,0:0:0:0:
191,254,28316,1,0,0:0:0:0:
194,257,28488,1,0,0:0:0:0:
190,260,28661,1,0,0:0:0:0:
193,263,28833,1,0,0:0:0:0:
179,343,29006,5,2,0:0:0:0:
216,185,29350,1,2,0:0:0:0:
179,343,29695,1,2,0:0:0:0:
216,185,30041,1,2,0:0:0:0:
320,245,30385,5,0,0:0:0:0:
316,245,30558,1,0,0:0:0:0:
320,248,30730,1,0,0:0:0:0:
317,251,30902,1,0,0:0:0:0:
321,254,31075,1,0,0:0:0:0:
318,257,31247,1,0,0:0:0:0:
322,260,31420,1,0,0:0:0:0:
319,263,31592,1,0,0:0:0:0:
333,343,31765,5,2,0:0:0:0:
296,185,32109,1,2,0:0:0:0:
333,343,32454,1,2,0:0:0:0:
296,185,32798,1,2,0:0:0:0:
17,151,33144,5,0,0:0:0:0:
20,147,33316,1,0,0:0:0:0:
15,145,33489,1,0,0:0:0:0:
13,149,33661,1,0,0:0:0:0:
15,152,33834,1,0,0:0:0:0:
18,153,34006,1,0,0:0:0:0:
22,153,34178,1,0,0:0:0:0:
24,149,34351,1,0,0:0:0:0:
98,119,34523,5,2,0:0:0:0:
176,135,34868,1,2,0:0:0:0:
231,192,35213,1,2,0:0:0:0:
238,270,35558,1,2,0:0:0:0:
196,338,35903,5,0,0:0:0:0:
191,336,36075,1,0,0:0:0:0:
192,341,36248,1,0,0:0:0:0:
197,341,36420,1,0,0:0:0:0:
198,337,36593,1,0,0:0:0:0:
198,334,36765,1,0,0:0:0:0:
196,331,36937,1,0,0:0:0:0:
191,331,37110,1,0,0:0:0:0:
129,283,37282,5,2,0:0:0:0:
103,208,37627,1,2,0:0:0:0:
125,130,37972,1,2,0:0:0:0:
189,85,38317,1,2,0:0:0:0:
269,84,38661,5,0,0:0:0:0:
271,84,38834,1,0,0:0:0:0:
273,84,39006,1,0,0:0:0:0:
275,85,39178,1,0,0:0:0:0:
276,86,39351,1,0,0:0:0:0:
277,87,39523,1,0,0:0:0:0:
278,88,39696,1,0,0:0:0:0:
279,89,39868,1,0,0:0:0:0:
330,144,40041,5,2,0:0:0:0:
307,284,40385,1,2,0:0:0:0:
188,353,40730,1,2,0:0:0:0:
52,325,41075,1,2,0:0:0:0:
3,192,41420,5,0,0:0:0:0:
2,190,41593,1,0,0:0:0:0:
1,188,41765,1,0,0:0:0:0:
0,186,41937,1,0,0:0:0:0:
2,184,42110,1,0,0:0:0:0:
1,183,42282,1,0,0:0:0:0:
1,182,42455,1,0,0:0:0:0:
2,180,42627,1,0,0:0:0:0:
26,109,42800,5,2,0:0:0:0:
157,59,43144,1,2,0:0:0:0:
276,127,43489,1,2,0:0:0:0:
284,266,43834,1,2,0:0:0:0:
344,320,44178,5,0,0:0:0:0:
348,320,44351,1,0,0:0:0:0:
352,320,44523,1,0,0:0:0:0:
356,320,44696,1,0,0:0:0:0:
360,320,44868,1,0,0:0:0:0:
364,320,45041,1,0,0:0:0:0:
368,320,45213,1,0,0:0:0:0:
372,320,45385,1,0,0:0:0:0:
450,324,45558,5,2,0:0:0:0:
489,256,45903,1,2,0:0:0:0:
471,177,46247,1,2,0:0:0:0:
400,144,46592,1,2,0:0:0:0:
319,140,46937,5,0,0:0:0:0:
315,142,47110,1,0,0:0:0:0:
312,144,47282,1,0,0:0:0:0:
309,147,47455,1,0,0:0:0:0:
306,149,47627,1,0,0:0:0:0:
302,151,47800,1,0,0:0:0:0:
299,154,47972,1,0,0:0:0:0:
296,156,48144,1,0,0:0:0:0:
235,205,48317,5,2,0:0:0:0:
164,173,48662,1,2,0:0:0:0:
132,98,49006,1,2,0:0:0:0:
170,30,49351,1,2,0:0:0:0:
246,14,49696,5,0,0:0:0:0:
259,17,49868,1,0,0:0:0:0:
270,24,50041,1,0,0:0:0:0:
279,33,50213,1,0,0:0:0:0:
286,44,50385,1,0,0:0:0:0:
291,56,50558,1,0,0:0:0:0:
294,69,50730,1,0,0:0:0:0:
295,82,50903,1,0,0:0:0:0:
292,95,51075,5,2,0:0:0:0:
282,115,51247,1,0,0:0:0:0:
275,136,51420,1,2,0:0:0:0:
277,158,51592,1,0,0:0:0:0:
291,175,51765,1,2,0:0:0:0:
311,185,51937,1,0,0:0:0:0:
333,186,52109,1,2,0:0:0:0:
353,176,52282,1,0,0:0:0:0:
364,156,52454,5,0,0:0:0:0:
332,149,52627,1,0,0:0:0:0:
303,162,52799,1,0,0:0:0:0:
285,188,52972,1,0,0:0:0:0:
283,219,53144,1,0,0:0:0:0:
290,249,53316,1,0,0:0:0:0:
289,280,53489,1,0,0:0:0:0:
281,310,53661,1,0,0:0:0:0:
258,332,53834,5,2,0:0:0:0:
187,346,54006,1,0,0:0:0:0:
123,312,54178,1,2,0:0:0:0:
120,239,54351,1,0,0:0:0:0:
175,192,54523,1,2,0:0:0:0:
106,217,54696,1,0,0:0:0:0:
37,193,54868,1,2,0:0:0:0:
16,123,55041,1,0,0:0:0:0:
54,62,55213,5,0,0:0:0:0:
58,61,55385,1,0,0:0:0:0:
62,60,55558,1,0,0:0:0:0:
66,59,55730,1,0,0:0:0:0:
70,58,55903,1,0,0:0:0:0:
74,57,56075,5,2,0:0:0:0:
80,101,56247,1,2,0:0:0:0:
89,145,56420,1,2,0:0:0:0:
97,189,56592,5,0,0:0:0:0:
101,187,56765,1,0,0:0:0:0:
105,185,56937,1,0,0:0:0:0:
109,183,57109,1,0,0:0:0:0:
113,181,57282,1,0,0:0:0:0:
117,179,57454,5,2,0:0:0:0:
148,211,57627,1,2,0:0:0:0:
191,222,57799,1,2,0:0:0:0:
232,203,57972,5,0,0:0:0:0:
232,198,58144,1,0,0:0:0:0:
232,193,58316,1,0,0:0:0:0:
231,188,58489,1,0,0:0:0:0:
230,183,58661,1,0,0:0:0:0:
229,178,58834,5,2,0:0:0:0:
250,138,59006,1,2,0:0:0:0:
294,132,59178,1,2,0:0:0:0:
331,157,59351,5,0,0:0:0:0:
335,156,59523,1,0,0:0:0:0:
339,155,59696,1,0,0:0:0:0:
343,154,59868,1,0,0:0:0:0:
347,153,60041,1,0,0:0:0:0:
351,152,60213,5,2,0:0:0:0:
307,140,60385,1,2,0:0:0:0:
262,129,60558,1,2,0:0:0:0:
218,118,60730,5,0,0:0:0:0:
217,113,60903,1,0,0:0:0:0:
216,108,61075,1,0,0:0:0:0:
215,103,61247,1,0,0:0:0:0:
214,98,61420,1,0,0:0:0:0:
213,93,61592,5,0,0:0:0:0:
167,98,61765,1,2,0:0:0:0:
166,93,61937,1,2,0:0:0:0:
121,98,62109,5,0,0:0:0:0:
122,102,62282,1,0,0:0:0:0:
122,106,62454,1,0,0:0:0:0:
122,110,62627,1,0,0:0:0:0:
122,114,62799,1,0,0:0:0:0:
122,118,62972,5,0,0:0:0:0:
77,126,63144,1,2,0:0:0:0:
77,130,63316,1,2,0:0:0:0:
31,132,63489,5,0,0:0:0:0:
32,136,63661,1,0,0:0:0:0:
32,140,63834,1,0,0:0:0:0:
32,144,64006,1,0,0:0:0:0:
32,148,64178,1,0,0:0:0:0:
32,152,64351,5,0,0:0:0:0:
76,145,64523,1,2,0:0:0:0:
77,149,64696,1,2,0:0:0:0:
121,141,64868,5,0,0:0:0:0:
122,145,65041,1,0,0:0:0:0:
123,149,65213,1,0,0:0:0:0:
124,153,65385,1,0,0:0:0:0:
125,157,65558,1,0,0:0:0:0:
126,161,65730,5,0,0:0:0:0:
170,150,65903,1,2,0:0:0:0:
172,153,66075,1,2,0:0:0:0:
215,142,66247,5,0,0:0:0:0:
219,142,66420,1,0,0:0:0:0:
223,142,66592,1,0,0:0:0:0:
227,143,66765,1,0,0:0:0:0:
231,144,66937,1,0,0:0:0:0:
235,144,67109,5,2,0:0:0:0:
278,155,67282,1,2,0:0:0:0:
322,145,67454,1,2,0:0:0:0:
349,109,67627,5,0,0:0:0:0:
345,106,67799,1,0,0:0:0:0:
340,105,67972,1,0,0:0:0:0:
335,105,68144,1,0,0:0:0:0:
330,106,68316,1,0,0:0:0:0:
325,107,68489,5,2,0:0:0:0:
365,126,68661,1,2,0:0:0:0:
409,118,68834,1,2,0:0:0:0:
436,81,69006,5,0,0:0:0:0:
431,80,69178,1,0,0:0:0:0:
426,77,69351,1,0,0:0:0:0:
422,74,69523,1,0,0:0:0:0:
418,71,69696,1,0,0:0:0:0:
415,66,69868,5,2,0:0:0:0:
383,98,70041,1,2,0:0:0:0:
387,142,70213,1,2,0:0:0:0:
417,175,70385,5,0,0:0:0:0:
421,174,70558,1,0,0:0:0:0:
425,173,70730,1,0,0:0:0:0:
429,172,70903,1,0,0:0:0:0:
433,173,71075,1,0,0:0:0:0:
437,174,71247,5,2,0:0:0:0:
466,208,71420,1,2,0:0:0:0:
469,252,71592,1,2,0:0:0:0:
454,295,71765,5,0,0:0:0:0:
449,295,71937,1,0,0:0:0:0:
444,295,72109,1,0,0:0:0:0:
439,295,72282,1,0,0:0:0:0:
434,295,72454,1,0,0:0:0:0:
429,294,72627,5,0,0:0:0:0:
389,272,72799,1,2,0:0:0:0:
343,275,72972,1,2,0:0:0:0:
313,308,73144,5,0,0:0:0:0:
301,315,73316,1,0,0:0:0:0:
287,316,73489,1,0,0:0:0:0:
273,312,73661,1,0,0:0:0:0:
261,304,73834,1,0,0:0:0:0:
253,292,74006,1,0,0:0:0:0:
251,278,74178,1,2,0:0:0:0:
255,265,74351,1,2,0:0:0:0:
265,256,74523,5,0,0:0:0:0:
284,244,74696,1,0,0:0:0:0:
296,225,74868,1,0,0:0:0:0:
293,202,75041,1,0,0:0:0:0:
280,183,75213,1,0,0:0:0:0:
260,172,75385,1,0,0:0:0:0:
237,173,75558,1,2,0:0:0:0:
217,184,75730,1,2,0:0:0:0:
205,203,75903,5,0,0:0:0:0:
207,166,76075,1,0,0:0:0:0:
233,141,76247,1,0,0:0:0:0:
268,134,76420,1,0,0:0:0:0:
302,144,76592,1,0,0:0:0:0:
327,169,76765,1,0,0:0:0:0:
335,204,76937,1,2,0:0:0:0:
332,240,77109,1,2,0:0:0:0:
310,269,77282,5,2,0:0:0:0:
349,247,77454,1,0,0:0:0:0:
394,248,77627,1,0,0:0:0:0:
432,271,77799,1,2,0:0:0:0:
457,308,77972,1,0,0:0:0:0:
419,283,78144,1,2,0:0:0:0:
415,238,78316,1,0,0:0:0:0:
431,195,78489,1,2,0:0:0:0:
471,174,78661,5,0,0:0:0:0:
416,176,78834,1,2,0:0:0:0:
364,159,79006,1,0,0:0:0:0:
323,123,79178,1,2,0:0:0:0:
312,69,79351,5,2,0:0:0:0:
365,103,79523,1,2,0:0:0:0:
301,94,79696,1,2,0:0:0:0:
359,69,79868,1,0,0:0:0:0:
306,54,80041,5,2,0:0:0:0:
262,85,80213,1,0,0:0:0:0:
251,138,80385,1,0,0:0:0:0:
280,183,80558,1,0,0:0:0:0:
313,225,80730,1,0,0:0:0:0:
321,278,80903,1,0,0:0:0:0:
311,331,81075,1,0,0:0:0:0:
263,356,81247,1,2,0:0:0:0:
212,336,81420,5,0,0:0:0:0:
273,321,81592,1,0,0:0:0:0:
280,257,81765,1,0,0:0:0:0:
223,229,81937,1,0,0:0:0:0:
182,277,82109,1,2,0:0:0:0:
212,336,82282,1,0,0:0:0:0:
273,321,82454,1,2,0:0:0:0:
280,257,82627,1,0,0:0:0:0:
223,229,82799,5,2,0:0:0:0:
189,175,82972,1,0,0:0:0:0:
206,114,83144,5,0,0:0:0:0:
213,176,83316,1,0,0:0:0:0:
271,200,83489,5,0,0:0:0:0:
223,158,83661,1,0,0:0:0:0:
236,95,83834,5,0,0:0:0:0:
245,157,84006,1,2,0:0:0:0:
294,196,84178,5,0,0:0:0:0:
329,201,84351,1,0,0:0:0:0:
362,186,84523,1,0,0:0:0:0:
378,153,84696,1,0,0:0:0:0:
363,119,84868,5,0,0:0:0:0:
352,153,85041,1,0,0:0:0:0:
338,119,85213,1,0,0:0:0:0:
327,153,85385,1,0,0:0:0:0:
311,120,85558,5,2,0:0:0:0:
311,120,85903,5,0,0:0:0:0:
264,136,86075,1,0,0:0:0:0:
243,90,86247,5,0,0:0:0:0:
282,120,86420,1,0,0:0:0:0:
239,145,86592,5,0,0:0:0:0:
278,175,86765,1,2,0:0:0:0:
282,120,86937,5,0,0:0:0:0:
239,145,87109,1,0,0:0:0:0:
228,193,87282,1,0,0:0:0:0:
245,239,87454,1,0,0:0:0:0:
284,269,87627,5,2,0:0:0:0:
284,269,87799,1,0,0:0:0:0:
284,269,87972,1,0,0:0:0:0:
284,269,88144,1,0,0:0:0:0:
355,243,88316,5,2,0:0:0:0:
359,237,88489,1,0,0:0:0:0:
363,231,88661,1,0,0:0:0:0:
380,152,88834,5,2,0:0:0:0:
377,145,89006,1,0,0:0:0:0:
367,66,89178,5,2,0:0:0:0:
370,59,89350,1,0,0:0:0:0:
439,18,89523,5,2,0:0:0:0:
444,22,89696,1,0,0:0:0:0:
498,76,89868,5,2,0:0:0:0:
493,80,90041,1,0,0:0:0:0:
492,160,90213,5,2,0:0:0:0:
487,164,90385,1,2,0:0:0:0:
481,168,90558,1,2,0:0:0:0:
456,241,90730,5,2,0:0:0:0:
460,248,90903,1,0,0:0:0:0:
487,322,91075,5,2,0:0:0:0:
414,346,91247,1,0,0:0:0:0:
453,338,91420,5,0,0:0:0:0:
376,335,91592,1,0,0:0:0:0:
414,346,91765,5,0,0:0:0:0:
342,316,91937,1,0,0:0:0:0:
376,335,92109,5,0,0:0:0:0:
318,282,92281,1,2,0:0:0:0:
318,282,92627,5,0,0:0:0:0:
333,237,92799,1,0,0:0:0:0:
315,192,92972,1,0,0:0:0:0:
274,167,93144,5,2,0:0:0:0:
233,240,93316,1,0,0:0:0:0:
245,316,93489,1,2,0:0:0:0:
245,316,93661,1,0,0:0:0:0:
313,354,93834,5,2,0:0:0:0:
313,354,94178,5,0,0:0:0:0:
340,299,94351,1,0,0:0:0:0:
374,349,94523,1,0,0:0:0:0:
388,289,94696,1,0,0:0:0:0:
429,334,94868,1,0,0:0:0:0:
446,275,95041,1,2,0:0:0:0:
488,318,95213,5,0,0:0:0:0:
491,257,95385,1,0,0:0:0:0:
495,195,95558,1,0,0:0:0:0:
499,134,95730,1,0,0:0:0:0:
503,72,95903,5,0,0:0:0:0:
499,134,96075,1,0,0:0:0:0:
503,72,96247,1,0,0:0:0:0:
499,134,96420,1,0,0:0:0:0:
430,98,96592,5,2,0:0:0:0:
430,98,96937,1,0,0:0:0:0:
392,83,97109,1,0,0:0:0:0:
352,92,97282,1,0,0:0:0:0:
327,124,97454,1,0,0:0:0:0:
327,164,97627,1,0,0:0:0:0:
347,199,97799,1,2,0:0:0:0:
382,219,97972,5,0,0:0:0:0:
428,225,98144,5,0,0:0:0:0:
468,260,98316,5,0,0:0:0:0:
480,319,98489,5,0,0:0:0:0:
444,376,98661,5,2,0:0:0:0:
410,379,98834,5,0,0:0:0:0:
392,368,99006,5,0,0:0:0:0:
385,358,99178,5,0,0:0:0:0:
386,351,99351,5,0,0:0:0:0:
389,345,99523,1,0,0:0:0:0:
394,341,99696,1,0,0:0:0:0:
400,339,99868,1,0,0:0:0:0:
406,338,100041,1,0,0:0:0:0:
412,339,100213,5,2,0:0:0:0:
440,303,100385,1,2,0:0:0:0:
440,257,100558,1,2,0:0:0:0:
419,216,100730,5,0,0:0:0:0:
414,216,100903,1,0,0:0:0:0:
409,217,101075,1,0,0:0:0:0:
404,218,101247,1,0,0:0:0:0:
399,219,101420,1,0,0:0:0:0:
394,220,101592,5,2,0:0:0:0:
361,188,101765,1,2,0:0:0:0:
315,190,101937,1,2,0:0:0:0:
288,226,102109,5,0,0:0:0:0:
284,228,102282,1,0,0:0:0:0:
280,230,102454,1,0,0:0:0:0:
275,232,102627,1,0,0:0:0:0:
271,234,102799,1,0,0:0:0:0:
267,236,102972,5,2,0:0:0:0:
242,273,103144,1,2,0:0:0:0:
199,286,103316,1,2,0:0:0:0:
156,269,103489,5,0,0:0:0:0:
154,264,103661,1,0,0:0:0:0:
152,259,103834,1,0,0:0:0:0:
150,254,104006,1,0,0:0:0:0:
148,249,104178,1,0,0:0:0:0:
147,244,104351,5,2,0:0:0:0:
189,215,104523,1,2,0:0:0:0:
113,211,104696,1,2,0:0:0:0:
36,201,104868,6,0,L|34:217,1,9.05,0|0,3:0|0:0,0:0:0:0:
76,128,105041,2,0,L|64:138,1,9.05,0|0,3:0|0:0,0:0:0:0:
158,115,105213,2,0,L|141:115,1,9.05,0|0,3:0|0:0,0:0:0:0:
232,151,105385,2,0,L|219:141,1,9.05,0|0,3:0|0:0,0:0:0:0:
267,228,105558,2,0,L|263:212,1,9.05,0|0,3:0|0:0,0:0:0:0:
336,276,105730,2,0,L|323:266,1,9.05,0|0,3:0|0:0,0:0:0:0:
424,277,105903,2,0,L|407:277,1,9.05,0|0,3:0|0:0,0:0:0:0:
485,217,106075,2,0,L|473:227,1,9.05,0|0,3:0|0:0,0:0:0:0:
503,133,106247,2,0,L|500:149,1,9.05,0|0,3:0|0:0,0:0:0:0:
464,56,106420,2,0,L|472:69,1,9.05,0|0,3:0|0:0,0:0:0:0:
385,19,106592,2,0,L|400:23,1,9.05,0|0,3:0|0:0,0:0:0:0:
301,36,106765,2,0,L|315:29,1,9.05,0|0,3:0|0:0,0:0:0:0:
248,103,106937,2,0,L|255:88,1,9.05,0|0,3:0|0:0,0:0:0:0:
255,187,107109,2,0,L|251:171,1,9.05,0|0,3:0|0:0,0:0:0:0:
310,249,107282,2,0,L|297:239,1,9.05,0|0,3:0|0:0,0:0:0:0:
392,264,107454,2,0,L|375:264,1,9.05,0|0,3:0|0:0,0:0:0:0:
469,232,107627,6,0,L|457:242,1,9.05,0|0,3:0|0:0,0:0:0:0:
505,158,107799,2,0,L|502:173,1,9.05,0|0,3:0|0:0,0:0:0:0:
492,74,107972,2,0,L|499:87,1,9.05,0|0,3:0|0:0,0:0:0:0:
440,10,108144,2,0,L|454:15,1,9.05,0|0,3:0|0:0,0:0:0:0:
350,6,108316,2,0,L|364:0,1,9.05,0|0,3:0|0:0,0:0:0:0:
284,54,108489,2,0,L|291:40,1,9.05,0|0,3:0|0:0,0:0:0:0:
281,135,108661,2,0,L|278:119,1,9.05,0|0,3:0|0:0,0:0:0:0:
326,204,108834,2,0,L|314:193,1,9.05,0|0,3:0|0:0,0:0:0:0:
371,271,109006,2,0,L|368:255,1,9.05,0|0,3:0|0:0,0:0:0:0:
344,350,109178,2,0,L|351:336,1,9.05,0|0,3:0|0:0,0:0:0:0:
266,383,109351,2,0,L|280:377,1,9.05,0|0,3:0|0:0,0:0:0:0:
178,379,109523,2,0,L|192:384,1,9.05,0|0,3:0|0:0,0:0:0:0:
116,325,109696,2,0,L|123:338,1,9.05,0|0,3:0|0:0,0:0:0:0:
107,241,109868,2,0,L|104:256,1,9.05,0|0,3:0|0:0,0:0:0:0:
143,161,110041,2,0,L|131:170,1,9.05,0|0,3:0|0:0,0:0:0:0:
218,130,110213,2,0,L|202:129,1,9.05,0|0,3:0|0:0,0:0:0:0:
286,168,110385,6,0,L|292:174,1,9.05,0|0,3:0|0:0,0:0:0:0:
380,210,110558,2,0,L|388:207,1,9.05,0|0,3:0|0:0,0:0:0:0:
454,148,110730,2,0,L|456:139,1,9.05,0|0,3:0|0:0,0:0:0:0:
443,58,110903,2,0,L|436:51,1,9.05,0|0,3:0|0:0,0:0:0:0:
351,26,111075,2,0,L|342:28,1,9.05,0|0,3:0|0:0,0:0:0:0:
281,81,111247,2,0,L|278:89,1,9.05,0|0,3:0|0:0,0:0:0:0:
286,168,111420,2,0,L|292:174,1,9.05,0|0,3:0|0:0,0:0:0:0:
380,210,111593,2,0,L|388:207,1,9.05,0|0,3:0|0:0,0:0:0:0:
454,148,111765,2,0,L|456:139,1,9.05,0|0,3:0|0:0,0:0:0:0:
443,58,111938,2,0,L|436:51,1,9.05,0|0,3:0|0:0,0:0:0:0:
351,26,112110,2,0,L|342:28,1,9.05,0|0,3:0|0:0,0:0:0:0:
281,81,112282,2,0,L|278:89,1,9.05,0|0,3:0|0:0,0:0:0:0:
286,168,112454,2,0,L|292:174,1,9.05,0|0,3:0|0:0,0:0:0:0:
380,210,112627,2,0,L|388:207,1,9.05,0|0,3:0|0:0,0:0:0:0:
454,148,112799,2,0,L|456:139,1,9.05,0|0,3:0|0:0,0:0:0:0:
443,58,112972,2,0,L|436:51,1,9.05,0|0,3:0|0:0,0:0:0:0:
351,26,113144,5,0,3:0:0:0:
270,37,113316,1,0,3:0:0:0:
216,98,113489,1,0,3:0:0:0:
210,179,113661,1,0,3:0:0:0:
243,253,113834,1,0,3:0:0:0:
242,171,114006,1,0,3:0:0:0:
186,111,114178,1,0,3:0:0:0:
105,97,114351,1,0,3:0:0:0:
34,134,114523,5,0,3:0:0:0:
64,137,114696,1,0,3:0:0:0:
94,133,114868,1,0,3:0:0:0:
120,116,115041,1,0,3:0:0:0:
132,88,115213,1,0,3:0:0:0:
106,105,115385,1,0,3:0:0:0:
77,116,115558,1,0,3:0:0:0:
46,115,115730,1,0,3:0:0:0:
19,107,115903,6,0,P|11:80|23:34,1,54.2999983428956,4|0,3:0|0:0,0:0:0:0:
22,34,116075,2,0,P|41:13|87:0,1,54.2999983428956,4|0,3:0|0:0,0:0:0:0:
87,0,116247,2,0,P|114:6|148:39,1,54.2999983428956,4|0,3:0|0:0,0:0:0:0:
149,37,116420,2,0,P|157:63|145:109,1,54.2999983428956,4|0,3:0|0:0,0:0:0:0:
146,106,116592,2,0,P|138:133|150:179,1,54.2999983428956,4|0,3:0|0:0,0:0:0:0:
149,179,116764,2,0,P|168:199|214:212,1,54.2999983428956,4|0,3:0|0:0,0:0:0:0:
214,213,116936,2,0,P|241:206|275:173,1,54.2999983428956,4|0,3:0|0:0,0:0:0:0:
276,176,117109,2,0,P|284:149|272:103,1,54.2999983428956,4|0,3:0|0:0,0:0:0:0:
286,101,117282,2,0,P|266:80|220:67,1,54.2999983428956,4|0,3:0|0:0,0:0:0:0:
221,67,117454,2,0,P|193:73|159:106,1,54.2999983428956,4|0,3:0|0:0,0:0:0:0:
159,106,117626,2,0,P|151:132|163:178,1,54.2999983428956,4|0,3:0|0:0,0:0:0:0:
160,178,117799,2,0,P|179:198|225:211,1,54.2999983428956,4|0,3:0|0:0,0:0:0:0:
224,205,117972,2,0,P|248:216|266:236,1,54.2999983428956,4|0,3:0|0:0,0:0:0:0:
273,255,118145,2,0,P|275:281|267:307,1,54.2999983428956,4|0,3:0|0:0,0:0:0:0:
254,325,118317,2,0,P|231:340|205:346,1,54.2999983428956,4|0,3:0|0:0,0:0:0:0:
183,344,118489,2,0,P|158:332|140:312,1,54.2999983428956,4|0,3:0|0:0,0:0:0:0:
126,298,118661,6,0,P|123:271|131:246,1,54.2999983428956,4|0,3:0|0:0,0:0:0:0:
145,230,118834,2,0,P|166:215|193:209,1,54.2999983428956,4|0,3:0|0:0,0:0:0:0:
215,211,119006,2,0,P|239:223|257:242,1,54.2999983428956,4|0,3:0|0:0,0:0:0:0:
267,263,119178,2,0,P|269:290|260:316,1,54.2999983428956,4|0,3:0|0:0,0:0:0:0:
240,330,119351,2,0,P|215:319|197:299,1,54.2999983428956,4|0,3:0|0:0,0:0:0:0:
190,279,119524,2,0,P|187:252|195:226,1,54.2999983428956,4|0,3:0|0:0,0:0:0:0:
209,209,119696,2,0,P|231:193|257:187,1,54.2999983428956,4|0,3:0|0:0,0:0:0:0:
280,190,119868,2,0,P|305:202|323:221,1,54.2999983428956,4|0,3:0|0:0,0:0:0:0:
326,239,120041,2,0,P|344:258|368:270,1,54.2999983428956,4|0,3:0|0:0,0:0:0:0:
390,272,120213,2,0,P|416:265|438:251,1,54.2999983428956,4|0,3:0|0:0,0:0:0:0:
452,234,120385,2,0,P|460:208|458:181,1,54.2999983428956,4|0,3:0|0:0,0:0:0:0:
450,162,120558,2,0,P|432:141|407:130,1,54.2999983428956,4|0,3:0|0:0,0:0:0:0:
387,130,120730,2,0,P|362:118|344:98,1,54.2999983428956,4|0,3:0|0:0,0:0:0:0:
327,86,120903,2,0,P|325:59|333:33,1,54.2999983428956,4|0,3:0|0:0,0:0:0:0:
346,20,121075,2,0,P|368:5|394:0,1,54.2999983428956,4|0,3:0|0:0,0:0:0:0:
417,5,121247,2,0,P|441:16|459:36,1,54.2999983428956,4|0,3:0|0:0,0:0:0:0:
461,111,121420,5,4,3:0:0:0:
461,111,121592,1,4,3:0:0:0:
415,185,121765,1,4,3:0:0:0:
415,185,121937,1,4,3:0:0:0:
414,271,122109,1,4,3:0:0:0:
414,271,122281,1,4,3:0:0:0:
469,337,122454,1,4,3:0:0:0:
469,337,122626,1,4,3:0:0:0:
497,254,122799,5,4,3:0:0:0:
497,254,122971,1,4,3:0:0:0:
456,177,123144,1,4,3:0:0:0:
456,177,123316,1,4,3:0:0:0:
382,134,123488,1,4,3:0:0:0:
382,134,123660,1,4,3:0:0:0:
297,157,123834,5,8,0:0:0:0:
244,164,123920,1,8,0:0:0:0:
200,135,124006,1,8,0:0:0:0:
189,83,124092,1,8,0:0:0:0:
216,37,124178,1,8,0:0:0:0:
266,22,124265,1,8,0:0:0:0:
314,46,124351,5,0,3:0:0:0:
313,51,124437,1,0,3:0:0:0:
311,56,124523,1,0,3:0:0:0:
309,61,124609,1,0,3:0:0:0:
308,66,124696,2,0,P|337:82|372:77,1,54.2999983428956,8|8,0:0|0:0,0:0:0:0:
432,73,124868,5,0,3:0:0:0:
433,77,124954,1,0,3:0:0:0:
435,82,125040,1,0,3:0:0:0:
437,87,125126,1,0,3:0:0:0:
438,92,125213,2,0,P|409:108|374:103,1,54.2999983428956,8|8,0:0|0:0,0:0:0:0:
313,109,125385,5,0,3:0:0:0:
311,113,125471,1,0,3:0:0:0:
309,118,125557,1,0,3:0:0:0:
307,123,125643,1,0,3:0:0:0:
306,128,125730,2,0,P|335:144|370:139,1,54.2999983428956,8|8,0:0|0:0,0:0:0:0:
430,135,125902,5,0,3:0:0:0:
431,139,125988,1,0,3:0:0:0:
433,144,126074,1,0,3:0:0:0:
435,149,126160,1,0,3:0:0:0:
436,154,126247,2,0,P|407:170|372:164,1,54.2999983428956,8|8,0:0|0:0,0:0:0:0:
100,135,126592,1,8,0:0:0:0:
100,135,126678,1,8,0:0:0:0:
368,9,126937,6,0,B|374:65|328:73|328:73|222:96|222:96|165:109|183:203,1,271.5,4|0,3:2|0:0,0:0:0:0:
228,210,127282,6,0,B|240:202|250:184|250:184|255:206|269:225,1,67.8750025892259,8|0,0:0|0:0,0:0:0:0:
442,206,127454,5,2,0:0:0:0:
444,137,127541,1,8,0:0:0:0:
453,205,127627,5,2,0:0:0:0:
433,139,127714,1,8,0:0:0:0:
365,227,127799,6,0,P|324:249|241:212,1,135.75,2|0,3:2|0:0,0:0:0:0:
236,200,127972,2,0,P|229:178|228:155,1,45.25,8|0,0:0|0:0,0:0:0:0:
90,86,128144,6,0,P|39:91|0:121,1,101.812503883839
19,126,128316,6,0,B|-15:147|-17:180|-17:180|57:87|191:124,1,271.5,0|0,3:0|0:0,0:0:0:0:
242,0,128661,6,0,P|291:18|320:63,1,108.599996685791,8|2,0:0|0:0,0:0:0:0:
403,201,128920,1,8,0:0:0:0:
479,183,129006,1,2,0:0:0:0:
413,211,129092,1,8,0:0:0:0:
470,160,129178,2,0,L|484:46,1,90.5,2|0,0:0|0:0,0:0:0:0:
399,45,129351,6,0,L|394:1,1,45.25,8|0,0:0|0:0,0:0:0:0:
271,175,129523,6,0,P|335:152|375:173,1,67.8750025892259
444,384,129696,6,0,B|398:312|333:326|304:346|304:346|350:335|361:394|426:266,1,271.5,0|0,3:0|0:0,0:0:0:0:
456,264,130041,2,0,P|474:211|468:158,1,108.599996685791,8|2,0:0|0:0,0:0:0:0:
219,92,130299,5,8,0:0:0:0:
219,92,130385,1,2,0:0:0:0:
151,60,130471,1,8,0:0:0:0:
151,60,130558,2,0,P|132:112|149:185,1,108.599996685791,2|8,3:2|0:0,0:0:0:0:
360,77,130816,5,0,0:0:0:0:
374,84,130903,2,0,P|409:44|384:-23,1,90.5
297,26,131075,6,0,B|347:9|373:72|369:46|395:74|443:69|443:69|404:88|390:120|390:120|384:94|362:69,1,271.5,0|0,3:0|0:0,0:0:0:0:
385,71,131420,2,0,L|421:-16,1,67.8750025892259,8|0,0:0|0:0,0:0:0:0:
380,344,131592,5,2,0:0:0:0:
452,358,131678,1,8,0:0:0:0:
388,333,131765,1,2,0:0:0:0:
446,379,131851,1,8,0:0:0:0:
451,290,131937,2,0,B|442:236|442:236|402:212|402:212|395:175,1,135.750005178452,2|8,0:0|0:0,0:0:0:0:
257,349,132196,1,0,0:0:0:0:
257,349,132282,2,0,L|135:362,1,67.8750025892259,0|0,3:0|0:0,0:0:0:0:
23,197,132454,6,0,B|72:199|100:156|133:202|133:202|129:223|138:250|138:250|112:187|72:223|91:154,1,271.5,0|0,3:0|0:0,0:0:0:0:
0,116,132799,2,0,B|42:102|42:102|69:-13,1,135.750005178452,8|2,0:0|0:0,0:0:0:0:
166,17,133058,1,8,0:0:0:0:
156,26,133144,2,0,L|135:114,1,67.8750025892259,2|8,0:0|0:0,0:0:0:0:
254,110,133316,2,0,B|224:119|224:119|209:183,1,90.5,2|0,3:2|0:0,0:0:0:0:
480,82,133489,6,0,L|488:49,1,33.9375012946129,8|0,0:0|0:0,0:0:0:0:
476,56,133661,2,0,L|484:23,1,33.9375012946129
428,214,133834,6,0,B|478:268|456:326|456:326|420:330|386:362|386:362|420:319|422:267|422:267,1,271.5,0|0,3:0|0:0,0:0:0:0:
288,53,134178,6,0,B|272:26|291:-2|291:-2|315:15|345:19|345:19|302:26|289:66,1,158.375001510382,8|2,0:0|0:0,0:0:0:0:
260,260,134437,5,8,0:0:0:0:
333,238,134524,1,2,0:0:0:0:
368,169,134610,1,8,0:0:0:0:
355,94,134696,1,2,0:0:0:0:
480,82,134868,6,0,L|488:49,1,33.9375012946129,8|0,0:0|0:0,0:0:0:0:
476,56,135040,2,0,L|484:23,1,33.9375012946129
502,266,135213,6,0,P|448:191|269:155,1,271.5,0|0,3:0|0:0,0:0:0:0:
345,25,135558,6,0,P|373:50|338:31,1,90.5,8|0,0:0|0:0,0:0:0:0:
182,217,135730,6,0,P|174:236|164:218,1,45.25,2|8,0:0|0:0,0:0:0:0:
301,149,135903,6,0,P|309:177|282:165,1,67.8750025892259,2|8,0:0|0:0,0:0:0:0:
81,171,136075,6,0,P|64:180|79:166,1,33.9375012946129,2|0,3:2|0:0,0:0:0:0:
32,82,136247,6,0,L|24:49,1,33.9375012946129,8|0,0:0|0:0,0:0:0:0:
36,56,136419,2,0,L|28:23,1,33.9375012946129,2|8,0:0|0:0,0:0:0:0:
127,357,136592,5,2,0:0:0:0:
119,343,136678,1,8,0:0:0:0:
180,305,136765,2,0,L|167:118,1,181,2|8,3:2|0:0,0:0:0:0:
397,66,137109,5,2,0:0:0:0:
326,78,137196,1,8,0:0:0:0:
307,8,137282,1,2,0:0:0:0:
337,63,137368,1,8,0:0:0:0:
335,80,137454,2,0,L|321:177,1,90.5,2|0,3:2|0:0,0:0:0:0:
461,175,137627,5,8,0:0:0:0:
257,224,137799,5,0,3:0:0:0:
53,273,137972,6,0,B|110:215|111:253|175:210|175:210|165:257|209:292,1,203.625007767678,4|0,3:2|0:0,0:0:0:0:
194,74,138316,6,0,B|148:43|80:109|80:109|105:124|118:169,1,181,8|2,0:0|0:0,0:0:0:0:
145,344,138575,5,8,0:0:0:0:
183,281,138661,1,2,0:0:0:0:
256,254,138747,1,8,0:0:0:0:
325,285,138834,2,0,P|358:302|446:260,1,135.75,2|0,3:2|0:0,0:0:0:0:
451,248,139006,2,0,L|453:185,1,45.25,8|0,0:0|0:0,0:0:0:0:
511,78,139178,6,0,P|457:47|402:57,1,101.812503883839
406,34,139351,2,0,B|364:57|349:94|349:94|436:24|521:98,1,271.5,0|0,3:0|0:0,0:0:0:0:
511,313,139696,5,8,0:0:0:0:
371,206,139868,5,2,0:0:0:0:
213,232,140041,5,2,0:0:0:0:
168,297,140127,1,8,0:0:0:0:
200,218,140213,2,0,P|134:166|59:157,1,135.75,2|0,0:0|0:0,0:0:0:0:
73,143,140385,2,0,P|74:120|81:99,1,45.25,8|0,0:0|0:0,0:0:0:0:
0,321,140558,6,0,P|41:292|89:287,1,67.8750025892259
242,353,140730,6,0,B|270:277|368:298|368:298|376:338|406:371|406:371|348:340|348:340|332:310|339:275,1,362,0|8,3:0|0:0,0:0:0:0:
423,89,141247,1,2,0:0:0:0:
482,139,141334,1,8,0:0:0:0:
444,77,141420,5,2,0:0:0:0:
468,153,141506,1,8,0:0:0:0:
512,34,141592,6,0,B|450:1|405:47|405:47|386:100|319:87,2,181,2|8|0,3:2|0:0|0:0,0:0:0:0:
488,269,142109,6,0,P|372:197|187:178,1,271.5,0|0,3:0|0:0,0:0:0:0:
264,94,142454,6,0,B|241:57|241:57|261:-1,1,90.5,8|2,0:0|0:0,0:0:0:0:
220,181,142713,5,8,0:0:0:0:
158,227,142799,1,2,0:0:0:0:
75,242,142885,1,8,0:0:0:0:
0,189,142972,2,0,L|-4:52,1,90.5,2|0,0:0|0:0,0:0:0:0:
173,93,143144,6,0,L|174:-30,1,67.8750025892259,8|0,0:0|0:0,0:0:0:0:
382,45,143316,6,0,L|387:-41,1,45.25,0|0,3:0|0:0,0:0:0:0:
435,316,143489,6,0,B|365:207|226:211|257:310|425:222,1,271.5,0|0,3:0|0:0,0:0:0:0:
469,151,143834,6,0,B|486:109|486:109|465:50,1,90.5,8|2,0:0|0:0,0:0:0:0:
386,226,144092,1,8,0:0:0:0:
367,150,144178,1,2,0:0:0:0:
406,221,144265,1,8,0:0:0:0:
288,162,144351,6,0,P|233:172|171:242,1,135.750005178452,2|8,0:0|0:0,0:0:0:0:
28,68,144609,1,0,0:0:0:0:
18,56,144696,2,0,L|15:2,1,33.9375012946129
0,233,144868,6,0,B|26:132|151:129|151:129|167:223,1,271.5,0|0,3:0|0:0,0:0:0:0:
395,380,145213,6,0,P|319:343|311:287,1,135.750005178452,8|2,0:0|0:0,0:0:0:0:
286,301,145472,1,8,0:0:0:0:
309,229,145558,1,2,0:0:0:0:
256,277,145644,1,8,0:0:0:0:
339,165,145730,6,0,P|337:107|324:18,1,135.750005178452,2|8,3:2|0:0,0:0:0:0:
28,68,145989,5,0,0:0:0:0:
18,56,146075,2,0,L|15:2,1,33.9375012946129
42,285,146247,6,0,P|135:232|134:75,1,271.5,0|0,3:0|0:0,0:0:0:0:
82,24,146592,6,0,B|41:34|27:64|27:64|16:20|49:-15,1,135.750005178452,8|2,0:0|0:0,0:0:0:0:
128,105,146851,5,8,0:0:0:0:
198,138,146937,1,2,0:0:0:0:
276,139,147023,1,8,0:0:0:0:
339,92,147109,1,2,0:0:0:0:
306,156,147196,1,0,0:0:0:0:
320,83,147282,2,0,L|312:-23,1,67.8750025892259,8|0,0:0|0:0,0:0:0:0:
292,169,147454,2,0,L|286:236,1,67.8750025892259,2|8,0:0|0:0,0:0:0:0:
512,254,147627,5,2,0:0:0:0:
474,185,147713,1,8,0:0:0:0:
401,214,147799,2,0,L|407:357,1,135.75,2|0,0:0|0:0,0:0:0:0:
396,367,147972,6,0,B|350:381|350:381|296:356,1,90.5,8|0,0:0|0:0,0:0:0:0:
46,287,148144,5,0,3:0:0:0:
46,287,148230,1,8,0:0:0:0:
46,287,148316,1,8,0:0:0:0:
46,287,148403,1,8,0:0:0:0:
46,287,148489,1,8,0:0:0:0:
46,287,148575,1,8,0:0:0:0:
46,287,148661,1,0,3:0:0:0:
160,352,148747,5,0,3:0:0:0:
237,341,148834,1,0,3:0:0:0:
455,121,149006,6,0,B|474:129|485:156|485:156|403:102|311:116|311:116|348:125|376:168,1,271.5,4|0,3:2|0:0,0:0:0:0:
484,307,149351,6,0,P|495:329|496:301,1,67.8750025892259,8|0,0:0|0:0,0:0:0:0:
353,149,149523,6,0,L|357:207,1,33.9375012946129,2|8,0:0|0:0,0:0:0:0:
249,181,149696,5,2,0:0:0:0:
251,194,149782,1,8,0:0:0:0:
147,257,149868,6,0,L|149:223,1,33.9375012946129,2|0,3:2|0:0,0:0:0:0:
249,203,150041,5,8,0:0:0:0:
408,344,150213,6,0,L|410:377,1,33.9375012946129,2|0,0:0|0:0,0:0:0:0:
251,195,150385,5,0,3:0:0:0:
104,40,150558,6,0,L|101:6,1,33.9375012946129,2|0,0:0|0:0,0:0:0:0:
258,183,150730,5,8,0:0:0:0:
257,202,150903,1,2,0:0:0:0:
270,198,151075,1,2,0:0:0:0:
250,187,151247,1,2,0:0:0:0:
261,184,151420,1,8,0:0:0:0:
252,195,151592,1,0,0:0:0:0:
408,35,151765,6,0,P|377:65|374:85,1,33.9375012946129,2|0,3:2|0:0,0:0:0:0:
230,20,151937,2,0,P|222:62|232:87,1,56.5625,2|0,0:2|0:0,0:0:0:0:
325,6,152109,2,0,P|304:44|308:64,1,45.25,10|0,0:0|0:0,0:0:0:0:
145,62,152282,2,0,P|152:112|170:135,1,67.8750025892259,2|8,0:0|0:0,0:0:0:0:
22,250,152454,2,0,P|71:287|113:291,1,90.5,2|8,0:0|0:0,0:0:0:0:
66,140,152627,2,0,P|92:185|123:204,1,79.1875007551909,2|0,3:2|0:0,0:0:0:0:
200,362,152799,6,0,P|279:292|369:293,1,158.375001510382,10|2,0:0|0:0,0:0:0:0:
406,332,153058,1,0,0:0:0:0:
406,332,153144,2,0,P|398:360|392:328,1,79.1875007551909,0|0,3:0|0:0,0:0:0:0:
332,268,153316,2,0,L|322:171,1,79.1875007551909,2|0,0:0|0:0,0:0:0:0:
404,201,153489,2,0,L|414:104,1,79.1875007551909,10|0,0:0|0:0,0:0:0:0:
239,279,153661,5,2,0:0:0:0:
198,341,153747,1,8,0:0:0:0:
125,369,153834,1,2,0:0:0:0:
43,342,153920,1,8,0:0:0:0:
8,254,154006,2,0,L|0:175,1,79.1875007551909,2|0,0:0|0:0,0:0:0:0:
88,136,154178,5,10,0:2:0:0:
259,194,154351,5,2,3:2:0:0:
446,271,154523,6,0,B|495:235|499:142|435:103|435:103|461:139|447:186,1,271.5,0|0,3:2|0:0,0:0:0:0:
421,16,154868,2,0,P|466:20|505:44,1,90.5,10|2,0:0|0:0,0:0:0:0:
434,264,155127,5,8,0:0:0:0:
364,231,155213,1,2,0:0:0:0:
328,160,155299,1,8,0:0:0:0:
351,85,155385,1,2,3:2:0:0:
253,350,155558,6,0,B|209:368|181:333|181:333|124:229|18:290,1,271.5,10|0,0:0|0:0,0:0:0:0:
37,296,155903,2,0,B|52:257|52:257|32:206,1,90.5,0|2,3:0|0:0,0:0:0:0:
188,59,156247,1,10,0:0:0:0:
83,25,156420,2,0,B|92:62|92:62|73:133,1,67.8750025892259,2|8,0:0|0:0,0:0:0:0:
308,174,156592,2,0,B|299:137|299:137|318:66,1,67.8750025892259,2|8,0:0|0:0,0:0:0:0:
419,167,156765,5,2,0:0:0:0:
258,359,156937,2,0,P|309:311|453:329,1,181,10|2,0:0|0:0,0:0:0:0:
396,384,157196,1,0,0:0:0:0:
396,384,157282,6,0,B|349:362|349:362|313:183,1,181,2|2,3:2|0:0,0:0:0:0:
512,109,157627,2,0,L|504:199,1,90.5,10|2,0:0|0:0,0:0:0:0:
375,69,157885,5,8,0:0:0:0:
362,76,157972,1,2,0:0:0:0:
371,78,158058,1,8,0:0:0:0:
371,78,158144,2,0,L|355:-35,1,90.5,2|0,3:2|0:0,0:0:0:0:
406,173,158316,6,0,B|322:121|251:195|251:195|228:259|164:233,1,271.5,8|8,0:0|0:0,0:0:0:0:
162,235,158661,6,0,P|144:206|157:142,1,90.5,2|2,0:0|3:2,0:0:0:0:
86,359,159006,1,8,0:0:0:0:
86,359,159178,1,2,0:0:0:0:
258,296,159351,5,2,0:0:0:0:
270,224,159437,1,8,0:0:0:0:
283,152,159523,1,2,0:0:0:0:
441,286,159696,5,8,0:2:0:0:
508,315,159868,1,2,3:2:0:0:
407,46,160041,6,0,P|503:83|480:266,1,271.5,4|0,3:2|0:0,0:0:0:0:
429,292,160386,6,0,B|416:276|427:253|427:253|428:278|468:317,1,67.8750025892259,8|0,0:0|0:0,0:0:0:0:
387,121,160558,6,0,B|351:111|351:111|304:130,1,67.8750025892259,2|8,0:0|0:0,0:0:0:0:
249,181,160731,5,2,0:0:0:0:
251,194,160817,1,8,0:0:0:0:
133,249,160903,6,0,L|64:256,1,45.25,2|0,3:2|0:0,0:0:0:0:
249,203,161076,5,8,0:0:0:0:
355,343,161247,6,0,L|424:350,1,45.25,2|0,0:0|0:0,0:0:0:0:
251,195,161420,5,0,3:0:0:0:
270,59,161592,6,0,L|263:-10,1,45.25,2|0,0:0|0:0,0:0:0:0:
258,183,161765,5,8,0:0:0:0:
257,202,161938,1,2,0:0:0:0:
270,198,162110,1,2,0:0:0:0:
250,187,162282,1,2,0:0:0:0:
261,184,162455,1,8,0:0:0:0:
252,195,162627,1,0,0:0:0:0:
142,359,162799,6,0,P|167:324|167:304,1,33.9375012946129,2|0,3:2|0:0,0:0:0:0:
320,345,162972,2,0,P|321:302|307:279,1,56.5625,2|0,0:2|0:0,0:0:0:0:
228,374,163144,2,0,P|242:333|235:314,1,45.25,10|0,0:0|0:0,0:0:0:0:
397,291,163317,2,0,P|382:242|360:222,1,67.8750025892259,2|8,0:0|0:0,0:0:0:0:
489,86,163489,2,0,P|434:57|392:59,1,90.5,2|8,0:0|0:0,0:0:0:0:
463,201,163662,2,0,P|430:160|396:146,1,79.1875007551909,2|0,3:2|0:0,0:0:0:0:
194,180,163834,6,0,B|255:164|303:212|303:212|261:220|250:245,1,158.375001510382,10|2,0:0|0:0,0:0:0:0:
53,333,164093,5,0,0:0:0:0:
53,333,164179,2,0,B|30:347|10:319|10:319|34:324|57:319,1,79.1875007551909,0|0,3:0|0:0,0:0:0:0:
32,238,164351,6,0,L|22:141,1,79.1875007551909,2|0,0:0|0:0,0:0:0:0:
81,105,164524,2,0,L|91:8,1,79.1875007551909,10|0,0:0|0:0,0:0:0:0:
239,279,164696,5,2,0:0:0:0:
198,341,164782,1,8,0:0:0:0:
125,369,164869,1,2,0:0:0:0:
43,342,164955,1,8,0:0:0:0:
8,254,165041,2,0,L|0:175,1,79.1875007551909,2|0,0:0|0:0,0:0:0:0:
60,324,165213,5,10,0:2:0:0:
239,342,165386,5,2,3:2:0:0:
427,359,165558,6,0,B|403:347|366:269|431:226|431:226|454:229|486:215|486:215|467:238|467:272,1,271.5,0|0,3:2|0:0,0:0:0:0:
512,59,165903,2,0,B|465:48|465:48|421:71,1,90.5,10|2,0:0|0:0,0:0:0:0:
304,16,166162,5,8,0:0:0:0:
271,86,166248,1,2,0:0:0:0:
200,122,166334,1,8,0:0:0:0:
125,99,166420,1,2,3:2:0:0:
251,338,166593,6,0,B|194:249|298:192|298:192|359:190|353:113,1,271.5,10|0,0:0|0:0,0:0:0:0:
160,340,166937,2,0,B|113:351|113:351|69:328,1,90.5,0|2,3:0|0:0,0:0:0:0:
196,45,167282,1,10,0:0:0:0:
124,170,167455,1,2,0:0:0:0:
154,214,167541,1,8,0:0:0:0:
225,234,167627,1,2,0:0:0:0:
297,200,167713,1,8,0:0:0:0:
297,200,167799,2,0,B|284:165|284:165|309:106,1,67.8750025892259,2|0,0:0|0:0,0:0:0:0:
425,91,167972,6,0,B|391:49|393:8|446:-20|446:-20|435:41,1,181,10|2,0:0|0:0,0:0:0:0:
476,178,168231,1,0,0:0:0:0:
476,178,168317,6,0,B|496:186|501:213|501:213|428:153|322:177,1,181,2|2,3:2|0:0,0:0:0:0:
330,336,168662,2,0,P|324:300|342:328,1,90.5,10|2,0:0|0:0,0:0:0:0:
185,57,168920,5,8,0:0:0:0:
177,45,169007,1,2,0:0:0:0:
188,50,169093,1,8,0:0:0:0:
178,58,169179,2,0,L|162:171,1,90.5,2|0,3:2|0:0,0:0:0:0:
27,323,169351,6,0,B|8:151|23:323|4:154|17:327|-2:133,1,181,8|2,0:0|0:0,0:0:0:0:
162,322,169609,1,8,0:0:0:0:
162,322,169696,6,0,P|167:301|154:325,1,90.5
234,233,169868,6,0,P|232:211|227:238,1,79.1875007551909
341,201,170041,6,0,P|346:180|333:204,1,67.8750025892259
463,223,170213,6,0,P|474:204|454:223,1,56.5625
320,197,170385,5,0,0:0:0:0:
239,133,170558,5,0,0:0:0:0:
231,28,170730,5,0,0:0:0:0:
235,21,170903,5,0,0:0:0:0:
280,349,171075,5,4,3:0:0:0:
