osu file format v14

[General]
AudioFilename: audio.mp3
AudioLeadIn: 0
PreviewTime: 149006
Countdown: 0
SampleSet: Soft
StackLeniency: 0
Mode: 0
LetterboxInBreaks: 0
EpilepsyWarning: 1
WidescreenStoryboard: 1

[Editor]
DistanceSpacing: 0.6
BeatDivisor: 4
GridSize: 32
TimelineZoom: 2.4

[Metadata]
Title:Tramontane (Cut Ver.)
TitleUnicode:Tramontane (Cut Ver.)
Artist:Boxplot
ArtistUnicode:Boxplot
Creator:mapping
Version:Extra
Source:
Tags:drum & and bass dnb english electronic liquid liquicity featured artist fa mappers' guild mpg capr senseabel hausenberg kerli_ frakturehawkens halgoh ksardas nekroman4ik maruoko delette tatemae akitoshi corinn -laura-
BeatmapID:4573535
BeatmapSetID:2167774

[Difficulty]
HPDrainRate:5
CircleSize:4
OverallDifficulty:8.7
ApproachRate:9.3
SliderMultiplier:1.5
SliderTickRate:1

[Events]
//Background and Video events
0,0,"tramontane.png",0,0
//Break Periods
2,99551,104314
//Storyboard Layer 0 (Background)
//Storyboard Layer 1 (Fail)
//Storyboard Layer 2 (Pass)
//Storyboard Layer 3 (Foreground)
//Storyboard Layer 4 (Overlay)
//Storyboard Sound Samples

[TimingPoints]
41,344.827586206897,4,2,2,30,1,0
10989,-100,4,2,2,5,0,0
11075,-200,4,2,2,20,0,0
49696,-200,4,2,2,25,0,0
51075,-200,4,2,2,30,0,0
51420,-181.818181818182,4,2,2,30,0,0
51765,-166.666666666667,4,2,2,30,0,0
52109,-153.846153846154,4,2,2,30,0,0
52454,-153.846153846154,4,2,2,35,0,0
53834,-142.857142857143,4,2,2,40,0,0
54178,-133.333333333333,4,2,2,40,0,0
54523,-125,4,2,2,40,0,0
54868,-117.647058823529,4,2,2,40,0,0
55213,-117.647058823529,4,2,2,30,0,0
66247,-117.647058823529,4,2,2,35,0,0
77282,-200,4,2,2,45,0,0
78144,-166.666666666667,4,2,2,45,0,0
78489,-142.857142857143,4,2,2,45,0,0
78834,-125,4,2,2,45,0,0
87541,-125,4,2,2,5,0,0
87627,-125,4,2,2,45,0,0
88316,-125,4,2,2,55,0,0
88834,-117.647058823529,4,2,2,55,0,0
89178,-111.111111111111,4,2,2,55,0,0
89523,-100,4,2,2,55,0,0
89868,-95.2380952380952,4,2,2,55,0,0
99351,-1000,4,2,2,20,0,0
104868,-50,4,2,1,80,0,0
104954,-50,4,1,1,5,0,0
105041,-50,4,2,1,80,0,0
105127,-50,4,1,1,5,0,0
105213,-50,4,2,1,80,0,0
105299,-50,4,1,1,5,0,0
105385,-50,4,2,1,80,0,0
105472,-50,4,1,1,5,0,0
105558,-50,4,2,1,80,0,0
105644,-50,4,1,1,5,0,0
105730,-50,4,2,1,80,0,0
105816,-50,4,1,1,5,0,0
105903,-50,4,2,1,80,0,0
105989,-50,4,1,1,5,0,0
106075,-50,4,2,1,80,0,0
106161,-50,4,1,1,5,0,0
106247,-50,4,2,1,80,0,0
106334,-50,4,1,1,5,0,0
106420,-50,4,2,1,80,0,0
106506,-50,4,1,1,5,0,0
106592,-50,4,2,1,80,0,0
106678,-50,4,1,1,5,0,0
106765,-50,4,2,1,80,0,0
106851,-50,4,1,1,5,0,0
106937,-50,4,2,1,80,0,0
107023,-50,4,1,1,5,0,0
107109,-50,4,2,1,80,0,0
107196,-50,4,1,1,5,0,0
107282,-50,4,2,1,80,0,0
107368,-50,4,1,1,5,0,0
107454,-50,4,2,1,80,0,0
107541,-50,4,1,1,5,0,0
107627,-50,4,2,1,80,0,0
107713,-50,4,1,1,5,0,0
107799,-50,4,2,1,80,0,0
107885,-50,4,1,1,5,0,0
107972,-50,4,2,1,80,0,0
108058,-50,4,1,1,5,0,0
108144,-50,4,2,1,80,0,0
108230,-50,4,1,1,5,0,0
108316,-50,4,2,1,80,0,0
108403,-50,4,1,1,5,0,0
108489,-50,4,2,1,80,0,0
108575,-50,4,1,1,5,0,0
108661,-50,4,2,1,80,0,0
108747,-50,4,1,1,5,0,0
108834,-50,4,2,1,80,0,0
108920,-50,4,1,1,5,0,0
109006,-50,4,2,1,80,0,0
109092,-50,4,1,1,5,0,0
109178,-50,4,2,1,80,0,0
109265,-50,4,1,1,5,0,0
109351,-50,4,2,1,80,0,0
109437,-50,4,1,1,5,0,0
109523,-50,4,2,1,80,0,0
109609,-50,4,1,1,5,0,0
109696,-50,4,2,1,80,0,0
109782,-50,4,1,1,5,0,0
109868,-50,4,2,1,80,0,0
109954,-50,4,1,1,5,0,0
110041,-50,4,2,1,80,0,0
110127,-50,4,1,1,5,0,0
110213,-50,4,2,1,80,0,0
110299,-50,4,1,1,5,0,0
110385,-66.6666666666667,4,2,1,80,0,0
110471,-66.6666666666667,4,1,1,5,0,0
110558,-66.6666666666667,4,2,1,80,0,0
110644,-66.6666666666667,4,1,1,5,0,0
110730,-66.6666666666667,4,2,1,80,0,0
110816,-66.6666666666667,4,1,1,5,0,0
110902,-66.6666666666667,4,2,1,80,0,0
110989,-66.6666666666667,4,1,1,5,0,0
111075,-66.6666666666667,4,2,1,80,0,0
111161,-66.6666666666667,4,1,1,5,0,0
111247,-66.6666666666667,4,2,1,80,0,0
111333,-66.6666666666667,4,1,1,5,0,0
111420,-66.6666666666667,4,2,1,80,0,0
111506,-66.6666666666667,4,1,1,5,0,0
111592,-66.6666666666667,4,2,1,80,0,0
111678,-66.6666666666667,4,1,1,5,0,0
111764,-66.6666666666667,4,2,1,80,0,0
111851,-66.6666666666667,4,1,1,5,0,0
111937,-66.6666666666667,4,2,1,80,0,0
112023,-66.6666666666667,4,1,1,5,0,0
112109,-66.6666666666667,4,2,1,80,0,0
112195,-66.6666666666667,4,1,1,5,0,0
112282,-66.6666666666667,4,2,1,80,0,0
112368,-66.6666666666667,4,1,1,5,0,0
112454,-66.6666666666667,4,2,1,80,0,0
112540,-66.6666666666667,4,1,1,5,0,0
112626,-66.6666666666667,4,2,1,80,0,0
112713,-66.6666666666667,4,1,1,5,0,0
112799,-66.6666666666667,4,2,1,80,0,0
112885,-66.6666666666667,4,1,1,5,0,0
112971,-66.6666666666667,4,2,1,80,0,0
113058,-66.6666666666667,4,1,1,5,0,0
113144,-66.6666666666667,4,2,1,80,0,0
113230,-66.6666666666667,4,1,1,5,0,0
113316,-66.6666666666667,4,2,1,80,0,0
113402,-66.6666666666667,4,1,1,5,0,0
113489,-66.6666666666667,4,2,1,80,0,0
113575,-66.6666666666667,4,1,1,5,0,0
113661,-66.6666666666667,4,2,1,80,0,0
113747,-66.6666666666667,4,1,1,5,0,0
113833,-66.6666666666667,4,2,1,80,0,0
113920,-66.6666666666667,4,1,1,5,0,0
114006,-66.6666666666667,4,2,1,80,0,0
114092,-66.6666666666667,4,1,1,5,0,0
114178,-66.6666666666667,4,2,1,80,0,0
114264,-66.6666666666667,4,1,1,5,0,0
114351,-66.6666666666667,4,2,1,80,0,0
114437,-66.6666666666667,4,1,1,5,0,0
114523,-66.6666666666667,4,2,1,80,0,0
114609,-66.6666666666667,4,1,1,5,0,0
114695,-66.6666666666667,4,2,1,80,0,0
114782,-66.6666666666667,4,1,1,5,0,0
114868,-66.6666666666667,4,2,1,80,0,0
114954,-66.6666666666667,4,1,1,5,0,0
115040,-66.6666666666667,4,2,1,80,0,0
115126,-66.6666666666667,4,1,1,5,0,0
115213,-66.6666666666667,4,2,1,80,0,0
115299,-66.6666666666667,4,1,1,5,0,0
115385,-66.6666666666667,4,2,1,80,0,0
115471,-66.6666666666667,4,1,1,5,0,0
115558,-66.6666666666667,4,2,1,80,0,0
115644,-66.6666666666667,4,1,1,5,0,0
115730,-66.6666666666667,4,2,1,80,0,0
115816,-66.6666666666667,4,1,1,5,0,0
115903,-50,4,2,1,80,0,0
115989,-50,4,1,1,5,0,0
116076,-50,4,2,1,80,0,0
116162,-50,4,1,1,5,0,0
116248,-50,4,2,1,80,0,0
116334,-50,4,1,1,5,0,0
116420,-50,4,2,1,80,0,0
116507,-50,4,1,1,5,0,0
116593,-50,4,2,1,80,0,0
116679,-50,4,1,1,5,0,0
116765,-50,4,2,1,80,0,0
116851,-50,4,1,1,5,0,0
116938,-50,4,2,1,80,0,0
117024,-50,4,1,1,5,0,0
117110,-50,4,2,1,80,0,0
117196,-50,4,1,1,5,0,0
117282,-50,4,2,1,80,0,0
117369,-50,4,1,1,5,0,0
117455,-50,4,2,1,80,0,0
117541,-50,4,1,1,5,0,0
117627,-50,4,2,1,80,0,0
117713,-50,4,1,1,5,0,0
117800,-50,4,2,1,80,0,0
117886,-50,4,1,1,5,0,0
117972,-50,4,2,1,80,0,0
118058,-50,4,1,1,5,0,0
118144,-50,4,2,1,80,0,0
118231,-50,4,1,1,5,0,0
118317,-50,4,2,1,80,0,0
118403,-50,4,1,1,5,0,0
118489,-50,4,2,1,80,0,0
118576,-50,4,1,1,5,0,0
118662,-50,4,2,1,80,0,0
118748,-50,4,1,1,5,0,0
118834,-50,4,2,1,80,0,0
118920,-50,4,1,1,5,0,0
119007,-50,4,2,1,80,0,0
119093,-50,4,1,1,5,0,0
119179,-50,4,2,1,80,0,0
119265,-50,4,1,1,5,0,0
119351,-50,4,2,1,80,0,0
119438,-50,4,1,1,5,0,0
119524,-50,4,2,1,80,0,0
119610,-50,4,1,1,5,0,0
119696,-50,4,2,1,80,0,0
119782,-50,4,1,1,5,0,0
119869,-50,4,2,1,80,0,0
119955,-50,4,1,1,5,0,0
120041,-50,4,2,1,80,0,0
120127,-50,4,1,1,5,0,0
120213,-50,4,2,1,80,0,0
120300,-50,4,1,1,5,0,0
120386,-50,4,2,1,80,0,0
120472,-50,4,1,1,5,0,0
120558,-50,4,2,1,80,0,0
120644,-50,4,1,1,5,0,0
120731,-50,4,2,1,80,0,0
120817,-50,4,1,1,5,0,0
120903,-50,4,2,1,80,0,0
120989,-50,4,1,1,5,0,0
121076,-50,4,2,1,80,0,0
121162,-50,4,1,1,5,0,0
121248,-50,4,2,1,80,0,0
121334,-50,4,1,1,5,0,0
121420,-66.6666666666667,4,2,1,80,0,0
121506,-66.6666666666667,4,1,1,5,0,0
121593,-66.6666666666667,4,2,1,80,0,0
121679,-66.6666666666667,4,1,1,5,0,0
121765,-66.6666666666667,4,2,1,80,0,0
121851,-66.6666666666667,4,1,1,5,0,0
121937,-66.6666666666667,4,2,1,80,0,0
122024,-66.6666666666667,4,1,1,5,0,0
122109,-66.6666666666667,4,2,1,80,0,0
122196,-66.6666666666667,4,1,1,5,0,0
122282,-66.6666666666667,4,2,1,80,0,0
122368,-66.6666666666667,4,1,1,5,0,0
122454,-66.6666666666667,4,2,1,80,0,0
122541,-66.6666666666667,4,1,1,5,0,0
122627,-66.6666666666667,4,2,1,80,0,0
122713,-66.6666666666667,4,1,1,5,0,0
122799,-66.6666666666667,4,2,1,80,0,0
122886,-66.6666666666667,4,1,1,5,0,0
122972,-66.6666666666667,4,2,1,80,0,0
123058,-66.6666666666667,4,1,1,5,0,0
123144,-66.6666666666667,4,2,1,80,0,0
123230,-66.6666666666667,4,1,1,5,0,0
123317,-66.6666666666667,4,2,1,80,0,0
123403,-66.6666666666667,4,1,1,5,0,0
123489,-66.6666666666667,4,2,1,80,0,0
123575,-66.6666666666667,4,1,1,5,0,0
123661,-66.6666666666667,4,2,1,80,0,0
123748,-66.6666666666667,4,1,1,5,0,0
123834,-66.6666666666667,4,2,1,85,0,0
126937,-40,4,2,1,90,0,1
127196,-40,4,2,1,5,0,1
127282,-50,4,2,1,90,0,1
127368,-50,4,2,1,5,0,1
127454,-50,4,2,1,90,0,1
128058,-50,4,2,1,5,0,1
128144,-50,4,2,1,80,0,1
128316,-40,4,2,1,90,0,1
128489,-40,4,2,1,80,0,1
128661,-50,4,2,1,90,0,1
129437,-50,4,2,1,5,0,1
129523,-50,4,2,1,80,0,1
129696,-40,4,2,1,90,0,1
129954,-40,4,2,1,5,0,1
130041,-50,4,2,1,90,0,1
130127,-50,4,2,1,5,0,1
130213,-50,4,2,1,90,0,1
130644,-50,4,2,1,5,0,1
130730,-50,4,2,1,90,0,1
130816,-50,4,2,1,5,0,1
130903,-50,4,2,1,80,0,1
131075,-40,4,2,1,90,0,1
131247,-40,4,2,1,80,0,1
131420,-50,4,2,1,90,0,1
132196,-50,4,2,1,5,0,1
132282,-50,4,2,1,80,0,1
132454,-40,4,2,1,90,0,1
132627,-40,4,2,1,80,0,1
132799,-50,4,2,1,90,0,1
133403,-50,4,2,1,5,0,1
133489,-100,4,2,1,90,0,1
133661,-100,4,2,1,80,0,1
133834,-40,4,2,1,90,0,1
134006,-40,4,2,1,80,0,1
134178,-50,4,2,1,90,0,1
134782,-50,4,2,1,5,0,1
134868,-100,4,2,1,90,0,1
135041,-100,4,2,1,80,0,1
135213,-40,4,2,1,90,0,1
135385,-40,4,2,1,80,0,1
135558,-50,4,2,1,90,0,1
137972,-40,4,2,1,90,0,1
138231,-40,4,2,1,5,0,1
138316,-50,4,2,1,90,0,1
138403,-50,4,2,1,5,0,1
138489,-50,4,2,1,90,0,1
139092,-50,4,2,1,5,0,1
139178,-50,4,2,1,80,0,1
139351,-40,4,2,1,90,0,1
139523,-40,4,2,1,80,0,1
139696,-50,4,2,1,90,0,1
140472,-50,4,2,1,5,0,1
140558,-50,4,2,1,80,0,1
140730,-40,4,2,1,90,0,1
140989,-40,4,2,1,5,0,1
141075,-50,4,2,1,90,0,1
141162,-50,4,2,1,5,0,1
141248,-50,4,2,1,90,0,1
141678,-50,4,2,1,80,0,1
141765,-50,4,2,1,90,0,1
141851,-50,4,2,1,5,0,1
141937,-50,4,2,1,80,0,1
142109,-40,4,2,1,90,0,1
142282,-40,4,2,1,80,0,1
142454,-50,4,2,1,90,0,1
143230,-50,4,2,1,5,0,1
143316,-50,4,2,1,80,0,1
143489,-40,4,2,1,90,0,1
143661,-40,4,2,1,80,0,1
143834,-50,4,2,1,90,0,1
144438,-50,4,2,1,5,0,1
144523,-100,4,2,1,90,0,1
144696,-100,4,2,1,80,0,1
144868,-40,4,2,1,90,0,1
145041,-40,4,2,1,80,0,1
145213,-50,4,2,1,90,0,1
145817,-50,4,2,1,5,0,1
145903,-100,4,2,1,90,0,1
146075,-100,4,2,1,80,0,1
146247,-40,4,2,1,90,0,1
146420,-40,4,2,1,80,0,1
146592,-50,4,2,1,90,0,1
148144,-50,4,2,1,80,0,1
149265,-50,4,2,1,5,0,1
149351,-50,4,2,1,80,0,1
149437,-50,4,2,1,5,0,1
149523,-50,4,2,1,80,0,1
149954,-50,4,2,1,5,0,1
150041,-50,4,2,1,80,0,1
150127,-50,4,2,1,5,0,1
150213,-50,4,2,1,80,0,1
150299,-50,4,2,1,5,0,1
150385,-50,4,2,1,80,0,1
150472,-50,4,2,1,5,0,1
150558,-50,4,2,1,80,0,1
150730,-50,4,2,1,80,0,1
150816,-50,4,2,1,5,0,1
150903,-50,4,2,1,80,0,1
151334,-50,4,2,1,5,0,1
151420,-50,4,2,1,80,0,1
151506,-50,4,2,1,5,0,1
151592,-50,4,2,1,80,0,1
151851,-50,4,2,1,5,0,1
151937,-50,4,2,1,80,0,1
152023,-50,4,2,1,5,0,1
152109,-50,4,2,1,80,0,1
152196,-50,4,2,1,5,0,1
152282,-50,4,2,1,80,0,1
152713,-50,4,2,1,5,0,1
152799,-50,4,2,1,80,0,1
152885,-50,4,2,1,5,0,1
152972,-50,4,2,1,80,0,1
153058,-50,4,2,1,5,0,1
153144,-50,4,2,1,80,0,1
153230,-50,4,2,1,5,0,1
153316,-50,4,2,1,80,0,1
153403,-50,4,2,1,5,0,1
153489,-50,4,2,1,80,0,1
153575,-50,4,2,1,5,0,1
153661,-50,4,2,1,80,0,1
154609,-50,4,2,1,5,0,1
154696,-50,4,2,1,80,0,1
154782,-50,4,2,1,5,0,1
154868,-50,4,2,1,80,0,1
154954,-50,4,2,1,5,0,1
155041,-50,4,2,1,80,0,1
155472,-50,4,2,1,5,0,1
155558,-50,4,2,1,80,0,1
155644,-50,4,2,1,5,0,1
155730,-50,4,2,1,80,0,1
155816,-50,4,2,1,5,0,1
155903,-50,4,2,1,80,0,1
156247,-50,4,2,1,80,0,1
156334,-50,4,2,1,5,0,1
156420,-50,4,2,1,80,0,1
156851,-50,4,2,1,5,0,1
156937,-50,4,2,1,80,0,1
157023,-50,4,2,1,5,0,1
157109,-50,4,2,1,80,0,1
157196,-50,4,2,1,5,0,1
157282,-50,4,2,1,80,0,1
157368,-50,4,2,1,5,0,1
157454,-50,4,2,1,80,0,1
157541,-50,4,2,1,5,0,1
157627,-50,4,2,1,80,0,1
157713,-50,4,2,1,5,0,1
157799,-50,4,2,1,80,0,1
158230,-50,4,2,1,5,0,1
158316,-50,4,2,1,80,0,1
158920,-50,4,2,1,5,0,1
159006,-50,4,2,1,80,0,1
160299,-50,4,2,1,5,0,1
160385,-50,4,2,1,80,0,1
160472,-50,4,2,1,5,0,1
160558,-50,4,2,1,80,0,1
160989,-50,4,2,1,5,0,1
161075,-50,4,2,1,80,0,1
161161,-50,4,2,1,5,0,1
161247,-50,4,2,1,80,0,1
161334,-50,4,2,1,5,0,1
161420,-50,4,2,1,80,0,1
161506,-50,4,2,1,5,0,1
161592,-50,4,2,1,80,0,1
161765,-50,4,2,1,80,0,1
161851,-50,4,2,1,5,0,1
161937,-50,4,2,1,80,0,1
162368,-50,4,2,1,5,0,1
162454,-50,4,2,1,80,0,1
162541,-50,4,2,1,5,0,1
162627,-50,4,2,1,80,0,1
162885,-50,4,2,1,5,0,1
162972,-50,4,2,1,80,0,1
163058,-50,4,2,1,5,0,1
163144,-50,4,2,1,80,0,1
163230,-50,4,2,1,5,0,1
163316,-50,4,2,1,80,0,1
163747,-50,4,2,1,5,0,1
163834,-50,4,2,1,80,0,1
163920,-50,4,2,1,5,0,1
164006,-50,4,2,1,80,0,1
164092,-50,4,2,1,5,0,1
164178,-50,4,2,1,80,0,1
164265,-50,4,2,1,5,0,1
164351,-50,4,2,1,80,0,1
164437,-50,4,2,1,5,0,1
164523,-50,4,2,1,80,0,1
164609,-50,4,2,1,5,0,1
164696,-50,4,2,1,80,0,1
165127,-50,4,2,1,5,0,1
165213,-50,4,2,1,80,0,1
165472,-50,4,2,1,5,0,1
165558,-50,4,2,1,80,0,1
165816,-50,4,2,1,5,0,1
165903,-50,4,2,1,80,0,1
165989,-50,4,2,1,5,0,1
166075,-50,4,2,1,80,0,1
166506,-50,4,2,1,5,0,1
166592,-50,4,2,1,80,0,1
166678,-50,4,2,1,5,0,1
166765,-50,4,2,1,80,0,1
166851,-50,4,2,1,5,0,1
166937,-50,4,2,1,80,0,1
167196,-50,4,2,1,80,0,1
167282,-50,4,2,1,80,0,1
167368,-50,4,2,1,5,0,1
167454,-50,4,2,1,80,0,1
167885,-50,4,2,1,5,0,1
167972,-50,4,2,1,80,0,1
168058,-50,4,2,1,5,0,1
168144,-50,4,2,1,80,0,1
168230,-50,4,2,1,5,0,1
168316,-50,4,2,1,80,0,1
168403,-50,4,2,1,5,0,1
168489,-50,4,2,1,80,0,1
168575,-50,4,2,1,5,0,1
168661,-50,4,2,1,80,0,1
168747,-50,4,2,1,5,0,1
168834,-50,4,2,1,80,0,1
169265,-50,4,2,1,5,0,1
169351,-50,4,2,1,80,0,1
169523,-133.333333333333,4,2,1,45,0,0

[Colours]
Combo1 : 94,120,227
Combo2 : 250,154,107
Combo3 : 235,133,133
Combo4 : 234,210,115

[HitObjects]
19,49,11075,5,0,0:0:0:0:
19,49,11247,1,0,0:0:0:0:
19,49,11420,1,0,0:0:0:0:
19,49,11592,1,0,0:0:0:0:
19,49,11765,1,0,0:0:0:0:
19,49,11937,1,0,0:0:0:0:
19,49,12109,1,0,0:0:0:0:
19,49,12282,1,0,0:0:0:0:
19,49,12454,2,0,L|27:-2,1,37.5,2|0,0:0|0:0,0:0:0:0:
24,11,12799,2,0,L|19:49,1,37.5,2|0,0:0|0:0,0:0:0:0:
19,49,13144,2,0,L|24:11,1,37.5,2|0,0:0|0:0,0:0:0:0:
24,11,13489,2,0,L|19:49,1,37.5,2|0,0:0|0:0,0:0:0:0:
124,128,13834,5,0,0:0:0:0:
124,128,14006,1,0,0:0:0:0:
124,128,14179,1,0,0:0:0:0:
124,128,14351,1,0,0:0:0:0:
124,128,14524,1,0,0:0:0:0:
124,128,14696,1,0,0:0:0:0:
124,128,14868,1,0,0:0:0:0:
124,128,15041,1,0,0:0:0:0:
124,128,15213,2,0,L|175:119,1,37.5,2|0,0:0|0:0,0:0:0:0:
161,122,15558,2,0,L|124:128,1,37.5,2|0,0:0|0:0,0:0:0:0:
124,128,15903,2,0,L|161:122,1,37.5,2|0,0:0|0:0,0:0:0:0:
161,122,16248,2,0,L|124:128,1,37.5,2|0,0:0|0:0,0:0:0:0:
302,3,16592,5,0,0:0:0:0:
302,3,16764,1,0,0:0:0:0:
302,3,16937,1,0,0:0:0:0:
302,3,17109,1,0,0:0:0:0:
302,3,17282,1,0,0:0:0:0:
302,3,17454,1,0,0:0:0:0:
302,3,17626,1,0,0:0:0:0:
302,3,17799,1,0,0:0:0:0:
302,3,17972,2,0,L|310:54,1,37.5,2|0,0:0|0:0,0:0:0:0:
302,3,18316,2,0,L|310:54,1,37.5,2|0,0:0|0:0,0:0:0:0:
302,3,18661,2,0,L|310:54,1,37.5,2|0,0:0|0:0,0:0:0:0:
302,3,19006,2,0,L|310:54,1,37.5,2|0,0:0|0:0,0:0:0:0:
512,116,19351,5,0,0:0:0:0:
512,116,19523,1,0,0:0:0:0:
512,116,19696,1,0,0:0:0:0:
512,116,19868,1,0,0:0:0:0:
512,116,20041,1,0,0:0:0:0:
512,116,20213,1,0,0:0:0:0:
512,116,20385,1,0,0:0:0:0:
512,116,20558,1,0,0:0:0:0:
512,116,20730,2,0,L|460:107,1,37.5,2|0,0:0|0:0,0:0:0:0:
512,116,21075,2,0,L|460:107,1,37.5,2|0,0:0|0:0,0:0:0:0:
512,116,21420,2,0,L|460:107,1,37.5,2|0,0:0|0:0,0:0:0:0:
512,116,21765,2,0,L|460:107,1,37.5,2|0,0:0|0:0,0:0:0:0:
310,186,22109,5,0,0:0:0:0:
310,186,22281,1,0,0:0:0:0:
310,186,22454,1,0,0:0:0:0:
310,186,22626,1,0,0:0:0:0:
310,186,22799,1,0,0:0:0:0:
310,186,22971,1,0,0:0:0:0:
310,186,23143,1,0,0:0:0:0:
310,186,23316,1,0,0:0:0:0:
310,186,23488,2,0,L|361:177,1,37.5,2|0,0:0|0:0,0:0:0:0:
347,181,23834,2,0,L|309:186,1,37.5,2|0,0:0|0:0,0:0:0:0:
310,186,24178,2,0,L|347:180,1,37.5,2|0,0:0|0:0,0:0:0:0:
347,181,24523,2,0,L|309:186,1,37.5,2|0,0:0|0:0,0:0:0:0:
221,54,24868,5,0,0:0:0:0:
221,54,25040,1,0,0:0:0:0:
221,54,25213,1,0,0:0:0:0:
221,54,25385,1,0,0:0:0:0:
221,54,25558,1,0,0:0:0:0:
221,54,25730,1,0,0:0:0:0:
221,54,25902,1,0,0:0:0:0:
221,54,26075,1,0,0:0:0:0:
221,54,26247,2,0,L|229:2,1,37.5,2|0,0:0|0:0,0:0:0:0:
226,16,26592,2,0,L|221:54,1,37.5,2|0,0:0|0:0,0:0:0:0:
221,54,26937,2,0,L|226:16,1,37.5,2|0,0:0|0:0,0:0:0:0:
226,16,27282,2,0,L|221:54,1,37.5,2|0,0:0|0:0,0:0:0:0:
78,201,27627,5,0,0:0:0:0:
78,201,27799,1,0,0:0:0:0:
78,201,27972,1,0,0:0:0:0:
78,201,28144,1,0,0:0:0:0:
78,201,28317,1,0,0:0:0:0:
78,201,28489,1,0,0:0:0:0:
78,201,28661,1,0,0:0:0:0:
78,201,28834,1,0,0:0:0:0:
78,201,29006,2,0,L|69:149,1,37.5,2|0,0:0|0:0,0:0:0:0:
78,201,29351,2,0,L|69:149,1,37.5,2|0,0:0|0:0,0:0:0:0:
78,201,29696,2,0,L|69:149,1,37.5,2|0,0:0|0:0,0:0:0:0:
78,201,30041,2,0,L|69:149,1,37.5,2|0,0:0|0:0,0:0:0:0:
0,0,30385,5,0,0:0:0:0:
0,0,30557,1,0,0:0:0:0:
0,0,30730,1,0,0:0:0:0:
0,0,30902,1,0,0:0:0:0:
0,0,31075,1,0,0:0:0:0:
0,0,31247,1,0,0:0:0:0:
0,0,31419,1,0,0:0:0:0:
0,0,31592,1,0,0:0:0:0:
0,0,31764,2,0,L|51:8,1,37.5,2|0,0:0|0:0,0:0:0:0:
0,0,32109,2,0,L|51:8,1,37.5,2|0,0:0|0:0,0:0:0:0:
0,0,32454,2,0,L|51:8,1,37.5,2|0,0:0|0:0,0:0:0:0:
0,0,32799,2,0,L|51:8,1,37.5,2|0,0:0|0:0,0:0:0:0:
254,41,33144,5,0,0:0:0:0:
253,45,33317,1,0,0:0:0:0:
252,49,33489,1,0,0:0:0:0:
252,53,33661,1,0,0:0:0:0:
251,57,33834,1,0,0:0:0:0:
250,61,34006,1,0,0:0:0:0:
250,65,34179,1,0,0:0:0:0:
249,69,34351,1,0,0:0:0:0:
282,141,34523,2,0,L|275:177,1,37.5,2|0,0:0|0:0,0:0:0:0:
275,177,34868,2,0,L|282:141,1,37.5,2|0,0:0|0:0,0:0:0:0:
282,141,35213,2,0,L|275:177,1,37.5,2|0,0:0|0:0,0:0:0:0:
275,177,35558,2,0,L|282:141,1,37.5,2|0,0:0|0:0,0:0:0:0:
201,232,35903,5,0,0:0:0:0:
202,236,36076,1,0,0:0:0:0:
203,240,36248,1,0,0:0:0:0:
203,244,36420,1,0,0:0:0:0:
204,248,36593,1,0,0:0:0:0:
205,252,36765,1,0,0:0:0:0:
205,256,36938,1,0,0:0:0:0:
206,260,37110,1,0,0:0:0:0:
172,332,37282,2,0,L|178:368,1,37.5,2|0,0:0|0:0,0:0:0:0:
178,368,37627,2,0,L|172:332,1,37.5,2|0,0:0|0:0,0:0:0:0:
172,332,37972,2,0,L|178:368,1,37.5,2|0,0:0|0:0,0:0:0:0:
178,368,38317,2,0,L|172:332,1,37.5,2|0,0:0|0:0,0:0:0:0:
446,295,38661,5,0,0:0:0:0:
442,296,38834,1,0,0:0:0:0:
438,297,39006,1,0,0:0:0:0:
434,297,39178,1,0,0:0:0:0:
430,298,39351,1,0,0:0:0:0:
426,299,39523,1,0,0:0:0:0:
422,299,39696,1,0,0:0:0:0:
418,300,39868,1,0,0:0:0:0:
346,267,40040,2,0,L|309:273,1,37.5,2|0,0:0|0:0,0:0:0:0:
346,267,40385,2,0,L|309:273,1,37.5,2|0,0:0|0:0,0:0:0:0:
346,267,40730,2,0,L|309:273,1,37.5,2|0,0:0|0:0,0:0:0:0:
346,267,41075,2,0,L|309:273,1,37.5,2|0,0:0|0:0,0:0:0:0:
167,201,41420,5,0,0:0:0:0:
163,200,41593,1,0,0:0:0:0:
159,199,41765,1,0,0:0:0:0:
155,199,41937,1,0,0:0:0:0:
151,198,42110,1,0,0:0:0:0:
147,197,42282,1,0,0:0:0:0:
143,197,42455,1,0,0:0:0:0:
139,196,42627,1,0,0:0:0:0:
67,229,42799,2,0,L|30:222,1,37.5,2|0,0:0|0:0,0:0:0:0:
67,229,43144,2,0,L|30:222,1,37.5,2|0,0:0|0:0,0:0:0:0:
67,229,43489,2,0,L|30:222,1,37.5,2|0,0:0|0:0,0:0:0:0:
67,229,43834,2,0,L|30:222,1,37.5,2|0,0:0|0:0,0:0:0:0:
82,18,44178,5,0,0:0:0:0:
90,19,44350,1,0,0:0:0:0:
95,15,44523,1,0,0:0:0:0:
97,8,44696,1,0,0:0:0:0:
93,2,44867,1,0,0:0:0:0:
86,0,45040,1,0,0:0:0:0:
80,4,45212,1,0,0:0:0:0:
78,11,45385,1,0,0:0:0:0:
142,77,45558,2,0,L|188:84,1,37.5,2|0,0:0|0:0,0:0:0:0:
179,82,45903,2,0,L|142:77,1,37.5,2|0,0:0|0:0,0:0:0:0:
249,42,46247,2,0,L|287:37,1,37.5,2|0,0:0|0:0,0:0:0:0:
286,37,46592,2,0,L|248:42,1,37.5,2|0,0:0|0:0,0:0:0:0:
440,163,46937,5,0,0:0:0:0:
438,175,47109,1,0,0:0:0:0:
445,185,47282,1,0,0:0:0:0:
456,188,47453,1,0,0:0:0:0:
466,181,47626,1,0,0:0:0:0:
470,169,47799,1,0,0:0:0:0:
463,159,47971,1,0,0:0:0:0:
451,156,48144,1,0,0:0:0:0:
388,241,48317,2,0,L|341:248,1,37.5,2|0,0:0|0:0,0:0:0:0:
350,246,48662,2,0,L|387:240,1,37.5,2|0,0:0|0:0,0:0:0:0:
284,197,49006,2,0,L|237:204,1,37.5,2|0,0:0|0:0,0:0:0:0:
246,202,49351,2,0,L|283:196,1,37.5,2|0,0:0|0:0,0:0:0:0:
144,314,49696,5,0,0:0:0:0:
149,338,49868,1,0,0:0:0:0:
136,359,50041,1,0,0:0:0:0:
113,365,50212,1,0,0:0:0:0:
92,352,50385,1,0,0:0:0:0:
86,328,50558,1,0,0:0:0:0:
99,307,50730,1,0,0:0:0:0:
123,302,50903,1,0,0:0:0:0:
229,232,51076,2,0,L|221:278,1,37.5,2|0,0:0|0:0,0:0:0:0:
299,284,51420,2,0,L|305:243,1,41.2500012588501,2|0,0:0|0:0,0:0:0:0:
144,162,51765,2,0,L|150:208,1,44.999998626709,2|0,0:0|0:0,0:0:0:0:
71,218,52109,2,0,L|63:171,1,48.7499977684022,2|0,0:0|0:0,0:0:0:0:
371,32,52454,5,0,0:0:0:0:
426,18,52627,1,0,0:0:0:0:
474,48,52799,1,0,0:0:0:0:
487,102,52972,1,0,0:0:0:0:
458,150,53144,1,0,0:0:0:0:
403,164,53316,1,0,0:0:0:0:
355,134,53489,1,0,0:0:0:0:
342,79,53661,1,0,0:0:0:0:
240,13,53834,2,0,L|232:64,1,52.4999983978272,2|0,0:0|0:0,0:0:0:0:
153,55,54178,2,0,L|161:0,1,56.2500021457673,2|0,0:0|0:0,0:0:0:0:
6,110,54523,2,0,L|17:171,1,60,2|0,0:0|0:0,0:0:0:0:
92,155,54868,2,0,L|79:89,1,63.7500012159348,2|0,0:0|0:0,0:0:0:0:
68,229,55213,5,0,0:0:0:0:
68,229,56075,5,2,0:0:0:0:
151,219,56247,1,2,0:0:0:0:
172,298,56420,1,2,0:0:0:0:
172,298,57454,1,2,0:0:0:0:
151,219,57627,1,2,0:0:0:0:
68,229,57799,1,2,0:0:0:0:
68,229,58834,1,2,0:0:0:0:
151,219,59006,1,2,0:0:0:0:
172,298,59179,1,2,0:0:0:0:
172,298,60213,1,2,0:0:0:0:
151,219,60386,1,2,0:0:0:0:
68,229,60558,1,2,0:0:0:0:
68,229,61592,5,0,0:0:0:0:
79,154,61765,1,2,0:0:0:0:
217,382,62109,1,0,0:0:0:0:
217,382,62972,1,0,0:0:0:0:
228,307,63145,1,2,0:0:0:0:
68,229,63489,1,0,0:0:0:0:
68,229,64351,1,0,0:0:0:0:
79,154,64524,1,2,0:0:0:0:
217,382,64868,1,0,0:0:0:0:
217,382,65730,1,0,0:0:0:0:
228,307,65903,1,2,0:0:0:0:
68,229,66247,1,0,0:0:0:0:
68,229,67109,5,2,0:0:0:0:
147,208,67282,1,2,0:0:0:0:
137,125,67454,1,2,0:0:0:0:
137,125,68489,1,2,0:0:0:0:
147,208,68661,1,2,0:0:0:0:
68,229,68834,1,2,0:0:0:0:
68,229,69868,1,2,0:0:0:0:
147,208,70041,1,2,0:0:0:0:
137,125,70213,1,2,0:0:0:0:
137,125,71247,1,2,0:0:0:0:
147,208,71419,1,2,0:0:0:0:
68,229,71592,1,2,0:0:0:0:
68,229,72627,5,0,0:0:0:0:
57,154,72800,1,2,0:0:0:0:
214,0,73144,1,0,0:0:0:0:
214,0,74006,1,0,0:0:0:0:
225,75,74179,1,2,0:0:0:0:
57,154,74523,1,0,0:0:0:0:
57,154,75385,1,0,0:0:0:0:
68,229,75558,1,2,0:0:0:0:
225,75,75902,1,0,0:0:0:0:
225,75,76765,1,0,0:0:0:0:
214,0,76938,1,2,0:0:0:0:
57,154,77282,6,0,L|51:195,1,37.5,2|0,0:0|0:0,0:0:0:0:
100,363,77799,2,0,L|104:325,1,37.5,2|0,0:0|0:0,0:0:0:0:
111,368,78144,2,0,L|116:320,1,44.999998626709,2|0,0:0|0:0,0:0:0:0:
198,226,78489,2,0,L|191:278,1,52.4999983978272,2|0,0:0|0:0,0:0:0:0:
211,223,78834,2,0,L|201:298,1,60,2|0,0:0|0:0,0:0:0:0:
255,350,79178,1,2,0:0:0:0:
285,365,79351,1,2,0:0:0:0:
358,345,79523,1,2,0:0:0:0:
387,232,79696,1,2,0:0:0:0:
397,256,80041,5,2,0:0:0:0:
367,222,80213,1,0,0:0:0:0:
410,232,80385,1,0,0:0:0:0:
369,248,80558,1,0,0:0:0:0:
391,211,80730,1,0,0:0:0:0:
397,256,80903,1,0,0:0:0:0:
452,309,81075,1,0,0:0:0:0:
507,227,81247,1,2,0:0:0:0:
507,227,81592,5,0,0:0:0:0:
444,179,81765,1,0,0:0:0:0:
371,207,81937,1,0,0:0:0:0:
297,277,82109,1,2,0:0:0:0:
176,309,82282,1,0,0:0:0:0:
51,236,82454,1,2,0:0:0:0:
51,236,82799,5,2,0:0:0:0:
52,232,82972,1,0,0:0:0:0:
53,228,83144,1,0,0:0:0:0:
53,224,83316,1,0,0:0:0:0:
54,220,83489,1,0,0:0:0:0:
55,216,83661,1,0,0:0:0:0:
116,174,83834,1,0,0:0:0:0:
14,137,84006,1,2,0:0:0:0:
14,137,84351,5,0,0:0:0:0:
116,174,84523,1,0,0:0:0:0:
14,137,84696,1,0,0:0:0:0:
179,119,84868,1,0,0:0:0:0:
14,137,85041,1,0,0:0:0:0:
146,44,85213,1,0,0:0:0:0:
146,44,85558,5,2,0:0:0:0:
147,48,85730,1,0,0:0:0:0:
148,52,85903,1,0,0:0:0:0:
148,56,86075,1,0,0:0:0:0:
149,60,86247,1,0,0:0:0:0:
150,64,86420,1,0,0:0:0:0:
198,127,86592,1,0,0:0:0:0:
241,22,86764,1,2,0:0:0:0:
241,22,87109,5,0,0:0:0:0:
242,42,87282,1,0,0:0:0:0:
273,115,87454,1,0,0:0:0:0:
354,160,87627,1,2,0:0:0:0:
471,126,87799,1,0,0:0:0:0:
502,7,87972,1,0,0:0:0:0:
353,23,88316,6,0,L|344:85,1,60,2|0,0:0|0:0,0:0:0:0:
455,189,88834,2,0,L|461:126,1,63.7500012159348,2|0,0:0|0:0,0:0:0:0:
466,192,89178,2,0,L|473:115,1,67.4999979400635,2|0,0:0|0:0,0:0:0:0:
323,249,89523,2,0,L|311:338,1,75,2|0,0:0|0:0,0:0:0:0:
335,248,89868,2,0,L|324:330,1,78.7499975967408,2|0,0:0|0:0,0:0:0:0:
396,367,90213,1,2,0:0:0:0:
428,300,90386,1,2,0:0:0:0:
383,181,90558,1,2,0:0:0:0:
236,186,90731,1,2,0:0:0:0:
246,166,91075,5,2,0:0:0:0:
216,200,91247,1,0,0:0:0:0:
259,190,91419,1,0,0:0:0:0:
218,174,91592,1,0,0:0:0:0:
240,211,91764,1,0,0:0:0:0:
246,166,91937,1,0,0:0:0:0:
208,92,92109,1,0,0:0:0:0:
98,173,92281,1,2,0:0:0:0:
98,173,92627,5,0,0:0:0:0:
161,221,92800,1,0,0:0:0:0:
249,185,92972,1,0,0:0:0:0:
320,106,93144,1,2,0:0:0:0:
461,94,93317,1,0,0:0:0:0:
512,233,93489,1,2,0:0:0:0:
512,233,93834,5,2,0:0:0:0:
493,238,94007,1,0,0:0:0:0:
474,243,94179,1,0,0:0:0:0:
459,247,94351,1,0,0:0:0:0:
440,252,94524,1,0,0:0:0:0:
421,257,94696,1,0,0:0:0:0:
357,216,94869,1,0,0:0:0:0:
309,315,95041,1,2,0:0:0:0:
309,315,95385,5,0,0:0:0:0:
281,239,95558,1,0,0:0:0:0:
233,356,95730,1,0,0:0:0:0:
178,209,95903,1,0,0:0:0:0:
86,378,96075,1,0,0:0:0:0:
0,165,96247,1,0,0:0:0:0:
0,165,96592,5,2,0:0:0:0:
19,160,96765,1,0,0:0:0:0:
38,155,96937,1,0,0:0:0:0:
53,151,97109,1,0,0:0:0:0:
72,146,97282,1,0,0:0:0:0:
91,141,97454,1,0,0:0:0:0:
155,182,97627,1,0,0:0:0:0:
203,83,97799,1,2,0:0:0:0:
203,83,98144,5,0,0:0:0:0:
236,155,98316,1,0,0:0:0:0:
309,139,98489,1,0,0:0:0:0:
331,84,98661,1,2,0:0:0:0:
365,65,98834,1,0,0:0:0:0:
389,76,99006,1,0,0:0:0:0:
2,4,99351,5,0,0:0:0:0:
2,80,104868,6,0,B|29:55|29:55|63:72,1,75,0|0,3:0|0:0,0:0:0:0:
220,201,105041,2,0,B|192:225|192:225|158:208,1,75,0|0,3:0|0:0,0:0:0:0:
0,72,105213,2,0,B|27:47|27:47|61:64,1,75,0|0,3:0|0:0,0:0:0:0:
221,211,105385,2,0,B|193:235|193:235|159:218,1,75,0|0,3:0|0:0,0:0:0:0:
179,28,105558,6,0,B|203:55|203:55|186:89,1,75,0|0,3:0|0:0,0:0:0:0:
58,246,105731,2,0,B|33:218|33:218|50:184,1,75,0|0,3:0|0:0,0:0:0:0:
187,26,105903,2,0,B|211:53|211:53|194:87,1,75,0|0,3:0|0:0,0:0:0:0:
48,247,106075,2,0,B|23:219|23:219|40:185,1,75,0|0,3:0|0:0,0:0:0:0:
332,129,106247,6,0,L|426:141,1,75,0|0,3:0|0:0,0:0:0:0:
185,329,106420,2,0,L|279:317,1,75,0|0,3:0|0:0,0:0:0:0:
332,120,106592,2,0,L|426:132,1,75,0|0,3:0|0:0,0:0:0:0:
187,338,106765,2,0,L|281:326,1,75,0|0,3:0|0:0,0:0:0:0:
235,137,106937,6,0,L|247:43,1,75,0|0,3:0|0:0,0:0:0:0:
440,342,107110,2,0,L|428:248,1,75,0|0,3:0|0:0,0:0:0:0:
226,137,107282,2,0,L|238:43,1,75,0|0,3:0|0:0,0:0:0:0:
449,340,107455,2,0,L|437:246,1,75,0|0,3:0|0:0,0:0:0:0:
24,26,107627,6,0,B|42:60|42:60|72:34,1,75,0|0,3:0|0:0,0:0:0:0:
270,216,107799,2,0,B|252:250|252:250|222:224,1,75,0|0,3:0|0:0,0:0:0:0:
22,35,107972,2,0,B|40:69|40:69|70:43,1,75,0|0,3:0|0:0,0:0:0:0:
272,226,108144,2,0,B|254:260|254:260|224:234,1,75,0|0,3:0|0:0,0:0:0:0:
1,206,108316,6,0,B|19:172|19:172|49:198,1,75,0|0,3:0|0:0,0:0:0:0:
291,127,108489,2,0,B|273:93|273:93|243:119,1,75,0|0,3:0|0:0,0:0:0:0:
0,196,108661,2,0,B|18:162|18:162|48:188,1,75,0|0,3:0|0:0,0:0:0:0:
293,117,108833,2,0,B|275:83|275:83|245:109,1,75,0|0,3:0|0:0,0:0:0:0:
166,300,109006,6,0,B|172:341|172:341|170:346|170:346|175:382,1,75,0|0,3:0|0:0,0:0:0:0:
389,194,109178,2,0,B|395:235|395:235|393:240|393:240|398:276,1,75,0|0,3:0|0:0,0:0:0:0:
158,301,109351,2,0,B|164:342|164:342|162:347|162:347|167:383,1,75,0|0,3:0|0:0,0:0:0:0:
397,194,109523,2,0,B|403:235|403:235|401:240|401:240|406:276,1,75,0|0,3:0|0:0,0:0:0:0:
123,79,109696,6,0,B|117:120|117:120|119:125|119:125|114:161,1,75,0|0,3:0|0:0,0:0:0:0:
294,254,109868,2,0,B|288:295|288:295|290:300|290:300|285:336,1,75,0|0,3:0|0:0,0:0:0:0:
131,80,110041,2,0,B|125:121|125:121|127:126|127:126|122:162,1,75,0|0,3:0|0:0,0:0:0:0:
286,254,110213,2,0,B|280:295|280:295|282:300|282:300|277:336,1,75,0|0,3:0|0:0,0:0:0:0:
440,75,110385,6,0,P|468:69|498:66,1,56.2500021457673,0|0,3:0|0:0,0:0:0:0:
438,67,110558,2,0,P|466:61|496:58,1,56.2500021457673,0|0,3:0|0:0,0:0:0:0:
437,60,110730,2,0,P|465:54|495:51,1,56.2500021457673,0|0,3:0|0:0,0:0:0:0:
436,53,110903,2,0,P|464:47|494:44,1,56.2500021457673,0|0,3:0|0:0,0:0:0:0:
265,30,111075,6,0,P|237:24|207:21,1,56.2500021457673,0|0,3:0|0:0,0:0:0:0:
211,14,111248,2,0,P|238:16|266:22,1,56.2500021457673,0|0,3:0|0:0,0:0:0:0:
270,16,111420,2,0,P|242:10|214:7,1,56.2500021457673,0|0,3:0|0:0,0:0:0:0:
213,0,111593,2,0,P|240:2|268:8,1,56.2500021457673,0|0,3:0|0:0,0:0:0:0:
71,174,111765,6,0,P|102:176|131:147,1,56.2500021457673,0|0,3:0|0:0,0:0:0:0:
72,182,111937,2,0,P|100:185|124:171,1,56.2500021457673,0|0,3:0|0:0,0:0:0:0:
75,189,112109,2,0,P|103:192|127:178,1,56.2500021457673,0|0,3:0|0:0,0:0:0:0:
77,197,112282,2,0,P|105:200|129:186,1,56.2500021457673,0|0,3:0|0:0,0:0:0:0:
353,145,112454,6,0,P|322:147|293:118,1,56.2500021457673,0|0,3:0|0:0,0:0:0:0:
299,141,112626,2,0,P|323:156|351:153,1,56.2500021457673,0|0,3:0|0:0,0:0:0:0:
348,161,112798,2,0,P|320:163|296:149,1,56.2500021457673,0|0,3:0|0:0,0:0:0:0:
294,156,112971,2,0,P|318:171|346:168,1,56.2500021457673,0|0,3:0|0:0,0:0:0:0:
421,336,113144,6,0,P|432:301|443:268,1,56.2500021457673,0|0,3:0|0:0,0:0:0:0:
428,338,113316,2,0,P|437:311|445:285,1,56.2500021457673,0|0,3:0|0:0,0:0:0:0:
434,341,113489,2,0,P|443:314|451:288,1,56.2500021457673,0|0,3:0|0:0,0:0:0:0:
440,345,113661,2,0,P|449:318|459:292,1,56.2500021457673,0|0,3:0|0:0,0:0:0:0:
247,364,113834,6,0,P|235:329|225:296,1,56.2500021457673,0|0,3:0|0:0,0:0:0:0:
222,313,114006,2,0,P|230:339|239:366,1,56.2500021457673,0|0,3:0|0:0,0:0:0:0:
233,369,114179,2,0,P|223:342|215:315,1,56.2500021457673,0|0,3:0|0:0,0:0:0:0:
209,320,114351,2,0,P|217:346|226:373,1,56.2500021457673,0|0,3:0|0:0,0:0:0:0:
310,150,114523,6,0,P|327:175|376:183,1,56.2500021457673,0|0,3:0|0:0,0:0:0:0:
303,156,114696,2,0,P|318:180|344:192,1,56.2500021457673,0|0,3:0|0:0,0:0:0:0:
298,165,114868,2,0,P|313:188|338:200,1,56.2500021457673,0|0,3:0|0:0,0:0:0:0:
291,170,115041,2,0,P|306:194|332:206,1,56.2500021457673,0|0,3:0|0:0,0:0:0:0:
92,68,115213,6,0,P|75:93|26:101,1,56.2500021457673,0|0,3:0|0:0,0:0:0:0:
58,110,115386,2,0,P|83:98|98:75,1,56.2500021457673,0|0,3:0|0:0,0:0:0:0:
104,83,115558,2,0,P|88:106|63:118,1,56.2500021457673,0|0,3:0|0:0,0:0:0:0:
70,123,115731,2,0,P|95:111|110:88,1,56.2500021457673,0|0,3:0|0:0,0:0:0:0:
141,288,115903,6,0,B|196:301|196:301|213:288,1,75,4|0,3:0|0:0,0:0:0:0:
442,158,116075,2,0,B|497:145|497:145|514:158,1,75,4|0,3:0|0:0,0:0:0:0:
143,297,116247,2,0,B|198:310|198:310|215:297,1,75,4|0,3:0|0:0,0:0:0:0:
443,150,116420,2,0,B|498:137|498:137|515:150,1,75,4|0,3:0|0:0,0:0:0:0:
402,376,116592,6,0,B|389:321|389:321|402:304,1,75,4|0,3:0|0:0,0:0:0:0:
265,128,116764,2,0,B|278:73|278:73|265:56,1,75,4|0,3:0|0:0,0:0:0:0:
393,374,116936,2,0,B|380:319|380:319|393:302,1,75,4|0,3:0|0:0,0:0:0:0:
273,127,117109,2,0,B|286:72|286:72|273:55,1,75,4|0,3:0|0:0,0:0:0:0:
0,105,117282,6,0,L|80:119,1,75,4|0,3:0|0:0,0:0:0:0:
358,238,117454,2,0,L|278:252,1,75,4|0,3:0|0:0,0:0:0:0:
2,97,117627,2,0,L|82:111,1,75,4|0,3:0|0:0,0:0:0:0:
361,246,117799,2,0,L|281:260,1,75,4|0,3:0|0:0,0:0:0:0:
103,367,117972,6,0,L|117:287,1,75,4|0,3:0|0:0,0:0:0:0:
251,23,118144,2,0,L|265:103,1,75,4|0,3:0|0:0,0:0:0:0:
95,365,118317,2,0,L|109:285,1,75,4|0,3:0|0:0,0:0:0:0:
259,20,118489,2,0,L|273:100,1,75,4|0,3:0|0:0,0:0:0:0:
477,274,118661,6,0,B|496:239|496:239|483:198,1,75,4|0,3:0|0:0,0:0:0:0:
192,165,118834,2,0,B|173:200|173:200|186:241,1,75,4|0,3:0|0:0,0:0:0:0:
486,275,119006,2,0,B|505:240|505:240|492:199,1,75,4|0,3:0|0:0,0:0:0:0:
183,162,119178,2,0,B|164:197|164:197|177:238,1,75,4|0,3:0|0:0,0:0:0:0:
343,11,119351,6,0,B|362:46|362:46|349:87,1,75,4|0,3:0|0:0,0:0:0:0:
58,120,119523,2,0,B|39:85|39:85|52:44,1,75,4|0,3:0|0:0,0:0:0:0:
352,8,119696,2,0,B|371:43|371:43|358:84,1,75,4|0,3:0|0:0,0:0:0:0:
49,121,119868,2,0,B|30:86|30:86|43:45,1,75,4|0,3:0|0:0,0:0:0:0:
317,178,120041,6,0,L|416:197,1,75,4|0,3:0|0:0,0:0:0:0:
73,268,120213,2,0,L|-26:287,1,75,4|0,3:0|0:0,0:0:0:0:
319,171,120385,2,0,L|418:190,1,75,4|0,3:0|0:0,0:0:0:0:
75,275,120558,2,0,L|-24:294,1,75,4|0,3:0|0:0,0:0:0:0:
236,108,120731,6,0,L|217:9,1,75,4|0,3:0|0:0,0:0:0:0:
165,306,120902,2,0,L|184:405,1,75,4|0,3:0|0:0,0:0:0:0:
243,106,121075,2,0,L|224:7,1,75,4|0,3:0|0:0,0:0:0:0:
172,304,121247,2,0,L|191:403,1,75,4|0,3:0|0:0,0:0:0:0:
424,263,121420,6,0,P|451:260|475:246,1,56.2500021457673,4|0,3:0|0:0,0:0:0:0:
421,256,121592,2,0,P|448:253|472:239,1,56.2500021457673,4|0,3:0|0:0,0:0:0:0:
418,249,121765,2,0,P|445:246|469:232,1,56.2500021457673,4|0,3:0|0:0,0:0:0:0:
415,242,121937,2,0,P|442:239|466:225,1,56.2500021457673,4|0,3:0|0:0,0:0:0:0:
244,179,122109,6,0,P|216:176|193:162,1,56.2500021457673,4|0,3:0|0:0,0:0:0:0:
195,154,122281,2,0,P|218:168|246:171,1,56.2500021457673,4|0,3:0|0:0,0:0:0:0:
250,165,122454,2,0,P|222:162|199:148,1,56.2500021457673,4|0,3:0|0:0,0:0:0:0:
201,140,122626,2,0,P|224:154|252:157,1,56.2500021457673,4|0,3:0|0:0,0:0:0:0:
452,35,122799,6,0,P|456:67|463:106,1,56.2500021457673,4|0,3:0|0:0,0:0:0:0:
459,34,122972,2,0,P|463:66|470:105,1,56.2500021457673,4|0,3:0|0:0,0:0:0:0:
466,33,123144,2,0,P|470:65|477:104,1,56.2500021457673,4|0,3:0|0:0,0:0:0:0:
473,32,123316,2,0,P|477:64|484:103,1,56.2500021457673,4|0,3:0|0:0,0:0:0:0:
261,58,123489,6,0,P|265:30|268:2,1,56.2500021457673,4|0,3:0|0:0,0:0:0:0:
261,1,123662,2,0,P|257:33|250:72,1,56.2500021457673,4|0,3:0|0:0,0:0:0:0:
129,274,123834,5,8,0:0:0:0:
61,225,123920,1,8,0:0:0:0:
51,170,124006,1,8,0:0:0:0:
78,139,124092,1,8,0:0:0:0:
102,130,124178,1,8,0:0:0:0:
118,140,124265,1,8,0:0:0:0:
115,131,124351,1,0,3:0:0:0:
112,123,124437,1,0,3:0:0:0:
110,117,124523,2,0,L|90:61,1,56.2500021457673,0|0,3:0|3:0,0:0:0:0:
270,251,124696,5,8,0:0:0:0:
199,228,124783,1,8,0:0:0:0:
202,219,124869,1,0,3:0:0:0:
205,211,124955,1,0,3:0:0:0:
207,205,125041,2,0,L|227:149,1,56.2500021457673,0|0,3:0|3:0,0:0:0:0:
128,299,125213,5,8,0:0:0:0:
105,228,125300,1,8,0:0:0:0:
96,231,125386,1,0,3:0:0:0:
88,234,125472,1,0,3:0:0:0:
82,236,125558,2,0,L|26:256,1,56.2500021457673,0|0,3:0|3:0,0:0:0:0:
211,311,125730,5,8,0:0:0:0:
234,383,125817,1,8,0:0:0:0:
243,379,125903,1,0,3:0:0:0:
251,376,125989,1,0,3:0:0:0:
257,374,126075,2,0,L|313:354,1,56.2500021457673,0|0,3:0|3:0,0:0:0:0:
498,222,126247,6,0,L|491:164,1,56.2500021457673,8|8,0:0|0:0,0:0:0:0:
500,165,126592,2,0,L|506:220,1,56.2500021457673,8|8,0:0|0:0,0:0:0:0:
9,84,126937,6,0,B|-11:109|-7:136|12:176|88:185|139:113|124:32|89:4,1,281.25,4|0,3:2|0:0,0:0:0:0:
100,0,127282,2,0,P|121:37|121:80,1,75,8|0,0:0|0:0,0:0:0:0:
130,322,127454,1,2,0:0:0:0:
168,315,127541,1,8,0:0:0:0:
206,309,127627,1,2,0:0:0:0:
244,303,127713,1,8,0:0:0:0:
283,296,127799,2,0,L|208:284,1,75,2|0,3:2|0:0,0:0:0:0:
355,231,127972,2,0,L|429:242,1,75,8|0,0:0|0:0,0:0:0:0:
202,281,128144,1,0,0:0:0:0:
505,84,128316,6,0,B|439:-16|326:31|326:31|374:42|387:84,1,281.25,0|0,3:0|0:0,0:0:0:0:
512,81,128661,2,0,P|492:50|462:26,1,75,8|0,0:0|0:0,0:0:0:0:
115,152,128834,1,2,0:0:0:0:
143,186,128920,1,8,0:0:0:0:
186,194,129006,1,2,0:0:0:0:
227,178,129092,1,8,0:0:0:0:
251,140,129178,2,0,P|246:105|239:63,1,75,2|0,0:0|0:0,0:0:0:0:
50,0,129351,2,0,P|44:37|39:74,1,75,8|0,0:0|0:0,0:0:0:0:
238,57,129523,1,0,0:0:0:0:
25,298,129696,6,0,B|-6:329|8:367|38:413|163:374|82:283|223:291,1,281.25,0|0,3:0|0:0,0:0:0:0:
207,282,130041,2,0,P|171:284|136:304,1,75,8|0,0:0|0:0,0:0:0:0:
303,379,130213,1,2,0:0:0:0:
310,341,130300,1,8,0:0:0:0:
316,303,130386,1,2,0:0:0:0:
322,265,130472,1,8,0:0:0:0:
327,227,130558,2,0,L|339:302,1,75,2|0,3:2|0:0,0:0:0:0:
149,182,130731,2,0,L|160:108,1,75,8|0,0:0|0:0,0:0:0:0:
341,309,130903,1,0,0:0:0:0:
458,113,131075,6,0,B|500:140|506:179|506:179|428:112|313:122,1,281.25,0|0,3:0|0:0,0:0:0:0:
464,110,131420,2,0,P|496:134|511:171,1,75,8|0,0:0|0:0,0:0:0:0:
285,196,131592,1,2,0:0:0:0:
257,230,131678,1,8,0:0:0:0:
214,238,131764,1,2,0:0:0:0:
173,222,131850,1,8,0:0:0:0:
149,184,131936,2,0,P|154:149|161:107,1,75,2|0,0:0|0:0,0:0:0:0:
348,20,132109,2,0,P|354:57|359:94,1,75,8|0,0:0|0:0,0:0:0:0:
162,101,132281,1,0,0:0:0:0:
0,254,132454,6,0,B|-32:288|-18:330|48:363|76:319|89:280|131:253|183:325|171:365|126:387|98:367,1,281.25,0|0,3:0|0:0,0:0:0:0:
133,375,132799,2,0,P|153:358|143:307,1,75,8|0,0:0|0:0,0:0:0:0:
43,183,132972,1,2,0:0:0:0:
64,167,133058,1,8,0:0:0:0:
67,146,133144,2,0,P|50:126|-1:136,1,75,2|8,0:0|0:0,0:0:0:0:
148,212,133316,2,0,P|172:220|211:186,1,75,2|0,3:2|0:0,0:0:0:0:
331,32,133489,6,0,P|349:19|396:79,1,112.5,8|0,0:0|0:0,0:0:0:0:
483,119,133834,6,0,B|507:98|508:46|463:28|403:30|389:97|378:164|425:221,1,281.25,0|0,3:0|0:0,0:0:0:0:
403,213,134178,2,0,P|386:171|384:128,1,75,8|0,0:0|0:0,0:0:0:0:
488,245,134351,1,2,0:0:0:0:
509,261,134437,1,8,0:0:0:0:
512,282,134523,2,0,P|495:302|444:292,1,75,2|8,0:0|0:0,0:0:0:0:
395,368,134696,2,0,P|369:363|352:314,1,75,2|0,0:0|0:0,0:0:0:0:
234,249,134868,6,0,P|195:232|180:296,1,112.5,8|0,0:0|0:0,0:0:0:0:
141,361,135213,6,0,B|130:366|157:405|212:398|250:370|238:240|112:341|110:200,1,281.25,0|0,3:0|0:0,0:0:0:0:
100,211,135558,2,0,P|112:260|130:280,1,75,8|0,0:0|0:0,0:0:0:0:
24,1,135730,1,2,0:0:0:0:
3,17,135816,1,8,0:0:0:0:
0,38,135902,2,0,P|17:58|68:48,1,75,2|8,0:0|0:0,0:0:0:0:
117,124,136075,2,0,P|143:119|160:70,1,75,2|0,3:2|0:0,0:0:0:0:
302,0,136247,6,0,L|309:75,1,75,8|0,0:0|0:0,0:0:0:0:
484,147,136420,1,2,0:0:0:0:
505,163,136506,1,8,0:0:0:0:
508,184,136592,2,0,P|491:204|440:194,1,75,2|8,0:0|0:0,0:0:0:0:
391,270,136765,2,0,P|365:265|348:216,1,75,2|0,3:2|0:0,0:0:0:0:
219,162,136937,6,0,L|212:237,1,75,8|0,0:0|0:0,0:0:0:0:
0,313,137109,1,2,0:0:0:0:
12,356,137196,1,8,0:0:0:0:
52,375,137282,1,2,0:0:0:0:
96,370,137368,1,8,0:0:0:0:
127,337,137454,2,0,P|119:298|112:250,1,75,2|0,3:2|0:0,0:0:0:0:
239,163,137627,2,0,P|233:200|225:236,1,75,8|0,0:0|0:0,0:0:0:0:
364,364,137799,2,0,P|356:327|350:290,1,75,0|0,3:0|0:0,0:0:0:0:
460,81,137972,6,0,B|477:45|514:32|514:32|393:20|430:101|315:85,1,281.25,4|0,3:2|0:0,0:0:0:0:
323,93,138316,2,0,P|356:96|405:77,1,75,8|0,0:0|0:0,0:0:0:0:
127,5,138489,1,2,0:0:0:0:
134,43,138576,1,8,0:0:0:0:
140,81,138662,1,2,0:0:0:0:
146,119,138748,1,8,0:0:0:0:
153,158,138834,2,0,L|165:83,1,75,2|0,3:2|0:0,0:0:0:0:
308,215,139007,2,0,L|319:289,1,75,8|0,0:0|0:0,0:0:0:0:
168,77,139179,1,0,0:0:0:0:
56,286,139351,6,0,B|-6:279|-11:347|7:397|147:381|174:296,1,281.25,0|0,3:0|0:0,0:0:0:0:
56,279,139696,2,0,P|12:290|0:314,1,75,8|0,0:0|0:0,0:0:0:0:
250,136,139868,1,2,0:0:0:0:
222,102,139954,1,8,0:0:0:0:
179,94,140040,1,2,0:0:0:0:
138,110,140126,1,8,0:0:0:0:
114,148,140212,2,0,P|119:183|126:225,1,75,2|0,0:0|0:0,0:0:0:0:
278,364,140385,2,0,P|283:326|289:289,1,75,8|0,0:0|0:0,0:0:0:0:
128,230,140557,1,0,0:0:0:0:
397,68,140730,6,0,B|415:35|396:-4|396:-4|485:65|458:198,1,281.25,0|0,3:0|0:0,0:0:0:0:
470,182,141075,2,0,P|475:140|470:97,1,75,8|0,0:0|0:0,0:0:0:0:
324,38,141247,1,2,0:0:0:0:
286,45,141334,1,8,0:0:0:0:
248,51,141420,1,2,0:0:0:0:
210,57,141506,1,8,0:0:0:0:
172,64,141592,2,0,L|247:76,1,75,2|0,3:2|0:0,0:0:0:0:
342,245,141765,2,0,L|416:234,1,75,8|0,0:0|0:0,0:0:0:0:
255,75,141937,1,0,0:0:0:0:
41,182,142109,6,0,B|-13:173|-36:256|11:312|173:260|53:184|205:174,1,281.25,0|0,3:0|0:0,0:0:0:0:
37,175,142454,2,0,P|-7:199|-3:236,1,75,8|0,0:0|0:0,0:0:0:0:
135,339,142627,1,2,0:0:0:0:
163,373,142713,1,8,0:0:0:0:
206,381,142799,1,2,0:0:0:0:
247,365,142885,1,8,0:0:0:0:
271,327,142971,2,0,P|266:292|259:250,1,75,2|0,0:0|0:0,0:0:0:0:
387,84,143144,2,0,P|381:121|376:158,1,75,8|0,0:0|0:0,0:0:0:0:
258,244,143316,1,0,3:0:0:0:
512,335,143489,6,0,B|533:376|442:437|301:377|333:271|406:264|441:288|437:315,1,281.25,0|0,3:0|0:0,0:0:0:0:
433,287,143834,2,0,P|384:284|362:326,1,75,8|0,0:0|0:0,0:0:0:0:
512,148,144006,1,2,0:0:0:0:
496,127,144092,1,8,0:0:0:0:
475,124,144178,2,0,P|455:141|465:192,1,75,2|8,0:0|0:0,0:0:0:0:
370,221,144351,2,0,P|374:246|423:263,1,75,2|0,0:0|0:0,0:0:0:0:
278,66,144523,6,0,P|249:36|204:81,1,112.5,8|0,0:0|0:0,0:0:0:0:
120,145,144868,2,0,B|107:204|188:227|239:181|202:48|134:18,1,281.25,0|0,3:0|0:0,0:0:0:0:
111,150,145213,2,0,P|123:191|178:193,1,75,8|0,0:0|0:0,0:0:0:0:
248,235,145385,1,2,0:0:0:0:
269,251,145471,1,8,0:0:0:0:
272,272,145557,2,0,P|255:292|204:282,1,75,2|8,0:0|0:0,0:0:0:0:
168,374,145730,2,0,P|142:369|125:320,1,75,2|0,3:2|0:0,0:0:0:0:
0,108,145903,6,0,P|35:97|56:161,1,112.5,8|0,0:0|0:0,0:0:0:0:
99,367,146247,6,0,B|49:363|25:332|25:332|125:353|213:294,1,281.25,0|0,3:0|0:0,0:0:0:0:
218,303,146592,2,0,P|186:322|151:335,1,75,8|0,0:0|0:0,0:0:0:0:
318,347,146765,1,2,0:0:0:0:
334,368,146851,1,8,0:0:0:0:
355,371,146937,2,0,P|375:354|365:303,1,75,2|8,0:0|0:0,0:0:0:0:
441,254,147110,2,0,P|436:228|387:211,1,75,2|0,0:0|0:0,0:0:0:0:
267,84,147282,6,0,L|260:159,1,75,8|0,0:0|0:0,0:0:0:0:
155,205,147455,1,2,0:0:0:0:
139,226,147541,1,8,0:0:0:0:
118,229,147627,2,0,P|98:212|108:161,1,75,2|8,0:0|0:0,0:0:0:0:
32,112,147800,2,0,P|37:86|86:69,1,75,2|0,0:0|0:0,0:0:0:0:
296,25,147972,6,0,L|303:100,1,75,8|0,0:0|0:0,0:0:0:0:
503,343,148144,1,0,3:0:0:0:
452,373,148230,1,8,0:0:0:0:
394,368,148316,1,8,0:0:0:0:
352,328,148402,1,8,0:0:0:0:
342,271,148488,1,8,0:0:0:0:
369,220,148575,1,8,0:0:0:0:
372,226,148661,1,0,3:0:0:0:
375,237,148747,1,0,3:0:0:0:
379,247,148834,1,0,3:0:0:0:
381,256,148920,1,0,3:0:0:0:
384,266,149006,6,0,B|417:247|469:279|469:279|394:197|275:207,1,300,4|8,3:2|0:0,0:0:0:0:
499,94,149523,1,2,0:0:0:0:
506,114,149609,1,8,0:0:0:0:
498,131,149696,2,0,P|464:154|414:153,1,75,2|8,0:0|0:0,0:0:0:0:
232,214,149868,2,0,P|266:237|316:236,1,75,2|0,3:2|0:0,0:0:0:0:
502,140,150041,2,0,P|468:163|418:162,1,75,8|0,0:0|0:0,0:0:0:0:
229,223,150213,2,0,P|263:246|313:245,1,75,2|0,0:0|0:0,0:0:0:0:
121,0,150385,6,0,P|131:74|142:156,1,150,0|2,3:0|0:0,0:0:0:0:
1,282,150644,1,0,0:0:0:0:
3,267,150730,2,0,P|9:219|15:175,1,75,8|0,0:0|0:0,0:0:0:0:
202,11,150903,1,2,0:0:0:0:
204,24,150989,1,8,0:0:0:0:
206,39,151075,2,0,P|210:73|217:114,1,75,2|8,0:0|0:0,0:0:0:0:
58,129,151247,2,0,P|53:94|47:54,1,75,2|0,0:0|0:0,0:0:0:0:
215,0,151420,2,0,P|226:67|238:148,1,150,8|0,0:0|0:0,0:0:0:0:
395,318,151765,6,0,P|428:333|466:332,1,75,2|0,3:2|0:0,0:0:0:0:
464,342,151937,2,0,P|426:342|392:327,1,75,2|0,0:2|0:0,0:0:0:0:
287,218,152109,2,0,P|253:233|215:232,1,75,10|0,0:0|0:0,0:0:0:0:
220,243,152281,2,0,P|257:243|291:228,1,75,2|8,0:0|0:0,0:0:0:0:
441,124,152454,2,0,P|474:139|512:138,1,75,2|8,0:0|0:0,0:0:0:0:
509,149,152626,2,0,P|471:149|437:134,1,75,2|0,3:2|0:0,0:0:0:0:
255,40,152799,2,0,P|292:40|326:25,1,75,10|0,0:0|0:0,0:0:0:0:
329,35,152971,2,0,P|295:50|257:49,1,75,2|0,0:0|0:0,0:0:0:0:
447,230,153144,6,0,L|434:303,1,75,0|0,3:0|0:0,0:0:0:0:
455,232,153316,2,0,L|442:305,1,75,2|0,0:0|0:0,0:0:0:0:
245,138,153489,2,0,L|259:221,1,75,10|0,0:0|0:0,0:0:0:0:
237,140,153661,2,0,L|251:223,1,75,2|8,0:0|0:0,0:0:0:0:
135,337,153834,1,2,0:0:0:0:
123,350,153920,1,8,0:0:0:0:
111,362,154006,2,0,L|184:349,1,75,2|0,0:0|0:0,0:0:0:0:
2,215,154178,2,0,L|75:227,1,75,10|0,0:2|0:0,0:0:0:0:
73,235,154350,2,0,L|0:222,1,75,2|0,3:2|0:0,0:0:0:0:
196,7,154523,6,0,B|233:32|234:76|234:76|186:13|110:7,1,225,0|0,3:2|0:0,0:0:0:0:
111,19,154868,2,0,P|149:26|189:48,1,75,10|0,0:0|0:0,0:0:0:0:
309,124,155041,1,2,0:0:0:0:
319,150,155127,1,8,0:0:0:0:
308,170,155213,2,0,P|267:190|223:172,1,75,2|8,0:0|0:0,0:0:0:0:
403,80,155385,2,0,P|444:100|488:82,1,75,2|0,3:2|0:0,0:0:0:0:
309,180,155558,2,0,P|268:200|224:182,1,75,10|0,0:0|0:0,0:0:0:0:
406,70,155730,2,0,P|447:90|491:72,1,75,2|0,0:0|0:0,0:0:0:0:
512,284,155903,6,0,P|452:296|352:324,1,150,0|2,3:0|0:0,0:0:0:0:
206,356,156162,1,0,0:0:0:0:
222,360,156247,2,0,P|252:366|302:380,1,75,10|0,0:0|0:0,0:0:0:0:
74,290,156421,1,2,0:0:0:0:
89,286,156507,1,8,0:0:0:0:
104,282,156592,2,0,P|140:274|201:257,1,75,2|8,0:0|0:0,0:0:0:0:
310,176,156765,2,0,P|273:185|237:193,1,75,2|0,0:0|0:0,0:0:0:0:
100,198,156937,2,0,P|64:207|28:216,1,75,10|0,0:0|0:0,0:0:0:0:
308,258,157109,2,0,P|344:250|381:241,1,75,2|0,0:0|0:0,0:0:0:0:
142,38,157282,6,0,B|164:69|147:100|114:136|8:81|100:22|-35:8,1,225,2|0,3:2|0:0,0:0:0:0:
5,7,157627,2,0,P|46:29|67:75,1,75,10|0,0:0|0:0,0:0:0:0:
174,170,157799,1,2,0:0:0:0:
190,191,157885,1,8,0:0:0:0:
211,194,157971,2,0,P|231:177|221:126,1,75,2|8,0:0|0:0,0:0:0:0:
297,77,158144,2,0,P|292:51|243:34,1,75,2|0,3:2|0:0,0:0:0:0:
508,189,158316,6,0,L|433:196,1,75,8|0,0:0|0:0,0:0:0:0:
399,357,158489,1,2,0:0:0:0:
383,378,158575,1,8,0:0:0:0:
362,381,158661,2,0,P|342:364|352:313,1,75,2|8,0:0|0:0,0:0:0:0:
276,264,158834,2,0,P|281:238|330:221,1,75,2|0,3:2|0:0,0:0:0:0:
89,353,159006,6,0,L|164:360,1,75,8|0,0:0|0:0,0:0:0:0:
127,161,159178,1,2,0:0:0:0:
115,204,159265,1,8,0:0:0:0:
75,223,159351,1,2,0:0:0:0:
31,218,159437,1,8,0:0:0:0:
0,185,159523,2,0,P|8:146|15:98,1,75,2|0,0:0|0:0,0:0:0:0:
178,0,159696,2,0,P|186:35|193:73,1,75,8|0,0:2|0:0,0:0:0:0:
289,263,159868,2,0,P|295:225|302:189,1,75,2|0,3:2|0:0,0:0:0:0:
486,5,160041,6,0,B|513:5|539:37|541:83|489:139|446:107|403:119|370:115|338:79|344:23|426:33|424:87,1,300,4|8,3:2|0:0,0:0:0:0:
512,202,160558,1,2,0:0:0:0:
504,221,160644,1,8,0:0:0:0:
488,230,160731,2,0,P|447:227|407:197,1,75,2|8,0:0|0:0,0:0:0:0:
219,143,160903,2,0,P|259:140|299:110,1,75,2|0,3:2|0:0,0:0:0:0:
486,239,161076,2,0,P|445:236|405:206,1,75,8|0,0:0|0:0,0:0:0:0:
216,135,161247,2,0,P|256:132|296:102,1,75,2|0,0:0|0:0,0:0:0:0:
347,378,161420,6,0,P|339:298|328:226,1,150,0|2,3:0|0:0,0:0:0:0:
255,266,161679,1,0,0:0:0:0:
257,284,161765,6,0,P|262:321|266:358,1,75,8|0,0:0|0:0,0:0:0:0:
61,207,161937,1,2,0:0:0:0:
77,210,162024,1,8,0:0:0:0:
92,213,162109,2,0,P|129:218|166:222,1,75,2|8,0:0|0:0,0:0:0:0:
0,354,162282,2,0,P|37:350|74:344,1,75,2|0,0:0|0:0,0:0:0:0:
208,209,162454,2,0,P|131:204|57:192,1,150,8|0,0:0|0:0,0:0:0:0:
258,18,162800,6,0,P|220:16|187:32,1,75,2|0,3:2|0:0,0:0:0:0:
184,22,162972,2,0,P|218:7|256:8,1,75,2|0,0:2|0:0,0:0:0:0:
397,111,163144,2,0,P|434:110|469:126,1,75,10|0,0:0|0:0,0:0:0:0:
473,116,163316,2,0,P|439:101|402:101,1,75,2|8,0:0|0:0,0:0:0:0:
276,226,163489,2,0,P|238:224|205:240,1,75,2|8,0:0|0:0,0:0:0:0:
201,229,163661,2,0,P|235:214|273:215,1,75,2|0,3:2|0:0,0:0:0:0:
493,319,163834,2,0,P|459:304|422:304,1,75,10|0,0:0|0:0,0:0:0:0:
424,294,164006,2,0,P|461:293|496:309,1,75,2|0,0:0|0:0,0:0:0:0:
274,378,164179,6,0,L|287:305,1,75,2|0,3:2|0:0,0:0:0:0:
266,376,164351,2,0,L|279:303,1,75,2|0,0:2|0:0,0:0:0:0:
92,175,164524,2,0,L|106:258,1,75,10|0,0:0|0:0,0:0:0:0:
84,177,164696,2,0,L|98:260,1,75,2|8,0:0|0:0,0:0:0:0:
277,137,164868,1,2,0:0:0:0:
289,124,164954,1,8,0:0:0:0:
301,112,165040,2,0,L|228:125,1,75,2|0,0:0|0:0,0:0:0:0:
2,32,165212,2,0,L|75:44,1,75,10|0,0:2|0:0,0:0:0:0:
73,52,165384,2,0,L|0:39,1,75,2|0,3:2|0:0,0:0:0:0:
134,314,165558,6,0,B|145:342|173:354|173:354|78:357|111:296|21:303,1,225,0|0,3:2|0:0,0:0:0:0:
24,294,165903,2,0,P|71:298|98:316,1,75,10|0,0:0|0:0,0:0:0:0:
209,280,166076,1,2,0:0:0:0:
219,254,166162,1,8,0:0:0:0:
208,234,166248,2,0,P|167:214|123:232,1,75,2|8,0:0|0:0,0:0:0:0:
325,352,166420,2,0,P|366:372|410:354,1,75,2|0,3:2|0:0,0:0:0:0:
209,224,166593,2,0,P|168:204|124:222,1,75,10|0,0:0|0:0,0:0:0:0:
328,342,166765,2,0,P|369:362|413:344,1,75,2|0,0:0|0:0,0:0:0:0:
491,187,166938,6,0,P|478:113|464:39,1,150,0|2,3:0|0:0,0:0:0:0:
298,4,167197,1,0,0:0:0:0:
314,8,167282,2,0,P|344:14|394:28,1,75,10|0,0:0|0:0,0:0:0:0:
178,114,167454,1,2,0:0:0:0:
193,110,167541,1,8,0:0:0:0:
208,106,167627,2,0,P|244:98|305:81,1,75,2|8,0:0|0:0,0:0:0:0:
405,137,167799,2,0,P|368:146|332:154,1,75,2|0,0:0|0:0,0:0:0:0:
215,252,167972,2,0,P|251:243|287:234,1,75,10|0,0:0|0:0,0:0:0:0:
442,268,168144,2,0,P|405:277|369:285,1,75,2|0,0:0|0:0,0:0:0:0:
102,319,168316,6,0,B|114:345|97:373|71:388|24:384|-8:320|22:254|54:242,1,225,2|0,3:2|0:0,0:0:0:0:
39,240,168661,2,0,P|16:270|16:325,1,75,10|0,0:0|0:0,0:0:0:0:
181,278,168833,1,2,0:0:0:0:
206,272,168919,1,8,0:0:0:0:
218,254,169005,2,0,P|211:228|169:203,1,75,2|8,0:0|0:0,0:0:0:0:
178,117,169178,2,0,P|152:110|104:147,1,75,2|0,3:2|0:0,0:0:0:0:
193,376,169351,1,8,0:0:0:0:
456,355,169523,6,0,P|487:360|522:370,4,56.2500021457673
417,279,170385,2,0,P|386:284|351:294,3,56.2500021457673
512,5,171075,1,4,3:0:0:0:
