osu file format v14

[General]
AudioFilename: audio.mp3
AudioLeadIn: 0
PreviewTime: 149006
Countdown: 0
SampleSet: Soft
StackLeniency: 0.4
Mode: 0
LetterboxInBreaks: 0
EpilepsyWarning: 1
WidescreenStoryboard: 1

[Editor]
Bookmarks: 126926,148995,171064
DistanceSpacing: 0.8
BeatDivisor: 4
GridSize: 32
TimelineZoom: 0.9

[Metadata]
Title:Tramontane (Cut Ver.)
TitleUnicode:Tramontane (Cut Ver.)
Artist:Boxplot
ArtistUnicode:Boxplot
Creator:mapping
Version:Cappu's Extra
Source:
Tags:drum & and bass dnb english electronic liquid liquicity featured artist fa mappers' guild mpg capr senseabel hausenberg kerli_ frakturehawkens halgoh ksardas nekroman4ik maruoko delette tatemae akitoshi corinn -laura-
BeatmapID:4576653
BeatmapSetID:2167774

[Difficulty]
HPDrainRate:6
CircleSize:4
OverallDifficulty:8.6
ApproachRate:9.2
SliderMultiplier:1.7
SliderTickRate:1

[Events]
//Background and Video events
0,0,"tramontane.png",0,0
//Break Periods
2,99378,104298
//Storyboard Layer 0 (Background)
//Storyboard Layer 1 (Fail)
//Storyboard Layer 2 (Pass)
//Storyboard Layer 3 (Foreground)
//Storyboard Layer 4 (Overlay)
//Storyboard Sound Samples

[TimingPoints]
41,344.827586206897,4,2,2,30,1,0
11075,-500,4,2,2,20,0,0
12454,-500,4,2,2,20,0,0
22109,-250,4,2,2,20,0,0
49696,-100,4,2,2,25,0,0
51075,-100,4,2,2,30,0,0
52454,-100,4,2,2,35,0,0
53834,-100,4,2,2,40,0,0
55213,-333.333333333333,4,2,2,30,0,0
66247,-200,4,2,2,35,0,0
77282,-142.857142857143,4,2,2,45,0,0
88316,-125,4,2,2,55,0,0
98661,-200,4,2,2,55,0,0
99351,-200,4,2,2,20,0,0
104868,-62.5,4,2,1,80,0,0
104954,-62.5,4,2,1,5,0,0
105041,-62.5,4,2,1,80,0,0
105127,-62.5,4,2,1,5,0,0
105213,-62.5,4,2,1,80,0,0
105299,-62.5,4,2,1,5,0,0
105385,-62.5,4,2,1,80,0,0
105472,-62.5,4,2,1,5,0,0
105558,-62.5,4,2,1,80,0,0
105644,-62.5,4,2,1,5,0,0
105730,-62.5,4,2,1,80,0,0
105816,-62.5,4,2,1,5,0,0
105903,-62.5,4,2,1,80,0,0
105989,-62.5,4,2,1,5,0,0
106075,-62.5,4,2,1,80,0,0
106161,-62.5,4,2,1,5,0,0
106247,-62.5,4,2,1,80,0,0
106334,-62.5,4,2,1,5,0,0
106420,-62.5,4,2,1,80,0,0
106506,-62.5,4,2,1,5,0,0
106592,-62.5,4,2,1,80,0,0
106678,-62.5,4,2,1,5,0,0
106765,-62.5,4,2,1,80,0,0
106851,-62.5,4,2,1,5,0,0
106937,-62.5,4,2,1,80,0,0
107023,-62.5,4,2,1,5,0,0
107109,-62.5,4,2,1,80,0,0
107196,-62.5,4,2,1,5,0,0
107282,-62.5,4,2,1,80,0,0
107368,-62.5,4,2,1,5,0,0
107454,-62.5,4,2,1,80,0,0
107541,-62.5,4,2,1,5,0,0
107627,-62.5,4,2,1,80,0,0
107713,-62.5,4,2,1,5,0,0
107799,-62.5,4,2,1,80,0,0
107885,-62.5,4,2,1,5,0,0
107972,-62.5,4,2,1,80,0,0
108058,-62.5,4,2,1,5,0,0
108144,-62.5,4,2,1,80,0,0
108230,-62.5,4,2,1,5,0,0
108316,-62.5,4,2,1,80,0,0
108403,-62.5,4,2,1,5,0,0
108489,-62.5,4,2,1,80,0,0
108575,-62.5,4,2,1,5,0,0
108661,-62.5,4,2,1,80,0,0
108747,-62.5,4,2,1,5,0,0
108834,-62.5,4,2,1,80,0,0
108920,-62.5,4,2,1,5,0,0
109006,-62.5,4,2,1,80,0,0
109092,-62.5,4,2,1,5,0,0
109178,-62.5,4,2,1,80,0,0
109265,-62.5,4,2,1,5,0,0
109351,-62.5,4,2,1,80,0,0
109437,-62.5,4,2,1,5,0,0
109523,-62.5,4,2,1,80,0,0
109609,-62.5,4,2,1,5,0,0
109696,-62.5,4,2,1,80,0,0
109782,-62.5,4,2,1,5,0,0
109868,-62.5,4,2,1,80,0,0
109954,-62.5,4,2,1,5,0,0
110041,-62.5,4,2,1,80,0,0
110127,-62.5,4,2,1,5,0,0
110213,-62.5,4,2,1,80,0,0
110299,-62.5,4,2,1,5,0,0
110385,-62.5,4,2,1,80,0,0
115903,-62.5,4,2,1,80,0,0
115989,-62.5,4,2,1,5,0,0
116076,-62.5,4,2,1,80,0,0
116334,-62.5,4,2,1,5,0,0
116420,-62.5,4,2,1,80,0,0
116679,-62.5,4,2,1,5,0,0
116765,-62.5,4,2,1,80,0,0
117024,-62.5,4,2,1,5,0,0
117110,-62.5,4,2,1,80,0,0
117369,-62.5,4,2,1,5,0,0
117455,-62.5,4,2,1,80,0,0
117713,-62.5,4,2,1,5,0,0
117800,-62.5,4,2,1,80,0,0
118058,-62.5,4,2,1,5,0,0
118144,-62.5,4,2,1,80,0,0
118403,-62.5,4,2,1,5,0,0
118489,-62.5,4,2,1,80,0,0
118748,-62.5,4,2,1,5,0,0
118834,-62.5,4,2,1,80,0,0
119093,-62.5,4,2,1,5,0,0
119179,-62.5,4,2,1,80,0,0
119438,-62.5,4,2,1,5,0,0
119524,-62.5,4,2,1,80,0,0
119782,-62.5,4,2,1,5,0,0
119869,-62.5,4,2,1,80,0,0
120127,-62.5,4,2,1,5,0,0
120213,-62.5,4,2,1,80,0,0
120472,-62.5,4,2,1,5,0,0
120558,-62.5,4,2,1,80,0,0
120817,-62.5,4,2,1,5,0,0
120903,-62.5,4,2,1,80,0,0
121160,-62.5,4,2,1,5,0,0
121162,-62.5,4,2,1,5,0,0
121248,-62.5,4,2,1,80,0,0
121420,-83.3333333333333,4,2,1,80,0,0
123834,-83.3333333333333,4,2,1,85,0,0
124523,-125,4,2,1,85,0,0
126937,-55.5555555555556,4,2,1,90,0,1
127109,-55.5555555555556,4,2,1,80,0,1
127282,-55.5555555555556,4,2,1,90,0,1
128144,-55.5555555555556,4,2,1,80,0,1
128316,-55.5555555555556,4,2,1,90,0,1
128575,-55.5555555555556,4,2,1,5,0,1
128661,-55.5555555555556,4,2,1,90,0,1
129523,-55.5555555555556,4,2,1,80,0,1
129696,-55.5555555555556,4,2,1,90,0,1
129868,-55.5555555555556,4,2,1,80,0,1
130041,-55.5555555555556,4,2,1,90,0,1
130903,-55.5555555555556,4,2,1,80,0,1
131075,-55.5555555555556,4,2,1,90,0,1
131334,-55.5555555555556,4,2,1,5,0,1
131420,-55.5555555555556,4,2,1,90,0,1
132282,-100,4,2,1,90,0,1
132368,-100,4,2,1,5,0,1
132454,-62.5,4,2,1,90,0,1
132713,-62.5,4,2,1,5,0,1
132799,-62.5,4,2,1,90,0,1
133489,-100,4,2,1,90,0,1
133575,-100,4,2,1,5,0,1
133661,-100,4,2,1,80,0,1
133747,-100,4,2,1,5,0,1
133834,-62.5,4,2,1,90,0,1
134092,-62.5,4,2,1,5,0,1
134178,-62.5,4,2,1,90,0,1
134868,-100,4,2,1,90,0,1
134954,-100,4,2,1,5,0,1
135041,-100,4,2,1,80,0,1
135127,-100,4,2,1,5,0,1
135213,-62.5,4,2,1,90,0,1
135385,-62.5,4,2,1,80,0,1
135472,-62.5,4,2,1,5,0,1
135558,-62.5,4,2,1,90,0,1
135644,-62.5,4,2,1,5,0,1
135730,-62.5,4,2,1,90,0,1
137972,-55.5555555555556,4,2,1,90,0,1
138144,-55.5555555555556,4,2,1,80,0,1
138316,-55.5555555555556,4,2,1,90,0,1
139178,-55.5555555555556,4,2,1,80,0,1
139351,-55.5555555555556,4,2,1,90,0,1
139610,-55.5555555555556,4,2,1,5,0,1
139696,-55.5555555555556,4,2,1,90,0,1
140558,-55.5555555555556,4,2,1,80,0,1
140730,-55.5555555555556,4,2,1,90,0,1
140902,-55.5555555555556,4,2,1,80,0,1
141075,-55.5555555555556,4,2,1,90,0,1
141937,-55.5555555555556,4,2,1,80,0,1
142109,-55.5555555555556,4,2,1,90,0,1
142367,-55.5555555555556,4,2,1,5,0,1
142369,-55.5555555555556,4,2,1,5,0,1
142455,-55.5555555555556,4,2,1,90,0,1
143316,-100,4,2,1,90,0,1
143403,-100,4,2,1,5,0,1
143489,-62.5,4,2,1,90,0,1
143748,-62.5,4,2,1,5,0,1
143834,-62.5,4,2,1,90,0,1
144523,-100,4,2,1,90,0,1
144610,-100,4,2,1,5,0,1
144696,-100,4,2,1,80,0,1
144782,-100,4,2,1,5,0,1
144868,-62.5,4,2,1,90,0,1
144869,-62.5,4,2,1,90,0,1
145127,-62.5,4,2,1,5,0,1
145213,-62.5,4,2,1,90,0,1
145903,-100,4,2,1,90,0,1
145989,-100,4,2,1,5,0,1
146076,-100,4,2,1,80,0,1
146162,-100,4,2,1,5,0,1
146247,-62.5,4,2,1,90,0,1
146248,-62.5,4,2,1,90,0,1
146420,-62.5,4,2,1,80,0,1
146507,-62.5,4,2,1,5,0,1
146593,-62.5,4,2,1,90,0,1
146679,-62.5,4,2,1,5,0,1
146765,-62.5,4,2,1,90,0,1
148144,-62.5,4,2,1,80,0,1
149006,-52.6315789473684,4,2,1,80,0,1
149265,-52.6315789473684,4,2,1,5,0,1
149351,-52.6315789473684,4,2,1,80,0,1
149954,-52.6315789473684,4,2,1,5,0,1
150041,-52.6315789473684,4,2,1,80,0,1
150299,-52.6315789473684,4,2,1,5,0,1
150385,-52.6315789473684,4,2,1,80,0,1
150644,-52.6315789473684,4,2,1,5,0,1
150730,-52.6315789473684,4,2,1,80,0,1
151334,-52.6315789473684,4,2,1,5,0,1
151420,-83.3333333333333,4,2,1,80,0,1
151506,-83.3333333333333,4,2,1,5,0,1
151592,-83.3333333333333,4,2,1,80,0,1
151678,-83.3333333333333,4,2,1,5,0,1
151765,-52.6315789473684,4,2,1,80,0,1
152023,-52.6315789473684,4,2,1,5,0,1
152109,-52.6315789473684,4,2,1,80,0,1
152196,-52.6315789473684,4,2,1,5,0,1
152282,-52.6315789473684,4,2,1,80,0,1
152713,-52.6315789473684,4,2,1,5,0,1
152799,-52.6315789473684,4,2,1,80,0,1
152885,-52.6315789473684,4,2,1,5,0,1
152972,-52.6315789473684,4,2,1,80,0,1
153230,-52.6315789473684,4,2,1,5,0,1
153316,-52.6315789473684,4,2,1,80,0,1
153403,-52.6315789473684,4,2,1,5,0,1
153489,-52.6315789473684,4,2,1,80,0,1
153575,-52.6315789473684,4,2,1,5,0,1
153661,-52.6315789473684,4,2,1,80,0,1
154092,-52.6315789473684,4,2,1,5,0,1
154178,-83.3333333333333,4,2,1,80,0,1
154265,-83.3333333333333,4,2,1,5,0,1
154351,-83.3333333333333,4,2,1,80,0,1
154437,-83.3333333333333,4,2,1,5,0,1
154523,-52.6315789473684,4,2,1,80,0,1
154782,-52.6315789473684,4,2,1,5,0,1
154868,-52.6315789473684,4,2,1,80,0,1
154954,-52.6315789473684,4,2,1,5,0,1
155041,-52.6315789473684,4,2,1,80,0,1
155472,-52.6315789473684,4,2,1,5,0,1
155558,-52.6315789473684,4,2,1,80,0,1
155644,-52.6315789473684,4,2,1,5,0,1
155730,-52.6315789473684,4,2,1,80,0,1
155989,-52.6315789473684,4,2,1,5,0,1
156075,-52.6315789473684,4,2,1,80,0,1
156161,-52.6315789473684,4,2,1,5,0,1
156247,-52.6315789473684,4,2,1,80,0,1
156334,-52.6315789473684,4,2,1,5,0,1
156420,-52.6315789473684,4,2,1,80,0,1
156851,-52.6315789473684,4,2,1,5,0,1
156937,-83.3333333333333,4,2,1,80,0,1
157023,-83.3333333333333,4,2,1,5,0,1
157109,-83.3333333333333,4,2,1,80,0,1
157196,-83.3333333333333,4,2,1,5,0,1
157282,-52.6315789473684,4,2,1,80,0,1
157541,-52.6315789473684,4,2,1,5,0,1
157627,-52.6315789473684,4,2,1,80,0,1
157713,-52.6315789473684,4,2,1,5,0,1
157799,-52.6315789473684,4,2,1,80,0,1
158230,-52.6315789473684,4,2,1,5,0,1
158316,-52.6315789473684,4,2,1,80,0,1
158403,-52.6315789473684,4,2,1,5,0,1
158489,-52.6315789473684,4,2,1,80,0,1
158920,-52.6315789473684,4,2,1,5,0,1
159006,-52.6315789473684,4,2,1,80,0,1
159092,-52.6315789473684,4,2,1,5,0,1
159178,-52.6315789473684,4,2,1,80,0,1
159609,-52.6315789473684,4,2,1,5,0,1
159696,-52.6315789473684,4,2,1,80,0,1
159782,-52.6315789473684,4,2,1,5,0,1
159868,-52.6315789473684,4,2,1,80,0,1
159954,-52.6315789473684,4,2,1,5,0,1
160041,-52.6315789473684,4,2,1,80,0,1
160299,-52.6315789473684,4,2,1,5,0,1
160385,-52.6315789473684,4,2,1,80,0,1
160989,-52.6315789473684,4,2,1,5,0,1
161075,-52.6315789473684,4,2,1,80,0,1
161334,-52.6315789473684,4,2,1,5,0,1
161420,-52.6315789473684,4,2,1,80,0,1
161678,-52.6315789473684,4,2,1,5,0,1
161765,-52.6315789473684,4,2,1,80,0,1
162368,-52.6315789473684,4,2,1,5,0,1
162454,-83.3333333333333,4,2,1,80,0,1
162541,-83.3333333333333,4,2,1,5,0,1
162627,-83.3333333333333,4,2,1,80,0,1
162713,-83.3333333333333,4,2,1,5,0,1
162799,-52.6315789473684,4,2,1,80,0,1
163058,-52.6315789473684,4,2,1,5,0,1
163144,-52.6315789473684,4,2,1,80,0,1
163747,-52.6315789473684,4,2,1,5,0,1
163834,-52.6315789473684,4,2,1,80,0,1
163920,-52.6315789473684,4,2,1,5,0,1
164006,-52.6315789473684,4,2,1,80,0,1
164265,-52.6315789473684,4,2,1,5,0,1
164351,-52.6315789473684,4,2,1,80,0,1
164437,-52.6315789473684,4,2,1,5,0,1
164523,-52.6315789473684,4,2,1,80,0,1
164609,-52.6315789473684,4,2,1,5,0,1
164696,-52.6315789473684,4,2,1,80,0,1
165127,-52.6315789473684,4,2,1,5,0,1
165213,-83.3333333333333,4,2,1,80,0,1
165299,-83.3333333333333,4,2,1,5,0,1
165385,-83.3333333333333,4,2,1,80,0,1
165472,-83.3333333333333,4,2,1,5,0,1
165558,-52.6315789473684,4,2,1,80,0,1
165816,-52.6315789473684,4,2,1,5,0,1
165903,-52.6315789473684,4,2,1,80,0,1
165989,-52.6315789473684,4,2,1,5,0,1
166075,-52.6315789473684,4,2,1,80,0,1
166506,-52.6315789473684,4,2,1,5,0,1
166592,-52.6315789473684,4,2,1,80,0,1
166678,-52.6315789473684,4,2,1,5,0,1
166765,-52.6315789473684,4,2,1,80,0,1
167023,-52.6315789473684,4,2,1,5,0,1
167109,-52.6315789473684,4,2,1,80,0,1
167196,-52.6315789473684,4,2,1,5,0,1
167282,-52.6315789473684,4,2,1,80,0,1
167368,-52.6315789473684,4,2,1,5,0,1
167454,-52.6315789473684,4,2,1,80,0,1
167885,-52.6315789473684,4,2,1,5,0,1
167972,-83.3333333333333,4,2,1,80,0,1
168058,-83.3333333333333,4,2,1,5,0,1
168144,-83.3333333333333,4,2,1,80,0,1
168230,-83.3333333333333,4,2,1,5,0,1
168316,-52.6315789473684,4,2,1,80,0,1
168575,-52.6315789473684,4,2,1,5,0,1
168661,-52.6315789473684,4,2,1,80,0,1
168747,-52.6315789473684,4,2,1,5,0,1
168834,-52.6315789473684,4,2,1,80,0,1
169265,-52.6315789473684,4,2,1,5,0,1
169351,-52.6315789473684,4,2,1,80,0,1
169437,-52.6315789473684,4,2,1,5,0,1
169523,-52.6315789473684,4,2,1,80,0,1
169696,-52.6315789473684,4,2,1,45,0,1
169868,-250,4,2,1,45,0,0

[Colours]
Combo1 : 107,27,90
Combo2 : 247,175,2
Combo3 : 246,45,42
Combo4 : 231,8,63
Combo5 : 185,8,82

[HitObjects]
95,287,11075,6,0,L|115:292,7,17
179,250,12454,5,2,0:0:0:0:
179,250,12799,1,2,0:0:0:0:
179,250,13144,1,2,0:0:0:0:
179,250,13489,1,2,0:0:0:0:
95,97,13834,6,0,L|115:92,7,17
179,134,15213,5,2,0:0:0:0:
179,134,15558,1,2,0:0:0:0:
179,134,15903,1,2,0:0:0:0:
179,134,16248,1,2,0:0:0:0:
417,97,16592,6,0,L|397:92,7,17
333,134,17971,5,2,0:0:0:0:
333,134,18316,1,2,0:0:0:0:
333,134,18661,1,2,0:0:0:0:
333,134,19006,1,2,0:0:0:0:
417,287,19351,6,0,L|397:292,7,17
333,250,20730,5,2,0:0:0:0:
333,250,21075,1,2,0:0:0:0:
333,250,21420,1,2,0:0:0:0:
333,250,21765,1,2,0:0:0:0:
189,336,22109,6,0,L|184:292,1,34
205,260,22454,2,0,L|200:304,1,34
126,244,22799,5,0,0:0:0:0:
117,249,22972,1,0,0:0:0:0:
108,254,23144,1,0,0:0:0:0:
99,259,23316,1,0,0:0:0:0:
29,139,23489,5,2,0:0:0:0:
105,159,23834,1,2,0:0:0:0:
181,179,24178,1,2,0:0:0:0:
257,199,24523,1,2,0:0:0:0:
323,336,24868,6,0,L|328:292,1,34
307,260,25213,2,0,L|312:304,1,34
386,244,25558,5,0,0:0:0:0:
395,249,25731,1,0,0:0:0:0:
404,254,25903,1,0,0:0:0:0:
413,259,26075,1,0,0:0:0:0:
483,139,26248,5,2,0:0:0:0:
407,159,26593,1,2,0:0:0:0:
331,179,26937,1,2,0:0:0:0:
255,199,27282,1,2,0:0:0:0:
323,22,27627,6,0,L|328:66,1,34
307,98,27972,2,0,L|312:54,1,34
386,114,28317,5,0,0:0:0:0:
395,109,28490,1,0,0:0:0:0:
404,104,28662,1,0,0:0:0:0:
413,99,28834,1,0,0:0:0:0:
483,219,29007,5,2,0:0:0:0:
407,199,29352,1,2,0:0:0:0:
331,179,29696,1,2,0:0:0:0:
255,159,30041,1,2,0:0:0:0:
189,22,30385,6,0,L|184:66,1,34
205,98,30730,2,0,L|200:54,1,34
126,114,31075,5,0,0:0:0:0:
117,109,31248,1,0,0:0:0:0:
108,104,31420,1,0,0:0:0:0:
99,99,31592,1,0,0:0:0:0:
29,219,31765,5,2,0:0:0:0:
105,199,32110,1,2,0:0:0:0:
181,179,32454,1,2,0:0:0:0:
257,159,32799,1,2,0:0:0:0:
391,297,33144,5,0,0:0:0:0:
386,296,33316,1,0,0:0:0:0:
381,297,33489,1,0,0:0:0:0:
379,302,33661,1,0,0:0:0:0:
381,307,33834,1,0,0:0:0:0:
386,309,34006,1,0,0:0:0:0:
391,307,34178,1,0,0:0:0:0:
392,302,34351,1,0,0:0:0:0:
453,247,34523,5,2,0:0:0:0:
316,363,34868,1,2,0:0:0:0:
453,247,35213,1,2,0:0:0:0:
316,363,35558,1,2,0:0:0:0:
121,297,35903,5,0,0:0:0:0:
126,296,36075,1,0,0:0:0:0:
131,297,36248,1,0,0:0:0:0:
133,302,36420,1,0,0:0:0:0:
131,307,36593,1,0,0:0:0:0:
126,309,36765,1,0,0:0:0:0:
121,307,36937,1,0,0:0:0:0:
120,302,37110,1,0,0:0:0:0:
59,247,37282,5,2,0:0:0:0:
196,363,37627,1,2,0:0:0:0:
59,247,37972,1,2,0:0:0:0:
196,363,38317,1,2,0:0:0:0:
121,87,38661,5,0,0:0:0:0:
126,88,38833,1,0,0:0:0:0:
131,87,39006,1,0,0:0:0:0:
133,82,39178,1,0,0:0:0:0:
131,77,39351,1,0,0:0:0:0:
126,75,39523,1,0,0:0:0:0:
121,77,39695,1,0,0:0:0:0:
120,82,39868,1,0,0:0:0:0:
59,137,40040,5,2,0:0:0:0:
196,21,40385,1,2,0:0:0:0:
59,137,40730,1,2,0:0:0:0:
196,21,41075,1,2,0:0:0:0:
391,87,41420,5,0,0:0:0:0:
386,88,41592,1,0,0:0:0:0:
381,87,41765,1,0,0:0:0:0:
379,82,41937,1,0,0:0:0:0:
381,77,42110,1,0,0:0:0:0:
386,75,42282,1,0,0:0:0:0:
391,77,42454,1,0,0:0:0:0:
392,82,42627,1,0,0:0:0:0:
453,137,42799,5,2,0:0:0:0:
316,21,43144,1,2,0:0:0:0:
453,137,43489,1,2,0:0:0:0:
316,21,43834,1,2,0:0:0:0:
330,297,44178,5,0,0:0:0:0:
352,291,44351,1,0,0:0:0:0:
373,303,44523,1,0,0:0:0:0:
395,297,44696,1,0,0:0:0:0:
334,286,44868,1,0,0:0:0:0:
356,280,45041,1,0,0:0:0:0:
377,292,45213,1,0,0:0:0:0:
399,286,45386,1,0,0:0:0:0:
307,379,45558,5,2,0:0:0:0:
274,228,45903,1,2,0:0:0:0:
424,195,46247,1,2,0:0:0:0:
457,346,46592,1,2,0:0:0:0:
330,87,46937,5,0,0:0:0:0:
352,93,47110,1,0,0:0:0:0:
373,81,47282,1,0,0:0:0:0:
395,87,47455,1,0,0:0:0:0:
334,98,47627,1,0,0:0:0:0:
356,104,47800,1,0,0:0:0:0:
377,92,47972,1,0,0:0:0:0:
399,98,48145,1,0,0:0:0:0:
307,5,48317,5,2,0:0:0:0:
274,156,48662,1,2,0:0:0:0:
424,189,49006,1,2,0:0:0:0:
457,38,49351,1,2,0:0:0:0:
182,87,49696,5,0,0:0:0:0:
160,93,49869,1,0,0:0:0:0:
139,81,50041,1,0,0:0:0:0:
117,87,50214,1,0,0:0:0:0:
178,98,50386,1,0,0:0:0:0:
156,104,50559,1,0,0:0:0:0:
135,92,50731,1,0,0:0:0:0:
113,98,50904,1,0,0:0:0:0:
42,201,51075,5,2,0:0:0:0:
72,209,51248,1,0,0:0:0:0:
102,192,51420,1,2,0:0:0:0:
133,201,51593,1,0,0:0:0:0:
144,272,51765,5,2,0:0:0:0:
205,310,51937,1,0,0:0:0:0:
277,288,52109,1,2,0:0:0:0:
305,217,52282,1,0,0:0:0:0:
345,35,52454,5,0,0:0:0:0:
436,10,52627,1,0,0:0:0:0:
388,195,52799,5,0,0:0:0:0:
320,128,52972,1,0,0:0:0:0:
504,77,53144,5,0,0:0:0:0:
480,169,53317,1,0,0:0:0:0:
337,28,53489,5,0,0:0:0:0:
437,0,53662,1,0,0:0:0:0:
304,118,53834,5,2,0:0:0:0:
287,111,54006,1,0,0:0:0:0:
168,180,54178,5,2,0:0:0:0:
151,187,54350,1,0,0:0:0:0:
314,263,54523,5,2,0:0:0:0:
331,256,54695,1,0,0:0:0:0:
196,328,54868,5,2,0:0:0:0:
179,321,55040,1,0,0:0:0:0:
256,192,55213,5,0,0:0:0:0:
199,145,56075,2,0,L|166:151,2,25.4999992218018,2|2|2,0:0|0:0|0:0,0:0:0:0:
164,134,57454,2,0,L|131:128,2,25.4999992218018,2|2|2,0:0|0:0|0:0,0:0:0:0:
115,149,58834,2,0,L|111:181,2,25.4999992218018,2|2|2,0:0|0:0|0:0,0:0:0:0:
64,90,60213,2,0,L|60:58,2,25.4999992218018,2|2|2,0:0|0:0|0:0,0:0:0:0:
10,171,60730,5,0,0:0:0:0:
10,171,61075,1,0,0:0:0:0:
10,171,61420,1,0,0:0:0:0:
44,247,61592,5,0,0:0:0:0:
116,217,61765,2,0,L|145:209,1,25.4999992218018,2|2,0:0|0:0,0:0:0:0:
218,276,62109,5,0,0:0:0:0:
218,276,62454,1,0,0:0:0:0:
218,276,62799,1,0,0:0:0:0:
282,224,62972,5,0,0:0:0:0:
346,272,63144,2,0,L|379:277,1,25.4999992218018,2|2,0:0|0:0,0:0:0:0:
457,204,63489,5,0,0:0:0:0:
452,189,63834,1,0,0:0:0:0:
457,204,64178,1,0,0:0:0:0:
469,110,64351,5,0,0:0:0:0:
488,19,64523,2,0,L|457:27,1,25.4999992218018,2|2,0:0|0:0,0:0:0:0:
371,83,64868,5,0,0:0:0:0:
351,68,65213,1,0,0:0:0:0:
371,83,65558,1,0,0:0:0:0:
278,107,65730,5,0,0:0:0:0:
180,134,65903,2,0,L|152:128,1,25.4999992218018,2|2,0:0|0:0,0:0:0:0:
52,78,66247,6,0,L|44:27,1,42.5
65,148,66592,2,0,L|73:97,1,42.5
2,192,66937,1,0,0:0:0:0:
69,268,67109,5,2,0:0:0:0:
136,244,67282,1,2,0:0:0:0:
203,220,67454,1,2,0:0:0:0:
305,267,67627,6,0,L|297:318,1,42.5
318,197,67972,2,0,L|326:248,1,42.5
255,153,68317,1,0,0:0:0:0:
317,72,68489,5,2,0:0:0:0:
384,96,68662,1,2,0:0:0:0:
451,120,68834,1,2,0:0:0:0:
307,57,69006,6,0,L|263:63,1,42.5
193,95,69351,2,0,L|149:89,1,42.5
93,34,69696,1,0,0:0:0:0:
47,125,69868,5,2,0:0:0:0:
60,194,70041,1,2,0:0:0:0:
73,264,70213,1,2,0:0:0:0:
147,347,70385,6,0,L|191:341,1,42.5
261,309,70730,2,0,L|305:315,1,42.5
361,370,71075,1,0,0:0:0:0:
407,279,71247,5,2,0:0:0:0:
394,210,71420,1,2,0:0:0:0:
381,140,71592,1,2,0:0:0:0:
426,44,71765,5,0,0:0:0:0:
444,34,71937,1,0,0:0:0:0:
467,40,72109,1,0,0:0:0:0:
486,50,72282,1,0,0:0:0:0:
506,41,72454,1,0,0:0:0:0:
459,134,72627,5,0,0:0:0:0:
356,69,72799,1,2,0:0:0:0:
337,82,72972,1,2,0:0:0:0:
216,67,73144,5,0,0:0:0:0:
205,47,73316,1,0,0:0:0:0:
148,101,73489,1,0,0:0:0:0:
126,94,73661,1,0,0:0:0:0:
214,32,73834,1,0,0:0:0:0:
222,154,74006,5,0,0:0:0:0:
101,175,74178,1,2,0:0:0:0:
80,180,74351,1,2,0:0:0:0:
95,315,74523,5,0,0:0:0:0:
126,305,74696,1,0,0:0:0:0:
145,323,74868,1,0,0:0:0:0:
167,354,75041,1,0,0:0:0:0:
227,352,75213,1,0,0:0:0:0:
272,246,75385,5,0,0:0:0:0:
387,298,75558,1,2,0:0:0:0:
406,290,75730,1,2,0:0:0:0:
507,161,75903,5,0,0:0:0:0:
469,149,76076,1,0,0:0:0:0:
447,170,76248,1,0,0:0:0:0:
420,207,76421,1,0,0:0:0:0:
348,205,76593,1,0,0:0:0:0:
281,115,76765,5,0,0:0:0:0:
367,9,76937,1,2,0:0:0:0:
389,20,77109,1,2,0:0:0:0:
228,52,77282,6,0,P|197:46|159:38,1,59.4999981842042,2|0,0:0|0:0,0:0:0:0:
119,97,77627,1,0,0:0:0:0:
119,97,77799,2,0,P|88:106|55:112,1,59.4999981842042,2|0,0:0|0:0,0:0:0:0:
183,148,78144,2,0,L|190:220,1,59.4999981842042,2|0,0:0|0:0,0:0:0:0:
110,301,78489,2,0,L|117:229,1,59.4999981842042,2|0,0:0|0:0,0:0:0:0:
194,137,78834,2,0,L|201:209,1,59.4999981842042,2|0,0:0|0:0,0:0:0:0:
259,250,79178,1,2,0:0:0:0:
314,207,79351,1,2,0:0:0:0:
357,205,79523,1,2,0:0:0:0:
384,216,79696,1,2,0:0:0:0:
399,231,79868,1,0,0:0:0:0:
483,197,80041,5,2,0:0:0:0:
483,197,80213,1,0,0:0:0:0:
388,128,80385,1,0,0:0:0:0:
388,128,80558,1,0,0:0:0:0:
495,80,80730,1,0,0:0:0:0:
495,80,80903,1,0,0:0:0:0:
367,134,81075,5,0,0:0:0:0:
266,35,81247,1,2,0:0:0:0:
266,35,81592,5,0,0:0:0:0:
244,57,81765,1,0,0:0:0:0:
215,45,81937,1,0,0:0:0:0:
136,145,82109,5,2,0:0:0:0:
23,40,82282,1,0,0:0:0:0:
117,53,82454,5,2,0:0:0:0:
46,130,82627,1,0,0:0:0:0:
88,246,82799,5,2,0:0:0:0:
106,231,82972,1,0,0:0:0:0:
119,357,83144,5,0,0:0:0:0:
79,340,83317,1,0,0:0:0:0:
193,253,83489,5,0,0:0:0:0:
201,324,83662,1,0,0:0:0:0:
181,244,83834,5,0,0:0:0:0:
252,143,84006,1,2,0:0:0:0:
252,143,84351,5,0,0:0:0:0:
269,153,84523,1,0,0:0:0:0:
286,143,84696,1,0,0:0:0:0:
311,70,84868,1,0,0:0:0:0:
382,57,85041,1,0,0:0:0:0:
446,4,85213,1,0,0:0:0:0:
512,57,85385,1,0,0:0:0:0:
451,147,85558,5,2,0:0:0:0:
451,147,85903,1,0,0:0:0:0:
406,204,86075,1,0,0:0:0:0:
512,299,86247,1,0,0:0:0:0:
482,224,86419,1,0,0:0:0:0:
333,279,86592,1,0,0:0:0:0:
427,292,86764,1,2,0:0:0:0:
427,292,87109,5,0,0:0:0:0:
320,263,87282,1,0,0:0:0:0:
270,336,87454,1,0,0:0:0:0:
108,291,87627,5,2,0:0:0:0:
108,291,87799,1,0,0:0:0:0:
108,291,87972,1,0,0:0:0:0:
108,291,88144,1,0,0:0:0:0:
178,239,88316,6,0,P|189:156|194:98,1,136,2|0,0:0|0:0,0:0:0:0:
312,39,88834,2,0,P|287:69|267:111,1,68,2|0,0:0|0:0,0:0:0:0:
100,5,89178,2,0,P|112:41|116:88,1,68,2|0,0:0|0:0,0:0:0:0:
326,39,89523,2,0,P|301:69|281:111,1,68,2|0,0:0|0:0,0:0:0:0:
45,202,89868,2,0,P|57:165|61:118,1,68,2|0,0:0|0:0,0:0:0:0:
114,275,90213,5,2,0:0:0:0:
199,235,90385,1,2,0:0:0:0:
281,270,90558,1,2,0:0:0:0:
304,347,90730,1,2,0:0:0:0:
295,382,90903,1,0,0:0:0:0:
207,320,91075,5,2,0:0:0:0:
151,167,91247,1,0,0:0:0:0:
157,256,91420,5,0,0:0:0:0:
213,103,91592,1,0,0:0:0:0:
151,167,91765,5,0,0:0:0:0:
300,101,91937,1,0,0:0:0:0:
213,103,92109,5,0,0:0:0:0:
357,192,92282,1,2,0:0:0:0:
357,192,92627,5,0,0:0:0:0:
399,10,92799,1,0,0:0:0:0:
357,192,92972,1,0,0:0:0:0:
402,328,93144,5,2,0:0:0:0:
495,289,93316,1,0,0:0:0:0:
407,311,93489,1,2,0:0:0:0:
476,281,93661,1,0,0:0:0:0:
327,270,93834,5,2,0:0:0:0:
261,235,94006,1,0,0:0:0:0:
172,376,94178,5,0,0:0:0:0:
260,320,94350,1,0,0:0:0:0:
181,139,94523,5,0,0:0:0:0:
186,274,94695,1,0,0:0:0:0:
193,127,94868,5,0,0:0:0:0:
31,62,95041,1,2,0:0:0:0:
31,62,95385,5,0,0:0:0:0:
1,160,95558,1,0,0:0:0:0:
83,220,95730,1,0,0:0:0:0:
105,137,95903,5,0,0:0:0:0:
98,115,96075,1,0,0:0:0:0:
152,41,96247,5,0,0:0:0:0:
156,27,96419,1,0,0:0:0:0:
75,236,96592,5,2,0:0:0:0:
75,236,96937,1,0,0:0:0:0:
207,322,97109,1,0,0:0:0:0:
260,261,97282,1,0,0:0:0:0:
383,267,97454,1,0,0:0:0:0:
408,192,97627,1,0,0:0:0:0:
495,146,97799,1,2,0:0:0:0:
512,162,97972,6,0,P|506:193|502:237,1,68
475,250,98316,2,0,P|481:281|485:325,1,68
420,360,98661,6,0,L|374:353,3,42.5,2|0|0|0,0:0|0:0|0:0|0:0,0:0:0:0:
423,298,104868,6,0,P|388:312|366:334,1,68,0|0,3:0|0:0,0:0:0:0:
290,293,105041,2,0,P|276:258|254:236,1,68,0|0,3:0|0:0,0:0:0:0:
295,160,105213,2,0,P|330:146|352:124,1,68,0|0,3:0|0:0,0:0:0:0:
428,165,105385,2,0,P|442:200|464:222,1,68,0|0,3:0|0:0,0:0:0:0:
423,298,105558,6,0,P|388:312|366:334,1,68,0|0,3:0|0:0,0:0:0:0:
290,293,105731,2,0,P|276:258|254:236,1,68,0|0,3:0|0:0,0:0:0:0:
295,160,105903,2,0,P|330:146|352:124,1,68,0|0,3:0|0:0,0:0:0:0:
428,165,106075,2,0,P|442:200|464:222,1,68,0|0,3:0|0:0,0:0:0:0:
462,239,106247,6,0,P|444:211|438:177,1,68,0|0,3:0|0:0,0:0:0:0:
369,125,106419,2,0,P|341:143|307:149,1,68,0|0,3:0|0:0,0:0:0:0:
255,218,106591,2,0,P|273:246|279:280,1,68,0|0,3:0|0:0,0:0:0:0:
348,332,106765,2,0,P|376:314|410:308,1,68,0|0,3:0|0:0,0:0:0:0:
462,239,106937,6,0,P|444:211|438:177,1,68,0|0,3:0|0:0,0:0:0:0:
369,125,107109,2,0,P|341:143|307:149,1,68,0|0,3:0|0:0,0:0:0:0:
255,218,107281,2,0,P|273:246|279:280,1,68,0|0,3:0|0:0,0:0:0:0:
348,332,107454,2,0,P|376:314|410:308,1,68,0|0,3:0|0:0,0:0:0:0:
395,315,107627,6,0,P|357:316|329:330,1,68,0|0,3:0|0:0,0:0:0:0:
272,265,107800,2,0,P|271:227|257:199,1,68,0|0,3:0|0:0,0:0:0:0:
322,142,107972,2,0,P|360:141|388:127,1,68,0|0,3:0|0:0,0:0:0:0:
445,192,108144,2,0,P|446:230|460:258,1,68,0|0,3:0|0:0,0:0:0:0:
395,315,108317,6,0,P|357:316|329:330,1,68,0|0,3:0|0:0,0:0:0:0:
272,265,108490,2,0,P|271:227|257:199,1,68,0|0,3:0|0:0,0:0:0:0:
322,142,108662,2,0,P|360:141|388:127,1,68,0|0,3:0|0:0,0:0:0:0:
445,192,108834,2,0,P|446:230|460:258,1,68,0|0,3:0|0:0,0:0:0:0:
452,274,109006,6,0,P|445:241|450:208,1,68,0|0,3:0|0:0,0:0:0:0:
404,135,109178,2,0,P|371:142|338:137,1,68,0|0,3:0|0:0,0:0:0:0:
265,183,109350,2,0,P|272:216|267:249,1,68,0|0,3:0|0:0,0:0:0:0:
313,322,109523,2,0,P|346:315|379:320,1,68,0|0,3:0|0:0,0:0:0:0:
452,274,109696,6,0,P|445:241|450:208,1,68,0|0,3:0|0:0,0:0:0:0:
404,135,109868,2,0,P|371:142|338:137,1,68,0|0,3:0|0:0,0:0:0:0:
265,183,110040,2,0,P|272:216|267:249,1,68,0|0,3:0|0:0,0:0:0:0:
313,322,110213,2,0,P|346:315|379:320,1,68,0|0,3:0|0:0,0:0:0:0:
306,337,110385,5,0,3:0:0:0:
291,343,110558,1,0,3:0:0:0:
276,349,110730,1,0,3:0:0:0:
261,355,110903,1,0,3:0:0:0:
246,361,111075,1,0,3:0:0:0:
156,325,111247,5,0,3:0:0:0:
167,212,111420,5,0,3:0:0:0:
179,217,111592,1,0,3:0:0:0:
160,225,111765,5,0,3:0:0:0:
145,231,111938,1,0,3:0:0:0:
130,237,112110,1,0,3:0:0:0:
115,243,112283,1,0,3:0:0:0:
100,249,112455,1,0,3:0:0:0:
10,213,112627,5,0,3:0:0:0:
21,100,112800,5,0,3:0:0:0:
33,105,112972,1,0,3:0:0:0:
46,99,113144,5,0,3:0:0:0:
52,84,113317,1,0,3:0:0:0:
58,69,113489,1,0,3:0:0:0:
64,54,113662,1,0,3:0:0:0:
70,39,113834,1,0,3:0:0:0:
155,84,114006,5,0,3:0:0:0:
261,52,114178,5,0,3:0:0:0:
263,38,114351,1,0,3:0:0:0:
254,52,114523,5,0,3:0:0:0:
260,67,114696,1,0,3:0:0:0:
266,82,114868,1,0,3:0:0:0:
272,97,115041,1,0,3:0:0:0:
278,112,115213,1,0,3:0:0:0:
365,70,115385,5,0,3:0:0:0:
461,125,115558,5,0,3:0:0:0:
457,138,115730,1,0,3:0:0:0:
504,256,115903,6,0,P|446:239|388:231,1,68,4|0,3:0|0:0,0:0:0:0:
341,344,116075,1,4,3:0:0:0:
341,344,116247,6,0,P|399:327|457:319,1,68,4|0,3:0|0:0,0:0:0:0:
293,247,116420,1,4,3:0:0:0:
293,247,116592,6,0,P|235:230|177:222,1,68,4|0,3:0|0:0,0:0:0:0:
154,349,116765,1,4,3:0:0:0:
154,349,116937,6,0,P|212:332|270:324,1,68,4|0,3:0|0:0,0:0:0:0:
113,251,117109,1,4,3:0:0:0:
113,251,117282,6,0,L|96:170,1,68,4|0,3:0|0:0,0:0:0:0:
195,83,117454,1,4,3:0:0:0:
195,83,117627,6,0,L|178:164,1,68,4|0,3:0|0:0,0:0:0:0:
113,251,117799,1,4,3:0:0:0:
113,251,117972,6,0,L|96:170,1,68,4|0,3:0|0:0,0:0:0:0:
195,83,118144,1,4,3:0:0:0:
195,83,118317,6,0,L|178:164,1,68,4|0,3:0|0:0,0:0:0:0:
291,224,118489,1,4,3:0:0:0:
291,224,118661,6,0,P|321:216|382:209,1,68,4|0,3:0|0:0,0:0:0:0:
310,349,118834,1,4,3:0:0:0:
310,349,119006,6,0,P|288:327|251:277,1,68,4|0,3:0|0:0,0:0:0:0:
409,271,119178,1,4,3:0:0:0:
409,271,119351,6,0,P|400:300|376:357,1,68,4|0,3:0|0:0,0:0:0:0:
291,224,119523,1,4,3:0:0:0:
291,224,119695,6,0,P|321:216|382:209,1,68,4|0,3:0|0:0,0:0:0:0:
465,145,119868,1,4,3:0:0:0:
465,145,120040,6,0,P|433:143|373:131,1,68,4|0,3:0|0:0,0:0:0:0:
485,20,120213,1,4,3:0:0:0:
485,20,120385,6,0,P|499:47|518:105,1,68,4|0,3:0|0:0,0:0:0:0:
367,63,120557,1,4,3:0:0:0:
367,63,120730,6,0,P|383:36|424:-9,1,68,4|0,3:0|0:0,0:0:0:0:
465,145,120902,1,4,3:0:0:0:
465,145,121074,6,0,P|433:143|373:131,1,68,4|0,3:0|0:0,0:0:0:0:
281,69,121247,1,4,3:0:0:0:
281,69,121420,6,0,B|221:85|248:53|176:77,1,101.999996887207,4|4,3:0|3:0,0:0:0:0:
40,211,121765,1,4,3:0:0:0:
40,211,121937,1,4,3:0:0:0:
4,110,122109,6,0,P|67:103|77:69,1,101.999996887207,4|4,3:0|3:0,0:0:0:0:
179,164,122454,2,0,L|168:280,1,101.999996887207,4|4,3:0|3:0,0:0:0:0:
82,375,122799,6,0,P|54:338|90:295,1,101.999996887207,4|4,3:0|3:0,0:0:0:0:
209,356,123144,2,0,L|339:336,1,101.999996887207,4|4,3:0|3:0,0:0:0:0:
420,376,123489,6,0,L|296:349,1,101.999996887207,4|4,3:0|3:0,0:0:0:0:
208,158,123834,1,8,0:0:0:0:
235,203,123920,1,8,0:0:0:0:
276,170,124006,1,8,0:0:0:0:
307,208,124092,1,8,0:0:0:0:
347,183,124178,5,8,0:0:0:0:
367,211,124265,1,8,0:0:0:0:
386,197,124351,1,0,3:0:0:0:
395,207,124437,1,0,3:0:0:0:
401,203,124523,2,0,L|435:184,1,34,0|0,3:0|3:0,0:0:0:0:
218,47,124696,5,8,0:0:0:0:
183,83,124782,1,8,0:0:0:0:
144,64,124868,1,0,3:0:0:0:
115,92,124954,1,0,3:0:0:0:
91,83,125041,2,0,L|47:71,1,34,0|0,3:0|3:0,0:0:0:0:
0,250,125213,5,8,0:0:0:0:
12,325,125299,1,8,0:0:0:0:
56,355,125385,1,0,3:0:0:0:
102,345,125472,1,0,3:0:0:0:
130,316,125558,2,0,L|142:259,1,34,0|0,3:0|3:0,0:0:0:0:
278,290,125730,5,8,0:0:0:0:
290,215,125816,1,8,0:0:0:0:
334,185,125902,1,0,3:0:0:0:
380,195,125989,1,0,3:0:0:0:
408,224,126075,2,0,L|420:281,1,34,0|0,3:0|3:0,0:0:0:0:
496,157,126247,5,8,0:0:0:0:
511,84,126334,1,8,0:0:0:0:
497,164,126592,5,8,0:0:0:0:
512,91,126679,1,8,0:0:0:0:
508,357,126937,6,0,L|307:319,1,152.999995330811,4|0,3:2|0:0,0:0:0:0:
131,366,127282,1,8,0:0:0:0:
178,302,127454,5,2,0:0:0:0:
168,261,127541,1,8,0:0:0:0:
54,117,127713,1,8,0:0:0:0:
66,21,127799,1,2,3:2:0:0:
0,205,127972,5,8,0:0:0:0:
0,205,128144,1,0,0:0:0:0:
159,88,128316,6,0,B|196:68|196:68|335:111|335:111|393:86,1,229.499992996216,0|0,3:0|0:0,0:0:0:0:
475,18,128661,2,0,L|443:181,1,152.999995330811,8|2,0:0|0:0,0:0:0:0:
500,119,128920,1,8,0:0:0:0:
380,280,129092,1,8,0:0:0:0:
457,350,129178,1,2,0:0:0:0:
428,156,129351,5,8,0:0:0:0:
428,156,129523,1,0,0:0:0:0:
304,350,129696,6,0,P|235:331|149:320,1,152.999995330811,0|0,3:0|0:0,0:0:0:0:
336,126,130041,1,8,0:0:0:0:
274,75,130213,5,2,0:0:0:0:
233,87,130299,1,8,0:0:0:0:
98,234,130472,1,8,0:0:0:0:
4,203,130559,1,2,3:2:0:0:
4,13,130730,5,8,0:0:0:0:
4,13,130903,1,0,0:0:0:0:
191,10,131075,6,0,P|278:106|233:220,1,229.499992996216,0|0,3:0|0:0,0:0:0:0:
359,116,131420,2,0,P|436:96|508:85,1,152.999995330811,8|2,0:0|0:0,0:0:0:0:
445,52,131678,1,8,0:0:0:0:
348,235,131851,1,8,0:0:0:0:
444,286,131937,1,2,0:0:0:0:
250,185,132109,5,8,0:0:0:0:
182,223,132282,2,0,L|123:214,1,42.5,0|0,3:0|0:0,0:0:0:0:
20,125,132454,6,0,P|92:62|228:63,1,204,0|0,3:0|0:0,0:0:0:0:
261,97,132799,1,8,0:0:0:0:
410,32,132972,1,2,0:0:0:0:
414,59,133058,1,8,0:0:0:0:
387,87,133144,1,2,0:0:0:0:
382,119,133230,1,8,0:0:0:0:
417,153,133316,1,2,3:2:0:0:
263,234,133489,6,0,L|220:216,1,42.5,8|0,0:0|0:0,0:0:0:0:
269,243,133661,2,0,L|312:225,1,42.5
493,330,133834,6,0,B|430:288|430:288|273:333,1,204,0|0,3:0|0:0,0:0:0:0:
256,384,134178,1,8,0:0:0:0:
144,265,134351,1,2,0:0:0:0:
117,269,134437,1,8,0:0:0:0:
89,242,134523,1,2,0:0:0:0:
57,237,134609,1,8,0:0:0:0:
23,272,134695,1,2,0:0:0:0:
135,123,134868,6,0,L|144:166,1,42.5,8|0,0:0|0:0,0:0:0:0:
164,136,135041,2,0,L|155:179,1,42.5
4,47,135213,5,0,3:0:0:0:
4,47,135385,2,0,P|35:34|74:26,1,68
260,200,135558,2,0,P|336:217|392:218,1,68,8|0,0:0|0:0,0:0:0:0:
512,34,135730,5,2,0:0:0:0:
461,40,135816,1,8,0:0:0:0:
410,47,135902,1,2,0:0:0:0:
360,53,135988,1,8,0:0:0:0:
309,60,136074,1,2,3:2:0:0:
96,259,136247,1,8,0:0:0:0:
23,169,136420,5,2,0:0:0:0:
63,173,136506,1,8,0:0:0:0:
105,179,136592,1,2,0:0:0:0:
146,184,136678,1,8,0:0:0:0:
188,190,136764,1,2,3:2:0:0:
379,368,136937,1,8,0:0:0:0:
429,271,137110,5,2,0:0:0:0:
396,273,137196,1,8,0:0:0:0:
364,279,137282,1,2,0:0:0:0:
331,282,137368,1,8,0:0:0:0:
299,286,137454,1,2,3:2:0:0:
110,364,137627,5,8,0:0:0:0:
116,384,137799,1,0,3:0:0:0:
273,199,137972,6,0,B|256:146|256:146|273:106|273:106|256:40,1,152.999995330811,4|0,3:2|0:0,0:0:0:0:
211,278,138316,1,8,0:0:0:0:
272,331,138489,5,2,0:0:0:0:
310,314,138575,1,8,0:0:0:0:
424,155,138747,1,8,0:0:0:0:
512,195,138834,1,2,3:2:0:0:
289,211,139006,5,8,0:0:0:0:
289,211,139178,1,0,0:0:0:0:
143,39,139351,6,0,P|62:50|52:185,1,229.499992996216,0|0,3:0|0:0,0:0:0:0:
0,294,139696,2,0,B|82:248|71:318|166:275,1,152.999995330811,8|2,0:0|0:0,0:0:0:0:
89,330,139954,1,8,0:0:0:0:
207,191,140127,1,8,0:0:0:0:
131,129,140213,1,2,0:0:0:0:
191,350,140385,5,8,0:0:0:0:
191,350,140558,1,0,0:0:0:0:
414,282,140730,6,0,L|384:97,1,152.999995330811,0|0,3:0|0:0,0:0:0:0:
341,357,141075,1,8,0:0:0:0:
295,278,141247,5,2,0:0:0:0:
287,236,141334,1,8,0:0:0:0:
485,170,141506,1,8,0:0:0:0:
502,73,141593,1,2,3:2:0:0:
322,1,141765,5,8,0:0:0:0:
322,1,141937,1,0,0:0:0:0:
390,181,142109,6,0,B|318:203|318:203|253:188|253:188|162:217,1,229.499992996216,0|0,3:0|0:0,0:0:0:0:
58,140,142454,2,0,L|102:302,1,152.999995330811,8|2,0:0|0:0,0:0:0:0:
55,231,142713,1,8,0:0:0:0:
201,356,142885,1,8,0:0:0:0:
261,276,142971,1,2,0:0:0:0:
103,384,143144,5,8,0:0:0:0:
36,341,143316,2,0,L|-14:334,1,42.5,0|0,3:0|0:0,0:0:0:0:
178,228,143489,6,0,P|196:129|200:22,1,204,0|0,3:0|0:0,0:0:0:0:
126,0,143834,1,8,0:0:0:0:
270,146,144006,1,2,0:0:0:0:
293,123,144092,1,8,0:0:0:0:
342,124,144178,1,2,0:0:0:0:
382,164,144265,1,8,0:0:0:0:
449,151,144351,1,2,0:0:0:0:
412,11,144523,6,0,L|364:-3,1,42.5,8|0,0:0|0:0,0:0:0:0:
423,23,144696,2,0,L|471:9,1,42.5
277,152,144868,6,0,L|291:365,1,204,0|0,3:0|0:0,0:0:0:0:
363,384,145213,1,8,0:0:0:0:
206,264,145385,1,2,0:0:0:0:
183,287,145471,1,8,0:0:0:0:
134,286,145557,1,2,0:0:0:0:
94,246,145644,1,8,0:0:0:0:
27,259,145730,1,2,3:2:0:0:
159,185,145903,6,0,L|174:132,1,42.5,8|0,0:0|0:0,0:0:0:0:
149,125,146075,2,0,L|134:72,1,42.5
341,7,146247,5,0,3:0:0:0:
341,7,146420,2,0,B|353:22|353:22|341:83,1,68
498,174,146592,2,0,B|486:189|486:189|498:250,1,68,8|0,0:0|0:0,0:0:0:0:
352,361,146765,5,2,0:0:0:0:
307,336,146851,1,8,0:0:0:0:
280,294,146937,1,2,0:0:0:0:
278,243,147023,1,8,0:0:0:0:
300,198,147109,1,2,0:0:0:0:
106,6,147282,1,8,0:0:0:0:
184,57,147454,5,2,0:0:0:0:
202,94,147540,1,8,0:0:0:0:
200,137,147626,1,2,0:0:0:0:
178,172,147712,1,8,0:0:0:0:
140,193,147798,1,2,0:0:0:0:
363,352,147972,1,8,0:0:0:0:
468,251,148144,5,0,3:0:0:0:
468,251,148230,1,8,0:0:0:0:
468,251,148316,1,8,0:0:0:0:
429,197,148403,1,8,0:0:0:0:
356,168,148489,1,8,0:0:0:0:
275,189,148575,1,8,0:0:0:0:
220,263,148661,1,0,3:0:0:0:
163,319,148747,1,0,3:0:0:0:
116,340,148834,1,0,3:0:0:0:
89,334,148920,1,0,3:0:0:0:
99,239,149006,6,0,P|206:215|315:286,1,242.249993531227,4|0,3:2|0:0,0:0:0:0:
472,234,149351,1,8,0:0:0:0:
217,81,149523,6,0,L|191:4,1,80.7499978437424,2|8,0:0|0:0,0:0:0:0:
329,122,149696,1,2,0:0:0:0:
426,82,149782,1,8,0:0:0:0:
485,133,149868,2,0,L|408:107,1,80.7499978437424,2|0,3:2|0:0,0:0:0:0:
179,254,150041,1,8,0:0:0:0:
179,254,150213,2,0,L|76:282,1,80.7499978437424,2|0,0:0|0:0,0:0:0:0:
3,79,150385,5,0,3:0:0:0:
0,98,150558,2,0,P|38:107|104:114,1,80.7499978437424,2|0,0:0|0:0,0:0:0:0:
336,0,150730,1,8,0:0:0:0:
431,139,150903,6,0,P|387:146|316:168,1,80.7499978437424,2|8,0:0|0:0,0:0:0:0:
313,238,151075,2,0,P|284:209|259:177,1,80.7499978437424,2|8,0:0|0:0,0:0:0:0:
216,94,151247,2,0,P|187:122|162:154,1,80.7499978437424,2|0,0:0|0:0,0:0:0:0:
72,291,151420,6,0,L|15:284,1,50.9999984436036,8|0,0:0|0:0,0:0:0:0:
68,303,151592,2,0,L|11:296,1,50.9999984436036
70,16,151765,6,0,B|94:186|137:60|150:243,1,242.249993531227,2|0,3:2|0:0,0:0:0:0:
28,143,152109,2,0,P|4:157|0:213,1,80.7499978437424,10|0,0:0|0:0,0:0:0:0:
164,48,152282,1,2,0:0:0:0:
237,18,152368,1,8,0:0:0:0:
318,52,152454,1,2,0:0:0:0:
366,117,152541,1,8,0:0:0:0:
438,137,152627,6,0,P|470:123|525:104,1,80.7499978437424,2|0,3:2|0:0,0:0:0:0:
266,203,152799,2,0,P|256:162|244:119,1,80.7499978437424,10|0,0:0|0:0,0:0:0:0:
502,7,152972,6,0,P|471:114|440:241,1,242.249993531227,2|0,0:0|0:0,0:0:0:0:
507,383,153316,2,0,P|515:350|517:300,1,80.7499978437424,2|0,0:0|0:0,0:0:0:0:
316,332,153489,2,0,L|222:317,1,80.7499978437424,10|0,0:0|0:0,0:0:0:0:
147,140,153661,1,2,0:0:0:0:
78,178,153747,1,8,0:0:0:0:
12,136,153834,6,0,P|54:141|95:161,1,80.7499978437424,2|8,0:0|0:0,0:0:0:0:
236,14,154006,2,0,P|199:30|159:34,1,80.7499978437424,2|0,0:0|0:0,0:0:0:0:
246,204,154178,6,0,L|265:144,1,50.9999984436036,10|0,0:2|0:0,0:0:0:0:
254,212,154351,2,0,L|273:152,1,50.9999984436036,2|0,3:2|0:0,0:0:0:0:
7,325,154523,6,0,B|94:307|94:307|162:328|162:328|280:304,1,242.249993531227,0|0,3:2|0:0,0:0:0:0:
388,380,154868,2,0,L|375:280,1,80.7499978437424,10|0,0:0|0:0,0:0:0:0:
482,144,155041,1,2,0:0:0:0:
447,72,155127,1,8,0:0:0:0:
492,0,155213,2,0,L|467:110,1,80.7499978437424,2|8,0:0|0:0,0:0:0:0:
326,36,155385,6,0,P|334:74|341:138,1,80.7499978437424,2|0,3:2|0:0,0:0:0:0:
480,314,155558,2,0,P|481:273|495:212,1,80.7499978437424,10|0,0:0|0:0,0:0:0:0:
261,174,155730,6,0,B|122:240|187:119|20:194,1,242.249993531227,2|0,0:0|0:0,0:0:0:0:
124,327,156075,2,0,P|171:292|176:251,1,80.7499978437424,2|0,0:0|0:0,0:0:0:0:
199,40,156247,2,0,P|246:75|251:116,1,80.7499978437424,10|0,0:0|0:0,0:0:0:0:
356,263,156420,1,2,0:0:0:0:
420,215,156506,1,8,0:0:0:0:
495,264,156592,6,0,P|458:250|413:242,1,80.7499978437424,2|8,0:0|0:0,0:0:0:0:
292,375,156765,2,0,P|331:367|369:353,1,80.7499978437424,2|0,0:0|0:0,0:0:0:0:
360,135,156937,6,0,L|375:67,1,50.9999984436036,10|0,0:0|0:0,0:0:0:0:
352,129,157109,2,0,L|367:61,1,50.9999984436036,2|0,0:0|0:0,0:0:0:0:
130,92,157282,6,0,P|31:139|40:272,1,242.249993531227,2|0,3:2|0:0,0:0:0:0:
178,197,157627,2,0,P|214:188|282:182,1,80.7499978437424,10|0,0:0|0:0,0:0:0:0:
503,200,157799,5,2,0:0:0:0:
500,279,157885,1,8,0:0:0:0:
448,339,157971,1,2,0:0:0:0:
369,352,158057,1,8,0:0:0:0:
300,312,158144,2,0,P|312:272|330:231,1,80.7499978437424,2|0,3:2|0:0,0:0:0:0:
136,77,158316,2,0,P|124:38|108:1,1,80.7499978437424,8|0,0:0|0:0,0:0:0:0:
18,245,158489,5,2,0:0:0:0:
72,213,158576,1,8,0:0:0:0:
134,223,158662,1,2,0:0:0:0:
175,270,158748,1,8,0:0:0:0:
178,333,158834,2,0,L|92:363,1,80.7499978437424,2|0,3:2|0:0,0:0:0:0:
327,224,159006,2,0,L|413:254,1,80.7499978437424,8|0,0:0|0:0,0:0:0:0:
224,117,159178,5,2,0:0:0:0:
247,43,159265,1,8,0:0:0:0:
341,21,159351,6,0,P|380:8|429:3,1,80.7499978437424,2|8,0:0|0:0,0:0:0:0:
392,108,159523,2,0,P|433:105|481:113,1,80.7499978437424,2|0,0:0|0:0,0:0:0:0:
147,31,159696,6,0,P|106:24|57:26,1,80.7499978437424,8|0,0:2|0:0,0:0:0:0:
110,124,159868,2,0,P|68:127|21:143,1,80.7499978437424,2|0,3:2|0:0,0:0:0:0:
244,302,160041,6,0,P|331:270|432:380,1,242.249993531227,4|0,3:2|0:0,0:0:0:0:
512,233,160385,1,8,0:0:0:0:
253,114,160558,6,0,L|264:193,1,80.7499978437424,2|8,0:0|0:0,0:0:0:0:
135,336,160730,1,2,0:0:0:0:
65,281,160816,1,8,0:0:0:0:
4,330,160903,2,0,L|83:303,1,80.7499978437424,2|0,3:2|0:0,0:0:0:0:
158,48,161075,1,8,0:0:0:0:
158,48,161247,2,0,L|139:145,1,80.7499978437424,2|0,0:0|0:0,0:0:0:0:
340,27,161420,5,0,3:0:0:0:
356,39,161592,2,0,P|398:39|475:61,1,80.7499978437424,2|0,0:0|0:0,0:0:0:0:
302,299,161765,1,8,0:0:0:0:
434,224,161937,6,0,P|388:191|341:164,1,80.7499978437424,2|8,0:0|0:0,0:0:0:0:
298,100,162109,2,0,P|265:146|238:193,1,80.7499978437424,2|8,0:0|0:0,0:0:0:0:
149,207,162282,2,0,P|182:253|209:300,1,80.7499978437424,2|0,0:0|0:0,0:0:0:0:
57,150,162454,6,0,L|-10:133,1,50.9999984436036,8|0,0:0|0:0,0:0:0:0:
51,159,162627,2,0,L|-16:142,1,50.9999984436036
165,352,162799,6,0,P|256:294|413:307,1,242.249993531227,2|0,3:2|0:0,0:0:0:0:
260,184,163144,2,0,P|236:148|200:98,1,80.7499978437424,10|0,0:0|0:0,0:0:0:0:
395,7,163316,1,2,0:0:0:0:
455,57,163403,1,8,0:0:0:0:
466,147,163489,1,2,0:0:0:0:
413,207,163575,1,8,0:0:0:0:
397,285,163661,6,0,P|424:323|456:366,1,80.7499978437424,2|0,3:2|0:0,0:0:0:0:
396,110,163834,2,0,L|303:129,1,80.7499978437424,10|0,0:0|0:0,0:0:0:0:
27,171,164006,6,0,L|269:198,1,242.249993531227,2|0,0:0|0:0,0:0:0:0:
128,94,164351,2,0,B|106:114|106:114|128:181,1,80.7499978437424,2|0,0:0|0:0,0:0:0:0:
1,303,164523,2,0,B|23:323|23:323|1:390,1,80.7499978437424,10|0,0:0|0:0,0:0:0:0:
199,290,164696,1,2,0:0:0:0:
259,349,164782,1,8,0:0:0:0:
333,322,164868,6,0,P|381:309|443:303,1,80.7499978437424,2|8,0:0|0:0,0:0:0:0:
503,135,165041,2,0,P|463:128|424:117,1,80.7499978437424,2|0,0:0|0:0,0:0:0:0:
236,13,165213,6,0,L|247:86,1,50.9999984436036,10|0,0:2|0:0,0:0:0:0:
244,6,165385,2,0,L|255:79,1,50.9999984436036,2|0,3:2|0:0,0:0:0:0:
181,369,165558,6,0,P|158:266|232:153,1,242.249993531227,0|0,3:2|0:0,0:0:0:0:
363,237,165903,2,0,P|320:225|265:216,1,80.7499978437424,10|0,0:0|0:0,0:0:0:0:
134,104,166075,1,2,0:0:0:0:
82,161,166161,1,8,0:0:0:0:
17,125,166247,2,0,P|56:133|96:136,1,80.7499978437424,2|8,0:0|0:0,0:0:0:0:
221,1,166420,6,0,L|203:111,1,80.7499978437424,2|0,3:2|0:0,0:0:0:0:
53,305,166592,2,0,L|35:195,1,80.7499978437424,10|0,0:0|0:0,0:0:0:0:
292,227,166765,6,0,B|328:201|328:201|465:255|465:255|517:224,1,242.249993531227,2|0,0:0|0:0,0:0:0:0:
425,101,167109,2,0,B|389:85|389:85|326:132,1,80.7499978437424,2|0,0:0|0:0,0:0:0:0:
366,337,167282,2,0,B|330:353|330:353|267:306,1,80.7499978437424,10|0,0:0|0:0,0:0:0:0:
196,152,167454,1,2,0:0:0:0:
253,83,167541,1,8,0:0:0:0:
208,18,167627,6,0,L|231:125,1,80.7499978437424,2|8,0:0|0:0,0:0:0:0:
136,278,167799,2,0,P|118:239|139:201,1,80.7499978437424,2|0,0:0|0:0,0:0:0:0:
53,35,167972,6,0,L|3:51,1,50.9999984436036,10|0,0:0|0:0,0:0:0:0:
48,24,168144,2,0,L|-2:40,1,50.9999984436036,2|0,0:0|0:0,0:0:0:0:
3,364,168316,6,0,P|83:307|226:315,1,242.249993531227,2|0,3:2|0:0,0:0:0:0:
376,236,168661,2,0,P|351:308|352:350,1,80.7499978437424,10|0,0:0|0:0,0:0:0:0:
213,111,168834,5,2,0:0:0:0:
244,38,168920,1,8,0:0:0:0:
314,0,169006,1,2,0:0:0:0:
392,17,169092,1,8,0:0:0:0:
442,79,169179,2,0,P|465:115|484:167,1,80.7499978437424,2|0,3:2|0:0,0:0:0:0:
231,220,169351,2,0,L|131:207,1,80.7499978437424,8|0,0:0|0:0,0:0:0:0:
19,116,169523,5,2,0:0:0:0:
19,116,169609,1,8,0:0:0:0:
77,61,169868,6,0,L|115:68,2,34
189,29,170385,5,0,0:0:0:0:
192,108,170558,1,0,0:0:0:0:
195,187,170730,1,0,0:0:0:0:
198,266,170903,1,0,0:0:0:0:
187,263,171075,5,4,3:0:0:0:
