osu file format v14

[General]
AudioFilename: audio.mp3
AudioLeadIn: 0
PreviewTime: 86929
Countdown: 0
SampleSet: Soft
StackLeniency: 0.7
Mode: 0
LetterboxInBreaks: 0
WidescreenStoryboard: 0

[Editor]
DistanceSpacing: 0.2
BeatDivisor: 4
GridSize: 32
TimelineZoom: 2.2

[Metadata]
Title:First Blush
TitleUnicode:First Blush
Artist:Boxplot
ArtistUnicode:Boxplot
Creator:Dayno
Version:Bloom
Source:
Tags:dnb d&b drum and bass d'n'b electronic dance music edm instrumental fa featured artist Escape with the Clouds
BeatmapID:3968507
BeatmapSetID:1922475

[Difficulty]
HPDrainRate:5.5
CircleSize:4.2
OverallDifficulty:9
ApproachRate:9.3
SliderMultiplier:1.5
SliderTickRate:1

[Events]
//Background and Video events
0,0,"EnQqUniUUAEyFTH.jpg",0,0
//Break Periods
//Storyboard Layer 0 (Background)
//Storyboard Layer 1 (Fail)
//Storyboard Layer 2 (Pass)
//Storyboard Layer 3 (Foreground)
//Storyboard Layer 4 (Overlay)
//Storyboard Sound Samples

[TimingPoints]
187,342.857142857143,4,2,1,50,1,0
22129,-83.3333333333333,4,2,1,60,0,0
44072,-100,4,2,1,50,0,0
46815,-111.111111111111,4,2,1,50,0,0
66015,-142.857142857143,4,2,1,50,0,0
70129,-142.857142857143,4,2,1,55,0,0
87101,-142.857142857143,4,2,1,60,0,0
87272,-83.3333333333333,4,2,1,60,0,0
87615,-83.3333333333333,4,2,1,60,0,0
87958,-62.5,4,2,2,70,0,0
89329,-200,4,2,2,70,0,0
89672,-62.5,4,2,2,70,0,0
92758,-76.9230769230769,4,2,2,70,0,0
93444,-62.5,4,2,2,70,0,0
94815,-100,4,2,2,70,0,0
95329,-83.3333333333333,4,2,2,70,0,0
96015,-62.5,4,2,2,70,0,0
100301,-200,4,2,2,70,0,0
100644,-62.5,4,2,2,70,0,0
103729,-76.9230769230769,4,2,2,70,0,0
104415,-62.5,4,2,2,70,0,0
105958,-100,4,2,2,70,0,0
106301,-83.3333333333333,4,2,2,70,0,0
107158,-100,4,2,2,50,0,0
109901,-62.5,4,2,2,70,0,0
111272,-83.3333333333333,4,2,2,70,0,0
111615,-62.5,4,2,2,70,0,0
114015,-83.3333333333333,4,2,2,70,0,0
114358,-62.5,4,2,2,70,0,0
116758,-83.3333333333333,4,2,2,70,0,0
117101,-62.5,4,2,2,70,0,0
120187,-55.5555555555556,4,2,2,70,0,0
120872,-62.5,4,2,2,70,0,0
122244,-83.3333333333333,4,2,2,70,0,0
122587,-62.5,4,2,2,70,0,0
124987,-83.3333333333333,4,2,2,70,0,0
125672,-62.5,4,2,2,70,0,0
127729,-83.3333333333333,4,2,2,70,0,0
128072,-62.5,4,2,2,70,0,0
132187,-62.5,4,2,2,50,0,0
134587,-62.5,4,2,2,70,0,0
158587,-76.9230769230769,4,2,2,70,0,0
159272,-62.5,4,2,2,70,0,0
169558,-76.9230769230769,4,2,2,70,0,0
170244,-62.5,4,2,2,70,0,0
172987,-62.5,4,2,1,50,0,0
173672,-62.5,4,2,1,40,0,0
174358,-62.5,4,2,1,30,0,0
174872,-133.333333333333,4,2,2,40,0,0
175729,-133.333333333333,4,2,2,50,0,0
177615,-133.333333333333,4,2,2,40,0,0
194929,-200,4,2,2,40,0,0
195615,-181.818181818182,4,2,2,40,0,0
196301,-166.666666666667,4,2,2,40,0,0
196987,-142.857142857143,4,2,2,40,0,0
197672,-76.9230769230769,4,2,3,55,0,0
203158,-333.333333333333,4,2,3,55,0,0
203844,-76.9230769230769,4,2,3,55,0,0
221158,-100,4,2,3,55,0,0
222187,-76.9230769230769,4,2,3,55,0,0
225101,-333.333333333333,4,2,3,55,0,0
225787,-76.9230769230769,4,2,3,55,0,0
241558,-100,4,2,1,30,0,0
249787,-100,4,2,1,35,0,0
255272,-100,4,2,1,40,0,0
256644,-100,4,2,1,45,0,0
260758,-100,4,2,1,50,0,0
262129,-100,4,2,3,30,0,0
262815,-100,4,2,3,60,0,0
263501,-62.5,4,2,2,70,0,0
264872,-200,4,2,2,70,0,0
265215,-62.5,4,2,2,70,0,0
275844,-200,4,2,2,70,0,0
276187,-62.5,4,2,2,70,0,0
281501,-83.3333333333333,4,2,2,70,0,0
282701,-100,4,2,2,50,0,0
285444,-62.5,4,2,2,70,0,0
286815,-83.3333333333333,4,2,2,70,0,0
287158,-62.5,4,2,2,70,0,0
289387,-83.3333333333333,4,2,2,70,0,0
289901,-62.5,4,2,2,70,0,0
292301,-83.3333333333333,4,2,2,70,0,0
292644,-62.5,4,2,2,70,0,0
295729,-55.5555555555556,4,2,2,70,0,0
296415,-62.5,4,2,2,70,0,0
297787,-83.3333333333333,4,2,2,70,0,0
298129,-62.5,4,2,2,70,0,0
300529,-83.3333333333333,4,2,2,70,0,0
300872,-62.5,4,2,2,70,0,0
303272,-83.3333333333333,4,2,2,70,0,0
303615,-62.5,4,2,2,70,0,0
307729,-62.5,4,2,2,50,0,0
309272,-83.3333333333333,4,2,1,60,0,0
309787,-62.5,4,2,1,50,0,0
310129,-62.5,4,2,2,70,0,0
319729,-200,4,2,2,70,0,0
320244,-62.5,4,2,2,70,0,0
334129,-76.9230769230769,4,2,2,70,0,0
334815,-62.5,4,2,2,70,0,0
345101,-76.9230769230769,4,2,2,70,0,0
345787,-62.5,4,2,2,70,0,0
348529,-83.3333333333333,4,2,1,60,0,0
350415,-66.6666666666667,4,2,1,60,0,0

[Colours]
Combo1 : 0,128,192
Combo2 : 255,128,192
Combo3 : 128,128,192

[HitObjects]
67,202,187,6,0,L|35:64,1,112.5,6|0,3:2|0:0,0:0:0:0:
154,47,529,2,0,L|133:130,1,75,8|0,0:0|0:0,0:0:0:0:
143,128,787,1,2,0:0:0:0:
145,115,872,1,2,0:0:0:0:
148,103,958,1,2,0:0:0:0:
150,91,1044,1,2,3:2:0:0:
226,129,1215,2,0,P|261:118|285:90,1,75,8|0,0:0|0:0,0:0:0:0:
279,78,1472,5,2,0:0:0:0:
279,78,1558,2,0,P|310:97|394:90,1,112.5,2|0,3:2|0:0,0:0:0:0:
426,155,1901,2,0,P|397:178|386:214,1,75,8|0,0:0|0:0,0:0:0:0:
394,224,2158,1,2,0:0:0:0:
397,211,2243,1,2,0:0:0:0:
402,200,2329,1,2,0:0:0:0:
410,190,2415,1,2,3:2:0:0:
470,240,2587,1,8,0:0:0:0:
375,338,2758,5,2,0:0:0:0:
375,338,2844,1,2,0:0:0:0:
375,338,2929,2,0,L|214:292,1,150,2|8,3:2|0:0,0:0:0:0:
239,220,3444,1,2,0:0:0:0:
257,215,3529,1,2,0:0:0:0:
275,210,3615,1,2,0:0:0:0:
293,205,3701,1,2,0:0:0:0:
311,201,3787,1,2,3:2:0:0:
211,147,3958,2,0,P|223:118|279:94,1,75,8|0,0:0|0:0,0:0:0:0:
271,105,4215,5,2,0:0:0:0:
271,105,4301,2,0,P|238:86|223:53,1,75,2|0,3:2|0:0,0:0:0:0:
278,0,4644,1,8,0:0:0:0:
344,72,4815,1,2,0:0:0:0:
344,72,4901,1,2,0:0:0:0:
344,72,4987,1,2,0:0:0:0:
419,26,5158,1,0,3:2:0:0:
467,93,5329,1,8,0:0:0:0:
212,258,5672,6,0,L|93:293,1,112.5,2|0,3:2|0:0,0:0:0:0:
58,167,6015,2,0,L|147:190,1,75,8|0,0:0|0:0,0:0:0:0:
136,192,6272,1,2,0:0:0:0:
123,188,6357,1,2,0:0:0:0:
111,185,6443,1,2,0:0:0:0:
99,182,6529,1,2,3:2:0:0:
200,140,6701,2,0,P|250:121|296:135,1,75,8|0,0:0|0:0,0:0:0:0:
287,131,6958,5,2,0:0:0:0:
287,131,7044,2,0,P|313:157|324:192,1,75,2|0,3:2|0:0,0:0:0:0:
237,217,7387,1,8,0:0:0:0:
319,286,7558,1,2,0:0:0:0:
336,280,7643,1,2,0:0:0:0:
354,274,7729,1,2,0:0:0:0:
372,268,7815,1,2,0:0:0:0:
390,262,7900,1,2,3:2:0:0:
287,365,8072,2,0,L|200:343,1,75,8|0,0:0|0:0,0:0:0:0:
204,358,8329,5,2,0:0:0:0:
204,358,8415,2,0,L|179:260,1,75,2|0,3:2|0:0,0:0:0:0:
118,327,8758,1,8,0:0:0:0:
79,175,8929,1,2,0:0:0:0:
83,193,9014,1,2,0:0:0:0:
88,211,9100,1,2,0:0:0:0:
92,229,9186,1,2,0:0:0:0:
97,247,9271,1,2,3:2:0:0:
168,211,9444,1,8,0:0:0:0:
3,148,9615,5,2,0:0:0:0:
3,148,9701,1,2,0:0:0:0:
3,148,9787,1,2,3:2:0:0:
318,262,10129,1,10,0:0:0:0:
318,262,10301,1,2,0:0:0:0:
392,240,10472,2,0,P|436:189|440:133,1,112.5,2|0,0:0|0:0,0:0:0:0:
433,135,10815,1,10,0:0:0:0:
214,76,11158,6,0,L|339:46,1,112.5,2|0,3:2|0:0,0:0:0:0:
224,164,11501,2,0,L|134:142,1,75,8|0,0:0|0:0,0:0:0:0:
143,156,11758,1,2,0:0:0:0:
155,159,11843,1,2,0:0:0:0:
167,162,11929,1,2,0:0:0:0:
179,165,12015,1,2,3:2:0:0:
70,197,12187,2,0,P|37:235|28:269,1,75,8|0,0:0|0:0,0:0:0:0:
30,274,12444,5,2,0:0:0:0:
30,274,12529,2,0,P|56:300|90:315,1,75,2|0,3:2|0:0,0:0:0:0:
158,251,12872,1,8,0:0:0:0:
234,293,13044,1,2,0:0:0:0:
251,287,13129,1,2,0:0:0:0:
268,278,13215,1,2,0:0:0:0:
282,266,13301,1,2,0:0:0:0:
294,251,13386,1,2,3:2:0:0:
341,335,13558,2,0,P|377:308|467:296,1,112.5,8|0,0:0|0:0,0:0:0:0:
462,300,13901,6,0,P|400:229|398:190,1,112.5,2|0,3:2|0:0,0:0:0:0:
512,136,14244,2,0,P|515:180|498:216,1,75,8|0,0:0|0:0,0:0:0:0:
493,208,14501,1,2,0:0:0:0:
499,197,14586,1,2,0:0:0:0:
503,185,14672,1,2,0:0:0:0:
502,173,14758,1,2,3:2:0:0:
431,96,14929,1,8,0:0:0:0:
493,27,15101,5,2,0:0:0:0:
493,27,15187,1,2,0:0:0:0:
493,27,15272,1,2,3:2:0:0:
218,141,15615,2,0,L|118:110,1,75,8|0,0:0|0:0,0:0:0:0:
134,127,15872,1,2,0:0:0:0:
134,127,15958,1,2,0:0:0:0:
65,78,16129,1,0,3:2:0:0:
17,156,16301,2,0,P|66:180|90:254,1,112.5,8|0,0:0|0:0,0:0:0:0:
86,247,16644,6,0,P|65:269|7:276,1,75,2|0,3:2|0:0,0:0:0:0:
146,295,16987,2,0,P|205:287|275:327,1,112.5,8|0,0:0|0:0,0:0:0:0:
250,315,17329,1,2,0:0:0:0:
248,326,17415,1,2,0:0:0:0:
246,337,17501,1,2,3:2:0:0:
386,340,17672,2,0,L|354:216,1,112.5,8|0,0:0|0:0,0:0:0:0:
342,227,18015,6,0,L|360:303,1,75,2|0,3:2|0:0,0:0:0:0:
408,169,18358,1,8,0:0:0:0:
504,185,18529,1,2,0:0:0:0:
499,166,18614,1,2,0:0:0:0:
495,148,18700,1,2,0:0:0:0:
491,130,18786,1,2,0:0:0:0:
486,112,18872,1,2,3:2:0:0:
408,169,19044,1,8,0:0:0:0:
339,98,19215,5,2,0:0:0:0:
339,98,19301,1,2,0:0:0:0:
339,98,19387,2,0,L|220:65,1,112.5,2|0,3:2|0:0,0:0:0:0:
218,65,19729,1,8,0:0:0:0:
168,122,19901,1,2,0:0:0:0:
173,140,19986,1,2,0:0:0:0:
178,158,20072,1,2,0:0:0:0:
183,176,20158,1,2,0:0:0:0:
188,194,20244,1,2,3:2:0:0:
108,202,20415,1,8,0:0:0:0:
75,276,20587,5,2,0:0:0:0:
75,276,20672,1,2,0:0:0:0:
75,276,20758,1,2,3:2:0:0:
378,189,21101,1,10,0:0:0:0:
378,189,21272,1,2,0:0:0:0:
300,196,21444,2,0,P|258:244|243:318,1,112.5,2|0,0:0|0:0,0:0:0:0:
249,305,21787,1,10,0:0:0:0:
167,193,21958,5,2,0:0:0:0:
167,193,22044,1,2,0:0:0:0:
167,193,22129,2,0,P|203:144|221:52,1,134.999995880127,2|0,3:2|0:0,0:0:0:0:
210,73,22472,1,8,0:0:0:0:
93,51,22644,1,2,0:0:0:0:
78,67,22729,1,2,0:0:0:0:
66,86,22815,1,2,0:0:0:0:
57,107,22901,1,2,0:0:0:0:
52,129,22986,1,2,3:2:0:0:
210,73,23158,1,8,0:0:0:0:
252,240,23329,5,2,0:0:0:0:
252,240,23415,1,2,0:0:0:0:
252,240,23501,2,0,P|288:289|306:381,1,134.999995880127,2|0,3:2|0:0,0:0:0:0:
295,360,23843,1,8,0:0:0:0:
160,384,24015,1,2,0:0:0:0:
145,368,24100,1,2,0:0:0:0:
133,349,24186,1,2,0:0:0:0:
124,328,24272,1,2,0:0:0:0:
119,306,24358,1,2,3:2:0:0:
295,360,24529,1,8,0:0:0:0:
356,215,24701,5,2,0:0:0:0:
356,215,24787,1,2,0:0:0:0:
356,215,24872,2,0,L|477:190,1,89.9999972534181,2|0,3:2|0:0,0:0:0:0:
485,139,25215,2,0,L|434:296,1,134.999995880127,8|0,0:0|0:0,0:0:0:0:
439,280,25558,1,2,0:0:0:0:
435,293,25644,1,2,0:0:0:0:
432,306,25729,1,2,3:2:0:0:
356,215,25901,1,8,0:0:0:0:
494,382,26072,5,2,0:0:0:0:
494,382,26158,1,2,0:0:0:0:
494,382,26244,1,2,3:2:0:0:
356,215,26587,2,0,L|305:58,1,134.999995880127,8|0,0:0|0:0,0:0:0:0:
310,73,26930,1,2,0:0:0:0:
305,60,27016,1,2,0:0:0:0:
301,46,27101,1,2,3:2:0:0:
243,167,27273,1,8,0:0:0:0:
135,127,27444,5,2,0:0:0:0:
135,127,27529,1,2,0:0:0:0:
135,127,27615,2,0,P|69:153|51:243,1,134.999995880127,2|0,3:2|0:0,0:0:0:0:
51,223,27958,1,8,0:0:0:0:
0,76,28129,1,2,0:0:0:0:
21,81,28214,1,2,0:0:0:0:
40,93,28300,1,2,0:0:0:0:
55,110,28386,1,2,0:0:0:0:
63,131,28471,1,2,3:2:0:0:
51,223,28644,1,8,0:0:0:0:
240,311,28815,5,2,0:0:0:0:
240,311,28901,1,2,0:0:0:0:
240,311,28987,2,0,P|205:249|113:243,1,134.999995880127,2|0,3:2|0:0,0:0:0:0:
132,241,29330,1,8,0:0:0:0:
85,368,29501,1,2,0:0:0:0:
96,349,29586,1,2,0:0:0:0:
115,335,29672,1,2,0:0:0:0:
136,327,29758,1,2,0:0:0:0:
157,326,29844,1,2,3:2:0:0:
222,384,30016,1,8,0:0:0:0:
428,295,30187,5,2,0:0:0:0:
428,295,30272,1,2,0:0:0:0:
428,295,30358,2,0,L|473:111,1,179.999994506836,2|8,3:2|0:0,0:0:0:0:
339,217,30872,1,2,0:0:0:0:
360,211,30957,1,2,0:0:0:0:
382,206,31043,1,2,0:0:0:0:
404,201,31129,1,2,0:0:0:0:
426,195,31214,1,2,3:2:0:0:
313,145,31387,1,8,0:0:0:0:
216,252,31558,5,2,0:0:0:0:
216,252,31644,1,2,0:0:0:0:
216,252,31729,2,0,L|177:98,1,134.999995880127,2|0,3:2|0:0,0:0:0:0:
182,113,32072,1,10,0:0:0:0:
182,113,32244,1,2,0:0:0:0:
92,103,32415,2,0,L|64:196,1,89.9999972534181,2|0,0:0|3:2,0:0:0:0:
37,274,32758,1,10,0:0:0:0:
118,246,32929,1,0,3:2:0:0:
261,313,33101,6,0,P|314:349|399:360,1,134.999995880127,2|0,3:2|0:0,0:0:0:0:
402,352,33444,1,8,0:0:0:0:
397,263,33615,1,2,0:0:0:0:
380,248,33700,1,2,0:0:0:0:
360,236,33786,1,2,0:0:0:0:
339,229,33872,1,2,0:0:0:0:
317,225,33957,1,2,3:2:0:0:
448,191,34129,1,8,0:0:0:0:
306,93,34301,5,2,0:0:0:0:
306,93,34387,1,2,0:0:0:0:
306,93,34472,2,0,P|252:129|167:140,1,134.999995880127,2|0,3:2|0:0,0:0:0:0:
169,136,34815,1,8,0:0:0:0:
162,38,34986,1,2,0:0:0:0:
179,23,35071,1,2,0:0:0:0:
199,11,35157,1,2,0:0:0:0:
220,4,35243,1,2,0:0:0:0:
242,0,35328,1,2,3:2:0:0:
323,11,35500,1,8,0:0:0:0:
393,118,35672,5,2,0:0:0:0:
393,118,35758,1,2,0:0:0:0:
393,118,35844,2,0,L|355:235,1,89.9999972534181,2|0,3:2|0:0,0:0:0:0:
234,245,36187,2,0,L|272:128,1,89.9999972534181,8|0,0:0|0:0,0:0:0:0:
269,145,36444,1,2,0:0:0:0:
269,145,36529,1,2,0:0:0:0:
135,178,36701,1,0,3:2:0:0:
102,105,36872,1,8,0:0:0:0:
36,158,37044,5,2,0:0:0:0:
36,158,37129,1,2,0:0:0:0:
36,158,37215,1,2,3:2:0:0:
291,323,37558,2,0,L|435:284,1,134.999995880127,8|0,0:0|0:0,0:0:0:0:
418,300,37901,1,2,0:0:0:0:
415,313,37987,1,2,0:0:0:0:
412,326,38072,1,2,3:2:0:0:
319,222,38244,2,0,P|347:186|417:185,1,89.9999972534181,8|0,0:0|0:0,0:0:0:0:
407,189,38501,1,2,0:0:0:0:
407,189,38587,6,0,P|364:178|337:142,1,89.9999972534181,2|0,3:2|0:0,0:0:0:0:
407,52,38929,2,0,L|263:13,1,134.999995880127,8|0,0:0|0:0,0:0:0:0:
280,29,39272,1,2,0:0:0:0:
283,42,39358,1,2,0:0:0:0:
286,55,39443,1,2,3:2:0:0:
202,104,39615,2,0,P|157:96|125:39,1,89.9999972534181,8|0,0:0|0:0,0:0:0:0:
62,109,39958,6,0,P|65:153|39:188,1,89.9999972534181,2|0,3:2|0:0,0:0:0:0:
152,177,40301,1,8,0:0:0:0:
129,281,40472,1,2,0:0:0:0:
144,265,40557,1,2,0:0:0:0:
164,255,40643,1,2,0:0:0:0:
187,253,40729,1,2,0:0:0:0:
208,258,40814,1,2,3:2:0:0:
275,308,40987,1,8,0:0:0:0:
302,228,41158,5,2,0:0:0:0:
302,228,41244,1,2,0:0:0:0:
302,228,41329,2,0,P|316:186|354:163,1,89.9999972534181,2|0,3:2|0:0,0:0:0:0:
245,130,41672,1,8,0:0:0:0:
324,85,41843,1,2,0:0:0:0:
302,79,41928,1,2,0:0:0:0:
284,67,42014,1,2,0:0:0:0:
271,47,42100,1,2,0:0:0:0:
266,27,42187,1,2,3:2:0:0:
346,9,42358,1,8,0:0:0:0:
245,130,42529,1,0,0:0:0:0:
7,137,42701,6,0,L|39:49,1,89.9999972534181,2|0,3:2|0:0,0:0:0:0:
172,50,43044,2,0,L|139:137,1,89.9999972534181,8|0,0:0|0:0,0:0:0:0:
121,150,43301,1,2,0:0:0:0:
131,121,43386,1,2,0:0:0:0:
141,93,43472,1,2,0:0:0:0:
152,64,43558,1,2,3:2:0:0:
245,130,43729,1,8,0:0:0:0:
346,9,43901,1,0,3:2:0:0:
354,152,44072,6,0,L|328:52,1,75,2|0,3:2|0:0,0:0:0:0:
441,230,44415,2,0,L|524:255,1,75,2|0,3:2|0:0,0:0:0:0:
324,270,44758,2,0,L|276:342,1,75,2|0,3:2|0:0,0:0:0:0:
354,152,45101,1,2,3:2:0:0:
354,152,45272,2,0,L|328:52,1,75,2|0,0:0|3:2,0:0:0:0:
335,79,46815,6,0,L|362:5,1,67.4999979400635,2|0,0:0|0:0,0:0:0:0:
273,131,47158,2,0,L|199:158,1,67.4999979400635,2|0,0:0|0:0,0:0:0:0:
350,154,47501,2,0,L|408:187,1,67.4999979400635,2|0,0:0|0:0,0:0:0:0:
335,79,47844,1,2,0:0:0:0:
273,131,48015,6,0,L|199:158,1,67.4999979400635,2|0,0:0|0:0,0:0:0:0:
132,276,48358,2,0,L|155:212,1,67.4999979400635,2|0,0:0|0:0,0:0:0:0:
102,82,48701,2,0,L|135:140,1,67.4999979400635,2|0,0:0|0:0,0:0:0:0:
273,131,49044,2,0,L|199:158,1,67.4999979400635,2|0,0:0|0:0,0:0:0:0:
132,276,49387,5,2,0:0:0:0:
132,276,49558,2,0,L|104:368,1,67.4999979400635,2|0,0:0|0:0,0:0:0:0:
229,263,49901,2,0,L|201:355,1,67.4999979400635,2|0,0:0|0:0,0:0:0:0:
322,246,50244,2,0,L|294:338,1,67.4999979400635,2|0,0:0|0:0,0:0:0:0:
413,227,50587,1,2,0:0:0:0:
413,227,50758,2,0,L|385:319,1,67.4999979400635,2|0,0:0|0:0,0:0:0:0:
413,227,52301,5,2,0:0:0:0:
413,227,52473,1,0,0:0:0:0:
477,171,52644,1,2,0:0:0:0:
477,171,52815,1,0,0:0:0:0:
447,92,52987,1,2,0:0:0:0:
447,92,53158,1,0,0:0:0:0:
495,29,53329,1,2,0:0:0:0:
396,31,53501,6,0,L|307:52,1,67.4999979400635,2|0,0:0|0:0,0:0:0:0:
253,140,53844,2,0,L|318:155,1,67.4999979400635,2|0,0:0|0:0,0:0:0:0:
210,73,54187,2,0,L|121:94,1,67.4999979400635,2|0,0:0|0:0,0:0:0:0:
93,123,54529,2,0,L|158:138,1,67.4999979400635,2|0,0:0|0:0,0:0:0:0:
36,261,54872,5,2,0:0:0:0:
36,261,55044,2,0,L|-6:192,1,67.4999979400635,2|0,0:0|0:0,0:0:0:0:
166,238,55387,2,0,L|108:273,1,67.4999979400635,2|0,0:0|0:0,0:0:0:0:
62,143,55729,2,0,L|127:158,1,67.4999979400635,2|0,0:0|0:0,0:0:0:0:
36,261,56072,1,2,0:0:0:0:
36,261,56244,2,0,L|-6:192,1,67.4999979400635,2|0,0:0|0:0,0:0:0:0:
0,203,57788,5,2,0:0:0:0:
0,203,57958,1,0,0:0:0:0:
63,145,58130,1,2,0:0:0:0:
63,145,58300,1,0,0:0:0:0:
122,210,58473,1,2,0:0:0:0:
122,210,58643,1,0,0:0:0:0:
183,151,58815,1,2,0:0:0:0:
263,203,58987,6,0,L|179:234,1,67.4999979400635,2|0,0:0|0:0,0:0:0:0:
276,290,59329,2,0,L|299:353,1,67.4999979400635,2|0,0:0|0:0,0:0:0:0:
351,255,59672,2,0,L|414:231,1,67.4999979400635,2|0,0:0|0:0,0:0:0:0:
339,173,60015,2,0,L|315:109,1,67.4999979400635,2|0,0:0|0:0,0:0:0:0:
214,71,60358,5,2,0:0:0:0:
214,71,60529,2,0,L|237:134,1,67.4999979400635,2|0,0:0|0:0,0:0:0:0:
154,134,60872,2,0,L|177:197,1,67.4999979400635,2|0,0:0|0:0,0:0:0:0:
101,215,61215,2,0,L|124:278,1,67.4999979400635,2|0,0:0|0:0,0:0:0:0:
42,285,61558,1,2,0:0:0:0:
42,285,61729,2,0,L|65:348,1,67.4999979400635,2|0,0:0|0:0,0:0:0:0:
65,348,63272,5,2,0:0:0:0:
65,348,63444,1,0,0:0:0:0:
202,258,63615,1,2,0:0:0:0:
202,258,63787,1,0,0:0:0:0:
93,201,63958,1,2,0:0:0:0:
93,201,64129,1,0,0:0:0:0:
146,121,64301,1,2,0:0:0:0:
202,258,64472,6,0,L|282:223,1,67.4999979400635,2|0,0:0|0:0,0:0:0:0:
351,119,64815,2,0,L|323:180,1,67.4999979400635,2|0,0:0|0:0,0:0:0:0:
384,298,65158,2,0,L|337:250,1,67.4999979400635,2|0,0:0|0:0,0:0:0:0:
202,258,65501,2,0,L|282:223,1,67.4999979400635,2|0,0:0|0:0,0:0:0:0:
263,230,65844,1,2,0:0:0:0:
205,137,66015,6,0,L|174:207,1,52.4999983978272,2|0,3:2|0:0,0:0:0:0:
266,84,66358,2,0,L|244:35,1,52.4999983978272,2|0,0:0|0:0,0:0:0:0:
274,159,66701,2,0,L|322:180,1,52.4999983978272,0|0,3:2|0:0,0:0:0:0:
322,180,67044,1,2,0:0:0:0:
322,180,67215,1,2,0:0:0:0:
322,180,68758,6,0,L|274:159,1,52.4999983978272,2|0,3:2|0:0,0:0:0:0:
212,121,69101,2,0,L|190:72,1,52.4999983978272,2|0,0:0|0:0,0:0:0:0:
130,132,69444,2,0,L|81:110,1,52.4999983978272,2|0,3:2|0:0,0:0:0:0:
194,199,69787,5,2,0:0:0:0:
194,199,69958,2,0,L|215:247,1,52.4999983978272,2|0,0:0|3:2,0:0:0:0:
306,308,70301,2,0,L|284:259,1,52.4999983978272,2|8,0:0|0:0,0:0:0:0:
306,144,70644,2,0,L|327:192,1,52.4999983978272,2|0,0:0|3:2,0:0:0:0:
383,240,70987,2,0,L|361:191,1,52.4999983978272,2|8,0:0|0:0,0:0:0:0:
361,191,71329,1,2,3:2:0:0:
444,186,71501,6,0,L|502:205,1,52.4999983978272,2|0,3:2|0:0,0:0:0:0:
456,282,71844,2,0,L|514:301,1,52.4999983978272,10|0,0:0|0:0,0:0:0:0:
383,240,72187,2,0,L|333:256,1,52.4999983978272,2|0,3:2|0:0,0:0:0:0:
333,256,72529,1,10,0:0:0:0:
333,256,72701,1,2,0:0:0:0:
333,256,74244,6,0,L|267:227,1,52.4999983978272,2|0,3:2|0:0,0:0:0:0:
202,143,74587,2,0,L|223:191,1,52.4999983978272,10|0,0:0|0:0,0:0:0:0:
328,135,74929,2,0,L|279:113,1,52.4999983978272,2|0,3:2|0:0,0:0:0:0:
197,20,75272,5,10,0:0:0:0:
197,20,75444,2,0,L|218:68,1,52.4999983978272,2|0,0:0|3:2,0:0:0:0:
119,24,75787,2,0,L|140:72,1,52.4999983978272,2|8,0:0|0:0,0:0:0:0:
123,148,76129,2,0,L|101:196,1,52.4999983978272,2|0,0:0|3:2,0:0:0:0:
202,143,76472,2,0,L|180:191,1,52.4999983978272,2|8,0:0|0:0,0:0:0:0:
180,191,76815,1,2,3:2:0:0:
177,265,76987,6,0,L|73:312,2,104.999996795654,2|10|2,3:2|0:0|3:2,0:0:0:0:
177,265,78015,1,10,0:0:0:0:
177,265,78187,1,2,0:0:0:0:
177,265,79729,5,2,3:2:0:0:
177,265,79901,1,0,0:0:0:0:
260,221,80072,1,10,0:0:0:0:
260,221,80244,1,0,0:0:0:0:
221,137,80415,1,2,3:2:0:0:
221,137,80587,1,0,0:0:0:0:
287,71,80758,1,10,0:0:0:0:
222,15,80929,6,0,L|281:-3,1,52.4999983978272,2|0,0:0|3:2,0:0:0:0:
287,71,81272,2,0,L|302:121,1,52.4999983978272,2|8,0:0|0:0,0:0:0:0:
362,168,81615,2,0,L|421:150,1,52.4999983978272,2|0,0:0|3:2,0:0:0:0:
427,224,81958,2,0,L|442:274,1,52.4999983978272,2|8,0:0|0:0,0:0:0:0:
442,274,82301,1,2,3:2:0:0:
381,330,82472,6,0,L|504:368,2,104.999996795654,2|10|2,3:2|0:0|3:2,0:0:0:0:
381,330,83501,1,10,0:0:0:0:
381,330,83672,1,2,0:0:0:0:
299,257,83844,6,0,L|317:327,1,52.4999983978272,0|0,3:2|0:0,0:0:0:0:
162,241,84187,2,0,L|144:171,1,52.4999983978272,8|0,0:0|0:0,0:0:0:0:
221,139,84529,2,0,L|239:209,1,52.4999983978272,0|0,3:2|0:0,0:0:0:0:
112,114,84872,1,8,0:0:0:0:
222,12,85044,5,0,3:2:0:0:
152,49,85215,1,2,3:2:0:0:
80,23,85387,1,0,0:0:0:0:
80,23,85558,1,10,0:0:0:0:
227,88,85729,1,0,0:0:0:0:
227,88,85901,1,2,0:0:0:0:
152,49,86072,1,0,0:0:0:0:
222,12,86244,1,10,0:0:0:0:
112,114,86415,1,2,0:0:0:0:
167,215,86758,1,2,0:0:0:0:
70,290,87101,5,8,0:0:0:0:
70,290,87187,1,8,0:0:0:0:
70,290,87272,2,0,L|55:237,1,44.999998626709,8|0,0:0|0:0,0:0:0:0:
167,215,87444,1,8,0:0:0:0:
159,227,87529,1,8,0:0:0:0:
153,238,87615,5,4,3:3:0:0:
179,305,87701,1,4,3:3:0:0:
247,326,87787,1,8,3:3:0:0:
314,301,87872,1,8,3:3:0:0:
344,241,87958,6,0,L|280:257,1,60,6|0,3:2|0:0,0:0:0:0:
244,182,88129,2,0,L|308:166,1,60,2|0,0:0|0:0,0:0:0:0:
247,326,88301,1,10,0:0:0:0:
268,98,88472,1,2,0:0:0:0:
310,82,88557,1,2,0:0:0:0:
352,67,88643,1,2,0:0:0:0:
365,104,88729,1,2,0:0:0:0:
374,148,88814,1,2,3:2:0:0:
302,167,88987,1,8,0:0:0:0:
270,10,89158,5,2,0:0:0:0:
270,10,89244,1,2,0:0:0:0:
270,10,89329,2,0,L|205:31,1,56.25,2|0,3:2|0:0,0:0:0:0:
207,42,89672,1,10,0:0:0:0:
199,56,89844,2,0,P|274:76|292:188,1,180,2|0,0:0|0:0,0:0:0:0:
388,149,90187,2,0,P|363:231|279:252,1,180,2|0,3:2|0:0,0:0:0:0:
212,177,90529,5,2,0:0:0:0:
216,188,90615,1,2,0:0:0:0:
219,199,90701,2,0,L|203:137,1,60,2|0,3:2|0:0,0:0:0:0:
118,167,90872,2,0,L|134:229,1,60,2|0,0:0|0:0,0:0:0:0:
300,166,91044,2,0,L|286:108,1,60,8|0,0:0|0:0,0:0:0:0:
50,228,91215,1,2,0:0:0:0:
61,271,91300,1,2,0:0:0:0:
73,314,91386,1,2,0:0:0:0:
118,307,91472,1,2,0:0:0:0:
162,299,91557,1,2,3:2:0:0:
132,225,91729,1,8,0:0:0:0:
279,252,91901,5,2,0:0:0:0:
279,252,91987,1,2,0:0:0:0:
279,252,92072,2,0,P|362:231|388:149,1,180,2|0,3:2|0:0,0:0:0:0:
361,81,92415,2,0,L|398:281,1,180,10|0,0:0|0:0,0:0:0:0:
187,143,92758,6,0,P|104:122|78:40,1,146.249993305207,2|0,0:0|0:0,0:0:0:0:
69,6,93101,2,0,L|35:186,1,146.249993305207,10|0,0:0|0:0,0:0:0:0:
176,289,93444,6,0,L|164:348,1,60,6|0,3:2|0:0,0:0:0:0:
269,299,93615,2,0,L|281:240,1,60,2|0,0:0|0:0,0:0:0:0:
77,308,93787,2,0,L|65:367,1,60,10|0,0:0|0:0,0:0:0:0:
273,245,93958,1,2,0:0:0:0:
225,257,94043,1,2,0:0:0:0:
178,269,94129,1,2,0:0:0:0:
131,282,94215,1,2,0:0:0:0:
84,294,94300,1,2,3:2:0:0:
305,367,94472,1,8,0:0:0:0:
390,89,94644,5,2,0:0:0:0:
390,89,94729,1,2,0:0:0:0:
390,89,94815,1,2,3:2:0:0:
280,54,94987,2,0,L|326:68,1,37.5,2|0,0:0|0:0,0:0:0:0:
491,122,95158,2,0,L|445:108,1,37.5,10|0,0:0|0:0,0:0:0:0:
220,15,95329,2,0,P|235:44|236:166,1,134.999995880127,2|0,0:0|0:0,0:0:0:0:
384,198,95672,2,0,P|430:149|491:122,1,134.999995880127,2|0,3:2|0:0,0:0:0:0:
475,214,96015,5,2,0:0:0:0:
470,232,96101,1,2,0:0:0:0:
465,248,96187,2,0,L|442:328,1,60,2|0,3:2|0:0,0:0:0:0:
367,255,96358,2,0,L|390:175,1,60,2|0,0:0|0:0,0:0:0:0:
261,280,96529,2,0,L|238:360,1,60,10|0,0:0|0:0,0:0:0:0:
168,292,96700,2,0,L|191:212,1,60,2|0,0:0|0:0,0:0:0:0:
270,273,96872,1,2,0:0:0:0:
261,302,96957,1,2,0:0:0:0:
253,331,97044,1,2,3:2:0:0:
184,234,97215,1,8,0:0:0:0:
15,163,97387,6,0,P|38:224|91:234,1,120,2|0,0:0|3:2,0:0:0:0:
188,8,97729,2,0,P|132:25|115:80,1,120,2|8,0:0|0:0,0:0:0:0:
282,38,98072,2,0,B|206:67|206:67|196:61|196:61|89:105,1,180,2|0,0:0|0:0,0:0:0:0:
204,178,98415,1,2,3:2:0:0:
204,178,98501,1,2,0:0:0:0:
204,178,98587,2,0,L|182:246,1,60,10|0,0:0|0:0,0:0:0:0:
145,367,98758,2,0,L|167:299,1,60,2|0,3:2|0:0,0:0:0:0:
287,124,98929,6,0,L|347:98,1,60,6|0,3:2|0:0,0:0:0:0:
396,167,99100,2,0,L|335:192,1,60,2|0,0:0|0:0,0:0:0:0:
370,25,99272,1,10,0:0:0:0:
385,254,99443,1,2,0:0:0:0:
346,276,99528,1,2,0:0:0:0:
307,297,99614,1,2,0:0:0:0:
288,263,99700,1,2,0:0:0:0:
273,221,99787,1,2,3:2:0:0:
340,189,99958,1,8,0:0:0:0:
504,367,100129,5,2,0:0:0:0:
504,367,100215,1,2,0:0:0:0:
504,367,100301,2,0,L|452:345,1,56.25,2|0,3:2|0:0,0:0:0:0:
439,340,100644,1,10,0:0:0:0:
422,332,100815,2,0,P|444:234|544:224,1,180,2|0,0:0|0:0,0:0:0:0:
385,254,101158,2,0,P|305:221|294:135,1,180,2|0,3:2|0:0,0:0:0:0:
381,18,101501,5,2,0:0:0:0:
369,20,101587,1,2,0:0:0:0:
357,23,101672,2,0,L|432:3,1,60,0|0,3:2|0:0,0:0:0:0:
450,84,101844,2,0,L|375:104,1,60,2|0,0:0|0:0,0:0:0:0:
161,30,102015,2,0,L|86:10,1,60,10|0,0:0|0:0,0:0:0:0:
56,89,102187,2,0,L|131:109,1,60,2|0,0:0|0:0,0:0:0:0:
165,39,102358,1,2,0:0:0:0:
136,31,102443,1,2,0:0:0:0:
107,23,102529,1,2,3:2:0:0:
31,0,102701,1,8,0:0:0:0:
42,214,102872,5,2,0:0:0:0:
42,214,102958,1,2,0:0:0:0:
42,214,103044,2,0,B|67:173|67:173|107:320,1,180,2|0,3:2|0:0,0:0:0:0:
33,327,103387,2,0,P|117:310|130:400,1,180,10|0,0:0|0:0,0:0:0:0:
380,289,103729,6,0,B|357:326|357:326|321:193,1,146.249993305207,2|0,0:0|0:0,0:0:0:0:
393,182,104072,2,0,P|329:192|343:125,1,146.249993305207,10|0,0:0|0:0,0:0:0:0:
466,88,104415,6,0,L|394:118,1,60,6|0,3:2|0:0,0:0:0:0:
194,23,104587,2,0,L|249:0,1,60,2|0,0:0|0:0,0:0:0:0:
338,50,104758,2,0,L|282:73,1,60,10|0,0:0|0:0,0:0:0:0:
181,130,104930,1,2,0:0:0:0:
222,112,105015,1,2,0:0:0:0:
263,94,105101,1,2,0:0:0:0:
305,77,105187,1,2,0:0:0:0:
346,59,105272,1,2,3:2:0:0:
94,132,105444,2,0,P|155:154|141:212,1,120,8|0,0:0|0:0,0:0:0:0:
83,206,105701,1,2,0:0:0:0:
83,206,105787,1,2,3:2:0:0:
36,268,105958,6,0,L|-13:248,1,37.5,2|0,0:0|0:0,0:0:0:0:
128,267,106129,2,0,L|177:287,1,37.5,10|0,0:0|0:0,0:0:0:0:
83,206,106301,2,0,L|116:369,1,134.999995880127,2|0,0:0|0:0,0:0:0:0:
253,317,106644,2,0,L|114:261,1,134.999995880127,2|0,3:2|0:0,0:0:0:0:
348,145,106987,5,2,0:0:0:0:
369,137,107072,1,2,0:0:0:0:
390,130,107158,2,0,P|255:180|304:26,1,375,2|2,3:2|0:0,0:0:0:0:
375,59,108187,1,2,0:0:0:0:
307,111,108358,1,2,0:0:0:0:
296,26,108529,6,0,P|242:168|369:52,1,450,2|2,0:0|0:0,0:0:0:0:
307,111,109729,1,2,0:0:0:0:
97,198,109901,6,0,L|78:273,1,60,6|0,3:2|0:0,0:0:0:0:
120,328,110072,2,0,L|195:346,1,60,2|0,0:0|0:0,0:0:0:0:
297,306,110244,2,0,L|237:291,1,60,10|0,0:0|0:0,0:0:0:0:
7,316,110415,1,2,0:0:0:0:
51,325,110500,1,2,0:0:0:0:
95,335,110586,1,2,0:0:0:0:
139,344,110672,1,2,0:0:0:0:
183,353,110757,1,2,3:2:0:0:
19,205,110929,1,10,0:0:0:0:
19,205,111101,1,2,0:0:0:0:
219,202,111272,6,0,P|180:142|90:147,1,134.999995880127,2|0,3:2|0:0,0:0:0:0:
103,139,111615,2,0,P|224:116|225:4,1,240,10|2,0:0|0:0,0:0:0:0:
287,161,112129,1,2,3:2:0:0:
302,179,112301,1,8,0:0:0:0:
324,188,112472,1,2,0:0:0:0:
345,197,112644,6,0,L|300:133,1,60,2|0,3:2|0:0,0:0:0:0:
248,242,112815,2,0,L|292:305,1,60,2|0,0:0|0:0,0:0:0:0:
380,89,112987,1,10,0:0:0:0:
221,174,113158,1,2,0:0:0:0:
183,198,113243,1,2,0:0:0:0:
153,223,113329,1,2,0:0:0:0:
177,262,113415,1,2,0:0:0:0:
199,301,113500,1,2,3:2:0:0:
248,242,113672,1,8,0:0:0:0:
125,141,113844,1,0,0:0:0:0:
218,66,114015,6,0,P|202:29|202:9,1,44.999998626709,2|0,3:2|0:0,0:0:0:0:
280,8,114187,2,0,P|291:27|297:48,1,44.999998626709,2|0,0:0|0:0,0:0:0:0:
219,183,114358,2,0,L|257:-25,1,180,10|0,0:0|0:0,0:0:0:0:
261,114,114701,1,2,0:0:0:0:
261,114,114787,1,2,0:0:0:0:
261,114,114872,2,0,L|290:268,1,120,2|10,3:2|0:0,0:0:0:0:
283,231,115215,1,0,0:0:0:0:
185,334,115387,6,0,L|209:262,1,60,6|0,3:2|0:0,0:0:0:0:
136,221,115558,2,0,L|112:293,1,60,2|0,0:0|0:0,0:0:0:0:
259,384,115729,2,0,L|283:312,1,60,10|0,0:0|0:0,0:0:0:0:
55,213,115901,1,2,0:0:0:0:
70,170,115986,1,2,0:0:0:0:
85,128,116072,1,2,0:0:0:0:
128,140,116158,1,2,0:0:0:0:
171,153,116243,1,2,3:2:0:0:
136,221,116415,1,8,0:0:0:0:
248,124,116587,1,0,0:0:0:0:
465,127,116758,6,0,P|394:119|405:48,1,134.999995880127,2|0,3:2|0:0,0:0:0:0:
457,38,117101,2,0,L|388:274,1,240,10|2,0:0|0:0,0:0:0:0:
382,189,117615,1,2,3:2:0:0:
374,166,117787,1,8,0:0:0:0:
367,143,117958,1,2,0:0:0:0:
360,120,118129,6,0,L|330:187,1,60,2|0,3:2|0:0,0:0:0:0:
264,122,118301,2,0,L|288:67,1,60,2|0,0:0|0:0,0:0:0:0:
39,61,118472,2,0,L|69:128,1,60,10|0,0:0|0:0,0:0:0:0:
135,63,118644,2,0,L|110:8,1,60,2|0,0:0|0:0,0:0:0:0:
31,73,118815,1,2,0:0:0:0:
43,100,118900,1,2,0:0:0:0:
55,127,118986,1,2,3:2:0:0:
88,194,119158,1,8,0:0:0:0:
9,203,119329,1,0,0:0:0:0:
121,264,119501,6,0,P|152:284|197:279,1,60,2|0,3:2|0:0,0:0:0:0:
181,101,119672,2,0,P|151:105|127:122,1,60,2|0,0:0|0:0,0:0:0:0:
255,187,119844,2,0,P|283:177|303:156,1,60,10|0,0:0|0:0,0:0:0:0:
296,150,120015,2,0,P|278:173|273:203,1,60,2|0,0:0|0:0,0:0:0:0:
394,246,120187,6,0,P|488:183|488:69,1,202.499993820191,2|0,0:0|0:0,0:0:0:0:
382,33,120529,1,10,0:0:0:0:
461,0,120701,1,0,3:2:0:0:
150,29,120872,6,0,L|73:-2,1,60,6|0,3:2|0:0,0:0:0:0:
99,103,121044,2,0,L|176:134,1,60,2|0,0:0|0:0,0:0:0:0:
99,198,121215,2,0,L|22:167,1,60,10|0,0:0|0:0,0:0:0:0:
75,11,121387,1,2,0:0:0:0:
85,54,121472,1,2,0:0:0:0:
96,98,121558,1,2,0:0:0:0:
106,142,121644,1,2,0:0:0:0:
117,186,121729,1,2,3:2:0:0:
10,111,121901,1,8,0:0:0:0:
0,235,122072,1,0,0:0:0:0:
58,298,122244,6,0,B|114:275|114:275|119:265|119:265|201:234,1,134.999995880127,2|0,3:2|0:0,0:0:0:0:
234,284,122587,2,0,L|-8:233,1,240,10|2,0:0|0:0,0:0:0:0:
78,367,123101,1,2,3:2:0:0:
100,356,123273,1,10,0:0:0:0:
121,347,123444,1,2,0:0:0:0:
143,338,123615,6,0,L|219:354,1,60,2|0,3:2|0:0,0:0:0:0:
303,280,123787,2,0,L|227:264,1,60,2|0,0:0|0:0,0:0:0:0:
164,167,123958,2,0,L|240:183,1,60,10|0,0:0|0:0,0:0:0:0:
324,109,124130,2,0,L|248:93,1,60,2|0,0:0|0:0,0:0:0:0:
159,173,124301,1,2,0:0:0:0:
188,179,124386,1,2,0:0:0:0:
217,185,124472,1,2,3:2:0:0:
293,199,124644,1,8,0:0:0:0:
122,243,124815,1,0,0:0:0:0:
98,121,124987,6,0,P|119:102|129:64,1,44.999998626709,2|0,3:2|0:0,0:0:0:0:
61,51,125158,2,0,P|39:69|30:108,1,44.999998626709,2|0,0:0|0:0,0:0:0:0:
188,41,125329,2,0,P|183:12|156:-16,1,44.999998626709,10|0,0:0|0:0,0:0:0:0:
0,152,125500,2,0,P|4:180|31:208,1,44.999998626709,2|0,0:0|0:0,0:0:0:0:
166,312,125672,1,2,0:0:0:0:
166,312,125758,1,2,0:0:0:0:
166,312,125844,2,0,P|131:279|58:284,1,120,2|10,3:2|0:0,0:0:0:0:
61,281,126187,1,0,0:0:0:0:
355,142,126358,6,0,L|432:116,1,60,6|0,3:2|0:0,0:0:0:0:
471,186,126529,2,0,L|394:212,1,60,2|0,0:0|0:0,0:0:0:0:
434,47,126701,1,10,0:0:0:0:
399,224,126872,1,2,0:0:0:0:
411,180,126957,1,2,0:0:0:0:
424,137,127043,1,2,0:0:0:0:
436,94,127129,1,2,0:0:0:0:
449,51,127214,1,2,3:2:0:0:
511,114,127387,1,8,0:0:0:0:
373,0,127558,1,0,0:0:0:0:
132,16,127729,6,0,P|169:69|254:57,1,134.999995880127,2|0,3:2|0:0,0:0:0:0:
336,71,128072,2,0,L|93:132,1,240,10|2,0:0|0:0,0:0:0:0:
244,182,128587,1,2,3:2:0:0:
236,217,128758,1,8,0:0:0:0:
228,252,128929,1,2,0:0:0:0:
221,287,129101,6,0,L|204:202,1,60,2|0,3:2|0:2,0:2:0:0:
282,201,129272,2,0,L|299:286,1,60,2|0,0:0|0:0,0:0:0:0:
130,332,129444,2,0,L|147:247,1,60,10|0,0:0|0:0,0:0:0:0:
370,144,129615,2,0,L|353:229,1,60,2|0,0:0|0:0,0:0:0:0:
248,348,129787,1,2,0:0:0:0:
253,318,129872,1,2,0:0:0:0:
259,289,129958,1,2,3:2:0:0:
342,338,130129,1,8,0:0:0:0:
182,384,130301,1,0,0:0:0:0:
47,75,130472,6,0,P|78:71|128:84,1,60,2|0,3:2|0:0,0:0:0:0:
33,299,130644,2,0,P|12:276|0:250,1,60,2|0,0:0|0:0,0:0:0:0:
164,188,130815,2,0,P|184:210|197:236,1,60,10|0,0:0|0:0,0:0:0:0:
194,247,130987,2,0,P|164:247|135:239,1,60,2|0,0:0|0:0,0:0:0:0:
193,89,131158,2,0,P|219:102|242:121,1,60,2|0,0:0|0:0,0:0:0:0:
248,348,131329,5,0,3:2:0:0:
253,318,131414,1,0,3:2:0:0:
259,289,131500,1,10,0:0:0:0:
297,25,131672,1,10,0:0:0:0:
512,290,132187,5,0,0:0:0:0:
459,230,132358,1,0,0:0:0:0:
459,230,133044,1,2,0:0:0:0:
490,159,133387,1,2,0:0:0:0:
447,95,133729,1,2,0:0:0:0:
490,159,134072,1,2,0:0:0:0:
17,96,134587,6,0,L|75:82,1,60,6|0,3:2|0:0,0:0:0:0:
152,122,134758,2,0,L|210:108,1,60,2|0,0:0|0:0,0:0:0:0:
197,249,134929,2,0,L|138:235,1,60,10|0,0:0|0:0,0:0:0:0:
62,275,135100,2,0,L|3:261,1,60,2|0,0:0|0:0,0:0:0:0:
153,379,135272,1,2,0:0:0:0:
153,379,135358,1,2,0:0:0:0:
153,379,135444,1,2,3:2:0:0:
68,197,135615,1,8,0:0:0:0:
300,125,135787,5,2,0:0:0:0:
381,146,135958,1,2,3:2:0:0:
418,216,136129,1,2,0:0:0:0:
387,290,136301,1,10,0:0:0:0:
387,290,136472,1,2,0:0:0:0:
428,361,136644,5,2,0:0:0:0:
381,146,136815,1,2,3:2:0:0:
460,282,136987,5,10,0:0:0:0:
300,125,137158,1,2,0:0:0:0:
466,8,137329,6,0,L|486:81,1,60,2|0,3:2|0:0,0:0:0:0:
381,146,137501,2,0,L|361:73,1,60,2|0,0:0|0:0,0:0:0:0:
245,197,137672,1,10,0:0:0:0:
424,204,137844,1,2,0:0:0:0:
381,220,137929,1,2,0:0:0:0:
340,233,138015,1,2,0:0:0:0:
324,191,138101,1,2,0:0:0:0:
308,149,138186,1,2,3:2:0:0:
381,146,138358,1,8,0:0:0:0:
11,270,138529,5,2,0:0:0:0:
11,270,138615,1,2,0:0:0:0:
11,270,138701,1,2,3:2:0:0:
11,270,139044,2,0,B|83:244|83:244|78:231|78:231|189:194,1,180,10|0,0:0|0:0,0:0:0:0:
231,51,139387,2,0,B|202:135|202:135|189:130|189:130|163:202,1,180,2|0,0:0|0:0,0:0:0:0:
230,354,139729,2,0,B|201:269|201:269|188:274|188:274|162:202,1,180,10|0,0:0|0:0,0:0:0:0:
340,233,140072,5,2,3:2:0:0:
220,146,140244,1,2,0:0:0:0:
428,88,140415,1,10,0:0:0:0:
308,1,140587,1,2,0:0:0:0:
489,178,140758,2,0,L|298:132,1,180,2|0,0:0|0:0,0:0:0:0:
301,144,141101,1,10,0:0:0:0:
486,363,141272,6,0,L|442:215,1,120,2|0,0:0|3:2,0:0:0:0:
304,336,141615,2,0,L|270:221,1,120,2|8,0:0|0:0,0:0:0:0:
0,259,141958,2,0,L|44:111,1,120,2|0,0:0|0:0,0:0:0:0:
181,232,142301,2,0,L|215:116,1,120,2|8,3:2|0:0,0:0:0:0:
90,229,142644,1,2,3:2:0:0:
408,84,142815,6,0,L|344:68,1,60,6|0,3:2|0:0,0:0:0:0:
307,144,142986,2,0,L|371:160,1,60,2|0,0:0|0:0,0:0:0:0:
310,0,143158,1,10,0:0:0:0:
331,228,143329,1,2,0:0:0:0:
373,244,143414,1,2,0:0:0:0:
415,259,143500,1,2,0:0:0:0:
428,222,143586,1,2,0:0:0:0:
437,178,143671,1,2,3:2:0:0:
365,159,143844,1,8,0:0:0:0:
425,368,144015,6,0,B|463:353|463:353|297:289,1,180,2|0,0:0|0:0,0:0:0:0:
265,319,144358,2,0,B|280:357|280:357|344:191,1,180,2|0,0:0|0:0,0:0:0:0:
96,228,144701,6,0,B|58:213|58:213|224:149,1,180,2|0,0:0|0:0,0:0:0:0:
256,184,145044,2,0,B|241:222|241:222|177:56,1,180,2|0,3:2|0:0,0:0:0:0:
17,42,145387,5,0,2:0:0:0:
14,53,145472,1,2,2:0:0:0:
10,64,145559,2,0,L|28:2,1,60,2|0,3:2|2:0,2:0:0:0:
75,154,145729,2,0,L|56:215,1,60,2|0,0:0|2:0,2:0:0:0:
190,92,145901,2,0,L|208:30,1,60,10|0,0:2|2:0,2:0:0:0:
21,73,146072,1,2,0:0:0:0:
64,60,146157,1,2,0:0:0:0:
107,48,146243,1,2,0:0:0:0:
150,35,146329,1,2,0:0:0:0:
194,23,146414,1,2,3:2:0:0:
57,211,146587,1,8,0:0:0:0:
299,317,146758,5,2,0:0:0:0:
219,258,146929,1,2,3:2:0:0:
292,188,147101,1,2,0:0:0:0:
220,122,147272,1,10,0:0:0:0:
220,122,147444,1,2,0:0:0:0:
171,311,147615,5,2,0:0:0:0:
282,62,147787,1,2,3:2:0:0:
350,252,147958,5,10,0:0:0:0:
209,12,148130,1,2,0:0:0:0:
217,231,148301,6,0,L|306:203,1,60,6|0,3:2|0:0,0:0:0:0:
369,118,148472,2,0,L|311:136,1,60,2|0,0:0|0:0,0:0:0:0:
350,252,148644,2,0,L|407:233,1,60,10|0,0:0|0:0,0:0:0:0:
142,225,148815,1,2,0:0:0:0:
156,268,148900,1,2,0:0:0:0:
171,311,148986,1,2,0:0:0:0:
213,300,149072,1,2,0:0:0:0:
257,288,149157,1,2,3:2:0:0:
204,380,149329,1,8,0:0:0:0:
418,316,149501,6,0,L|473:121,1,180,2|0,0:0|0:0,0:0:0:0:
460,133,149844,2,0,L|439:207,1,60
370,45,150015,6,0,P|293:29|234:128,1,180,10|0,0:0|0:0,0:0:0:0:
198,210,150358,2,0,P|211:125|143:72,1,180,2|0,0:0|0:0,0:0:0:0:
0,210,150701,2,0,P|84:222|136:154,1,180,10|0,0:0|0:0,0:0:0:0:
55,148,151044,5,2,3:2:0:0:
258,271,151215,1,2,0:0:0:0:
205,17,151387,1,10,0:0:0:0:
408,140,151558,1,2,0:0:0:0:
55,148,151729,2,0,L|310:102,1,240,2|10,0:0|0:0,0:0:0:0:
228,379,152244,6,0,L|102:332,1,120,2|0,0:0|3:2,0:0:0:0:
341,202,152587,2,0,L|467:249,1,120,2|8,0:0|0:0,0:0:0:0:
280,12,152929,2,0,L|406:59,1,120,2|0,0:0|0:0,0:0:0:0:
111,168,153272,1,2,3:2:0:0:
82,157,153357,1,0,3:2:0:0:
54,147,153443,1,8,0:0:0:0:
183,332,153615,1,10,0:0:0:0:
292,278,153787,6,0,B|278:325|278:325|232:153,1,180,6|0,3:2|0:0,0:0:0:0:
358,46,154129,2,0,P|368:83|294:127,1,120,10|0,0:0|0:0,0:0:0:0:
221,10,154387,1,2,0:0:0:0:
258,22,154472,1,2,0:0:0:0:
296,35,154558,1,2,0:0:0:0:
334,48,154644,1,2,3:2:0:0:
244,198,154815,1,10,0:0:0:0:
172,127,154987,1,2,0:0:0:0:
431,0,155158,5,0,3:2:0:0:
431,0,155501,2,0,L|451:69,1,60,10|0,0:0|0:0,0:0:0:0:
435,219,155672,2,0,P|393:138|292:141,1,180,2|0,0:0|0:0,0:0:0:0:
194,278,156015,2,0,P|279:294|339:232,1,180,2|0,3:2|0:0,0:0:0:0:
111,142,156358,1,2,0:0:0:0:
88,134,156444,1,2,0:0:0:0:
66,123,156529,6,0,L|115:256,1,120,2|0,3:2|0:0,0:0:0:0:
147,65,156787,1,2,0:0:0:0:
147,65,156872,2,0,L|167:-6,1,60,10|2,0:0|0:0,0:0:0:0:
181,181,157044,1,2,0:0:0:0:
139,167,157129,1,2,0:0:0:0:
97,152,157215,1,2,0:0:0:0:
54,137,157301,1,2,0:0:0:0:
12,122,157386,1,2,3:2:0:0:
236,44,157558,2,0,L|305:21,1,60,10|0,0:0|0:0,0:0:0:0:
361,0,157729,1,0,0:0:0:0:
147,65,157901,6,0,P|253:72|312:144,1,180,2|0,3:2|0:0,0:0:0:0:
348,186,158244,2,0,P|355:80|424:103,1,180,10|0,0:0|0:0,0:0:0:0:
431,211,158587,6,0,P|333:217|279:283,1,146.249993305207,2|0,0:0|0:0,0:0:0:0:
288,316,158929,2,0,P|244:234|198:276,1,146.249993305207,10|0,0:0|0:0,0:0:0:0:
206,382,159272,6,0,B|280:367|280:367|283:371|283:371|432:340,1,180,6|0,3:2|0:0,0:0:0:0:
462,347,159615,2,0,B|364:326|364:326|361:330|361:330|287:315,1,180,10|0,0:0|0:0,0:0:0:0:
105,303,159958,1,2,0:0:0:0:
134,295,160043,1,2,0:0:0:0:
163,287,160129,1,2,3:2:0:0:
63,182,160301,2,0,L|40:246,1,60,10|0,0:0|0:0,0:0:0:0:
186,202,160472,2,0,L|144:158,1,60,2|0,0:0|0:0,0:0:0:0:
68,50,160644,5,0,3:2:0:0:
295,25,160815,1,2,0:0:0:0:
284,38,160987,1,10,0:0:0:0:
272,52,161158,2,0,B|353:30|353:30|372:36|372:36|445:18,1,180,2|0,0:0|0:0,0:0:0:0:
397,207,161501,2,0,B|414:133|414:133|408:114|408:114|430:33,1,180,2|0,3:2|0:0,0:0:0:0:
445,36,161844,2,0,L|429:109,1,60,2|0,0:0|0:0,0:0:0:0:
477,337,162015,6,0,P|443:267|324:277,1,180,2|0,3:2|0:0,0:0:0:0:
231,338,162358,2,0,L|317:314,1,60,10|0,0:0|0:0,0:0:0:0:
354,350,162529,1,2,0:0:0:0:
310,339,162614,1,2,0:0:0:0:
266,329,162700,1,2,0:0:0:0:
222,319,162786,1,2,0:0:0:0:
181,308,162871,1,2,3:2:0:0:
101,163,163044,1,10,0:0:0:0:
48,287,163215,6,0,P|121:265|95:191,1,120,2|0,0:0|3:2,0:0:0:0:
87,55,163558,1,2,0:0:0:0:
178,106,163729,1,10,0:0:0:0:
101,163,163901,2,0,B|171:132|171:132|195:139|195:139|296:96,1,180,2|0,0:0|0:0,0:0:0:0:
369,57,164244,6,0,L|387:0,1,60,2|0,3:2|0:0,0:0:0:0:
310,275,164415,1,10,0:0:0:0:
348,132,164587,2,0,L|329:189,1,60,0|0,3:2|0:0,0:0:0:0:
281,357,164758,6,0,L|55:292,1,180,6|0,3:2|0:0,0:0:0:0:
101,163,165101,2,0,P|65:157|46:259,1,120,10|0,0:0|0:0,0:0:0:0:
140,228,165358,1,2,0:0:0:0:
177,214,165443,1,2,0:0:0:0:
215,200,165529,1,2,0:0:0:0:
252,186,165615,1,2,3:2:0:0:
301,287,165787,2,0,L|378:311,1,60,8|0,0:0|0:0,0:0:0:0:
415,228,165958,2,0,L|338:204,1,60,2|0,0:0|0:0,0:0:0:0:
476,141,166129,5,0,3:2:0:0:
476,141,166472,2,0,L|455:83,1,60,10|0,0:0|0:0,0:0:0:0:
125,0,166644,2,0,P|172:84|257:59,1,180,2|0,0:0|0:0,0:0:0:0:
105,224,166987,2,0,P|172:172|148:91,1,180,2|0,3:2|0:0,0:0:0:0:
44,126,167329,1,2,0:0:0:0:
71,137,167414,1,2,0:0:0:0:
99,148,167501,6,0,B|31:174|31:174|224:237,1,240,2|8,3:2|0:0,0:0:0:0:
369,274,168015,1,2,0:0:0:0:
324,273,168100,1,2,0:0:0:0:
287,297,168186,1,2,0:0:0:0:
271,338,168272,1,2,0:0:0:0:
281,381,168357,1,2,3:2:0:0:
201,384,168529,1,10,0:0:0:0:
416,331,168701,2,0,L|487:310,1,60,2|0,0:0|0:0,0:0:0:0:
252,136,168872,6,0,L|448:187,1,180,2|0,3:2|0:0,0:0:0:0:
507,223,169215,2,0,P|446:207|488:94,1,180,10|0,0:0|0:0,0:0:0:0:
326,24,169558,6,0,L|154:68,1,146.249993305207,2|0,0:0|0:0,0:0:0:0:
104,101,169901,2,0,P|157:87|120:-11,1,146.249993305207,10|0,0:0|0:0,0:0:0:0:
9,70,170244,6,0,L|49:212,1,120,6|0,3:2|0:0,0:0:0:0:
137,230,170501,1,2,0:0:0:0:
137,230,170587,2,0,L|198:186,1,60,10|0,0:0|0:0,0:0:0:0:
141,178,170758,1,2,0:0:0:0:
126,221,170843,1,2,0:0:0:0:
114,264,170929,1,2,0:0:0:0:
97,306,171015,1,2,0:0:0:0:
84,350,171101,1,2,3:2:0:0:
16,265,171272,1,10,0:0:0:0:
200,335,171444,1,2,0:0:0:0:
263,220,171615,5,0,3:2:0:0:
324,271,171787,2,0,L|352:210,1,60,2|0,0:0|0:0,0:0:0:0:
276,169,171958,2,0,L|248:230,1,60,10|0,0:0|0:0,0:0:0:0:
379,121,172129,2,0,P|342:46|237:65,1,180,2|0,0:0|0:0,0:0:0:0:
349,216,172472,2,0,P|434:218|472:142,1,180,2|0,3:2|0:0,0:0:0:0:
464,224,172815,2,0,P|488:228|512:252,1,60
463,364,172987,5,0,3:2:0:0:
400,317,173158,1,0,3:2:0:0:
255,293,173329,5,8,0:0:0:0:
319,335,173500,1,0,3:2:0:0:
384,306,173672,1,0,3:2:0:0:
189,334,173843,5,8,0:0:0:0:
93,316,174015,1,0,3:2:0:0:
144,298,174186,1,0,3:2:0:0:
53,290,174358,5,8,0:0:0:0:
20,304,174529,1,0,0:0:0:0:
1,290,174701,1,2,0:0:0:0:
1,290,174787,1,2,0:0:0:0:
1,290,174872,2,0,P|31:312|98:321,1,84.3750032186509,2|0,0:0|0:0,0:0:0:0:
127,270,175215,2,0,P|118:229|94:194,1,84.3750032186509,2|0,0:0|0:0,0:0:0:0:
83,191,175558,1,2,0:0:0:0:
9,209,175729,5,6,3:2:0:0:
10,205,177615,5,2,0:0:0:0:
83,176,177958,1,2,0:0:0:0:
95,98,178301,1,2,0:0:0:0:
95,98,179844,5,2,0:0:0:0:
149,154,180187,1,2,0:0:0:0:
227,152,180530,1,2,0:0:0:0:
286,202,180872,1,2,0:0:0:0:
279,280,181215,1,2,0:0:0:0:
279,280,183101,5,2,0:0:0:0:
345,237,183444,1,2,0:0:0:0:
421,256,183787,1,2,0:0:0:0:
421,256,185844,5,2,0:0:0:0:
359,207,186187,1,2,0:0:0:0:
352,129,186530,1,2,0:0:0:0:
352,129,188587,5,2,0:0:0:0:
279,99,188929,1,2,0:0:0:0:
256,23,189272,1,2,0:0:0:0:
256,23,190815,5,2,0:0:0:0:
187,61,191158,1,2,0:0:0:0:
173,138,191500,1,2,0:0:0:0:
105,178,191843,1,2,0:0:0:0:
26,169,192186,1,2,0:0:0:0:
26,169,194072,5,2,0:0:0:0:
72,232,194415,1,2,0:0:0:0:
57,309,194758,1,2,0:0:0:0:
49,310,194929,6,0,L|95:324,1,37.5,2|2,0:0|0:0,0:0:0:0:
100,332,195272,2,0,L|54:318,1,37.5,2|2,0:0|0:0,0:0:0:0:
203,305,195615,6,0,L|224:348,1,41.2500012588501,2|2,0:0|0:0,0:0:0:0:
221,356,195958,2,0,L|199:312,1,41.2500012588501,2|2,0:0|0:0,0:0:0:0:
154,188,196301,6,0,L|135:232,1,44.999998626709,2|2,0:0|0:0,0:0:0:0:
126,233,196644,2,0,L|144:188,1,44.999998626709,2|2,0:0|0:0,0:0:0:0:
307,201,196987,6,0,L|257:223,1,52.4999983978272,2|2,0:0|0:0,0:0:0:0:
256,236,197330,2,0,L|305:213,1,52.4999983978272,2|2,0:0|0:0,0:0:0:0:
474,96,197672,6,0,B|388:83|443:38|363:10,1,146.249993305207,2|0,3:2|0:0,0:0:0:0:
352,17,198015,1,8,0:0:0:0:
432,180,198187,6,0,B|346:167|401:122|321:94,1,146.249993305207,2|0,3:2|0:0,0:0:0:0:
358,164,198529,1,8,0:0:0:0:
185,67,198701,1,2,0:0:0:0:
209,65,198786,1,2,0:0:0:0:
230,53,198872,1,2,0:0:0:0:
243,33,198958,1,2,0:0:0:0:
247,9,199043,1,10,0:0:0:0:
252,162,199215,6,0,B|174:200|241:226|173:278,1,146.249993305207,2|0,3:2|0:0,0:0:0:0:
165,284,199558,1,8,0:0:0:0:
18,36,199729,6,0,B|12:122|68:77|79:162,1,146.249993305207,2|0,3:2|0:0,0:0:0:0:
21,118,200072,1,8,0:0:0:0:
91,44,200244,6,0,P|85:74|108:111,1,48.7499977684022,2|0,3:2|0:0,0:0:0:0:
204,32,200415,2,0,P|180:11|137:11,1,48.7499977684022,2|0,3:2|0:0,0:0:0:0:
156,135,200587,2,0,P|185:123|204:85,1,48.7499977684022,2|0,3:2|0:0,0:0:0:0:
200,0,200758,6,0,P|252:48|267:98,1,97.4999955368044,10|0,0:0|0:0,0:0:0:0:
315,163,201015,1,2,0:0:0:0:
312,155,201101,2,0,P|360:103|410:88,1,97.4999955368044,10|0,0:0|0:0,0:0:0:0:
410,2,201358,1,2,0:0:0:0:
403,11,201444,2,0,P|332:10|287:-16,1,97.4999955368044,10|0,0:0|0:0,0:0:0:0:
197,9,201701,1,2,0:0:0:0:
200,0,201787,2,0,P|234:27|251:61,1,48.7499977684022,10|0,0:0|0:0,0:0:0:0:
315,163,201958,6,0,B|369:229|379:159|445:213,1,146.249993305207,2|0,3:2|0:0,0:0:0:0:
358,220,202301,1,8,0:0:0:0:
413,292,202472,1,2,0:0:0:0:
404,315,202557,1,2,0:0:0:0:
389,333,202643,1,2,0:0:0:0:
368,344,202729,1,2,0:0:0:0:
343,347,202814,1,10,0:0:0:0:
244,289,202987,5,2,0:0:0:0:
268,298,203073,1,2,0:0:0:0:
279,311,203158,2,0,P|255:293|205:283,1,78.7499975967408,2|0,3:2|0:0,0:0:0:0:
97,225,203844,2,0,P|56:164|10:134,1,97.4999955368044,8|0,0:0|0:0,0:0:0:0:
89,88,204101,1,2,0:0:0:0:
101,99,204186,1,2,0:0:0:0:
115,107,204272,1,2,0:0:0:0:
131,111,204358,1,2,0:0:0:0:
185,51,204529,2,0,P|176:28|162:8,1,48.7499977684022,8|0,0:0|0:0,0:0:0:0:
212,149,204701,6,0,B|288:109|221:84|288:31,1,146.249993305207,2|0,3:2|0:0,0:0:0:0:
300,44,205044,1,8,0:0:0:0:
333,166,205215,6,0,B|419:167|371:113|455:98,1,146.249993305207,2|0,3:2|0:0,0:0:0:0:
409,165,205558,1,8,0:0:0:0:
472,205,205729,1,10,0:0:0:0:
487,223,205814,1,10,0:0:0:0:
496,246,205901,1,10,0:0:0:0:
393,290,206072,6,0,P|376:289|333:259,1,48.7499977684022,2|0,3:2|0:0,0:0:0:0:
342,264,206244,1,8,0:0:0:0:
262,380,206415,6,0,P|248:369|231:319,1,48.7499977684022,2|0,3:2|0:0,0:0:0:0:
247,308,206587,1,8,0:0:0:0:
118,297,206758,6,0,P|122:280|160:244,1,48.7499977684022,2|0,3:2|0:3,0:3:0:0:
210,236,206930,1,8,3:2:0:0:
108,152,207101,6,0,P|123:145|175:152,1,48.7499977684022,2|0,3:2|0:0,0:0:0:0:
225,61,207272,2,0,P|236:73|248:124,1,48.7499977684022,2|0,3:2|0:0,0:0:0:0:
362,128,207444,2,0,P|355:143|313:175,1,48.7499977684022,2|0,3:2|0:3,0:3:0:0:
258,175,207615,5,8,0:0:0:0:
225,61,207787,1,2,0:0:0:0:
240,79,207872,1,2,0:0:0:0:
247,102,207958,1,10,0:0:0:0:
319,61,208129,1,2,0:0:0:0:
321,49,208214,1,2,0:0:0:0:
326,38,208300,1,2,0:0:0:0:
333,28,208386,1,2,0:0:0:0:
342,19,208471,1,2,0:0:0:0:
468,24,208644,6,0,B|392:64|459:89|392:142,1,146.249993305207,2|0,3:2|0:0,0:0:0:0:
375,147,208987,1,8,0:0:0:0:
510,257,209158,6,0,B|441:208|437:280|367:231,1,146.249993305207,2|0,3:2|0:0,0:0:0:0:
448,217,209501,1,8,0:0:0:0:
401,318,209672,1,2,0:0:0:0:
385,336,209757,1,2,0:0:0:0:
363,347,209843,1,2,0:0:0:0:
340,346,209929,1,2,0:0:0:0:
317,337,210014,1,10,0:0:0:0:
200,353,210187,6,0,B|209:273|266:318|275:235,1,146.249993305207,2|0,3:2|0:0,0:0:0:0:
263,223,210529,1,8,0:0:0:0:
143,267,210701,6,0,B|83:213|153:193|90:137,1,146.249993305207,2|0,3:2|0:0,0:0:0:0:
82,212,211043,1,8,0:0:0:0:
181,158,211215,6,0,P|207:142|220:101,1,48.7499977684022,2|0,3:2|0:0,0:0:0:0:
97,80,211386,2,0,P|96:111|125:144,1,48.7499977684022,2|0,3:2|0:0,0:0:0:0:
204,43,211558,2,0,P|175:28|134:39,1,48.7499977684022,2|0,3:2|0:0,0:0:0:0:
185,167,211729,6,0,P|234:130|259:73,1,97.4999955368044,10|0,0:0|0:0,0:0:0:0:
331,133,211987,1,0,0:0:0:0:
326,125,212072,2,0,P|316:172|325:219,1,97.4999955368044,10|0,0:0|0:0,0:0:0:0:
350,294,212329,1,2,0:0:0:0:
362,296,212415,2,0,P|411:259|436:202,1,97.4999955368044,10|0,0:0|0:0,0:0:0:0:
508,262,212673,1,2,0:0:0:0:
503,254,212758,2,0,P|493:301|501:331,1,48.7499977684022,10|0,0:0|0:0,0:0:0:0:
507,180,212929,6,0,B|472:103|432:164|398:92,1,146.249993305207,2|0,3:2|0:0,0:0:0:0:
400,77,213272,1,8,0:0:0:0:
330,37,213444,1,2,0:0:0:0:
321,45,213529,1,2,0:0:0:0:
311,52,213615,1,2,0:0:0:0:
300,58,213701,1,2,0:0:0:0:
289,62,213786,1,2,0:0:0:0:
190,22,213958,5,0,0:0:0:0:
199,29,214044,1,0,0:0:0:0:
208,37,214129,2,0,B|137:81|136:9|69:51,1,146.249993305207,2|0,3:2|0:0,0:0:0:0:
54,68,214472,1,10,0:0:0:0:
34,81,214557,1,10,0:0:0:0:
10,88,214643,1,10,0:0:0:0:
71,147,214815,1,8,0:0:0:0:
1,188,214987,1,0,3:2:0:0:
62,247,215158,2,0,L|74:214,8,24.3749988842011,8|8|8|8|8|8|8|8|8,0:0|0:0|0:0|0:0|0:0|0:0|0:0|0:0|0:0,0:0:0:0:
9,300,215672,6,0,B|88:308|57:243|140:252,1,146.249993305207,2|0,3:2|0:0,0:0:0:0:
148,263,216015,1,8,0:0:0:0:
301,222,216187,6,0,B|259:149|225:212|185:143,1,146.249993305207,2|0,3:2|0:0,0:0:0:0:
221,211,216530,1,8,0:0:0:0:
218,298,216701,1,10,0:0:0:0:
242,298,216786,1,10,0:0:0:0:
263,287,216872,1,10,0:0:0:0:
329,316,217044,6,0,P|359:335|366:363,1,48.7499977684022,0|0,3:2|0:0,0:0:0:0:
362,361,217215,1,8,0:0:0:0:
450,372,217387,6,0,P|469:341|497:334,1,48.7499977684022,0|0,3:2|0:0,0:0:0:0:
512,344,217558,1,8,0:0:0:0:
436,249,217729,6,0,P|399:246|379:225,1,48.7499977684022,0|0,3:2|0:0,0:0:0:0:
374,170,217900,1,8,0:0:0:0:
388,246,218072,6,0,P|409:256|433:254,1,48.7499977684022,0|0,3:2|0:0,0:0:0:0:
474,330,218244,2,0,P|454:343|444:365,1,48.7499977684022,0|0,3:2|0:0,0:0:0:0:
372,342,218415,2,0,P|358:322|336:312,1,48.7499977684022,0|0,3:2|0:0,0:0:0:0:
311,237,218587,6,0,P|356:167|407:146,1,97.4999955368044,10|0,0:0|0:0,0:0:0:0:
310,89,218844,1,2,0:0:0:0:
319,97,218929,2,0,P|236:108|187:84,1,97.4999955368044,10|0,0:0|0:0,0:0:0:0:
218,114,219187,1,2,0:0:0:0:
235,119,219272,1,2,0:0:0:0:
250,120,219358,1,2,0:0:0:0:
267,119,219444,1,2,0:0:0:0:
236,190,219615,6,0,B|225:145|180:128|181:140|149:133|129:80,1,146.249993305207,2|0,3:2|0:0,0:0:0:0:
141,85,219958,1,8,0:0:0:0:
158,166,220129,6,0,B|147:210|102:227|103:215|71:222|51:275,1,146.249993305207,2|0,3:2|0:0,0:0:0:0:
81,192,220472,1,8,0:0:0:0:
146,310,220644,1,2,0:0:0:0:
161,328,220729,1,2,0:0:0:0:
182,339,220815,1,2,0:0:0:0:
207,341,220901,1,2,0:0:0:0:
229,333,220986,1,10,0:0:0:0:
288,270,221158,6,0,B|321:248|321:206|313:211|309:182|347:151,1,112.5,2|0,3:2|0:0,0:0:0:0:
339,172,221501,1,8,0:0:0:0:
494,291,221672,6,0,B|455:276|445:234|455:235|452:206|407:182,1,112.5,2|0,3:2|0:0,0:0:0:0:
426,201,222015,1,8,0:0:0:0:
355,164,222187,6,0,P|328:171|284:159,1,48.7499977684022,2|0,3:2|0:0,0:0:0:0:
232,156,222358,2,0,P|210:144|194:126,1,48.7499977684022,2|0,3:2|0:0,0:0:0:0:
155,57,222529,2,0,P|147:33|149:10,1,48.7499977684022,2|0,3:2|0:0,0:0:0:0:
205,124,222701,6,0,P|194:179|152:232,1,97.4999955368044,10|0,0:0|0:0,0:0:0:0:
70,232,222958,1,0,0:0:0:0:
79,223,223044,2,0,P|103:264|111:312,1,97.4999955368044,10|0,0:0|0:0,0:0:0:0:
200,331,223301,1,0,0:0:0:0:
191,322,223387,2,0,P|232:297|280:289,1,97.4999955368044,10|0,0:0|0:0,0:0:0:0:
323,355,223644,1,0,0:0:0:0:
332,352,223730,2,0,P|372:378|391:407,1,48.7499977684022,10|0,0:0|0:0,0:0:0:0:
360,277,223901,6,0,B|369:232|414:214|413:226|445:218|464:165,1,146.249993305207,2|0,3:2|0:0,0:0:0:0:
448,159,224244,1,8,0:0:0:0:
398,66,224415,1,2,0:0:0:0:
373,71,224500,1,2,0:0:0:0:
354,85,224586,1,2,0:0:0:0:
343,107,224672,1,2,0:0:0:0:
342,131,224757,1,10,0:0:0:0:
448,159,224929,5,2,0:0:0:0:
460,138,225015,1,2,0:0:0:0:
465,117,225101,2,0,P|456:96|405:66,1,78.7499975967408,2|0,3:2|0:0,0:0:0:0:
398,66,225787,1,8,0:0:0:0:
342,131,225958,1,2,0:0:0:0:
331,123,226043,1,2,0:0:0:0:
322,115,226129,1,2,0:0:0:0:
315,105,226215,1,2,0:0:0:0:
310,94,226300,1,2,0:0:0:0:
335,18,226472,1,8,0:0:0:0:
220,128,226644,6,0,B|177:118|166:87|178:87|156:44|110:40,1,146.249993305207,2|0,3:2|0:0,0:0:0:0:
97,48,226987,1,8,0:0:0:0:
132,174,227158,6,0,B|89:183|78:214|90:214|68:257|22:261,1,146.249993305207,2|0,3:2|0:0,0:0:0:0:
100,241,227501,1,8,0:0:0:0:
140,308,227673,1,10,0:0:0:0:
159,322,227758,1,10,0:0:0:0:
182,329,227844,1,10,0:0:0:0:
190,237,228015,6,0,P|200:223|248:203,1,48.7499977684022,2|0,3:2|0:0,0:0:0:0:
239,208,228187,1,8,0:0:0:0:
185,78,228358,6,0,P|201:72|253:85,1,48.7499977684022,2|0,3:2|0:0,0:0:0:0:
254,104,228530,1,8,0:0:0:0:
332,2,228701,6,0,P|344:14|353:66,1,48.7499977684022,2|0,3:2|0:0,0:0:0:0:
334,112,228873,1,8,0:0:0:0:
460,73,229044,6,0,P|457:89|423:129,1,48.7499977684022,2|0,3:2|0:0,0:0:0:0:
473,220,229215,2,0,P|456:222|407:204,1,48.7499977684022,2|0,3:2|0:0,0:0:0:0:
342,299,229387,2,0,P|333:284|329:232,1,48.7499977684022,2|0,3:2|0:0,0:0:0:0:
359,186,229558,5,8,0:0:0:0:
425,216,229729,1,2,0:0:0:0:
448,222,229814,1,2,0:0:0:0:
472,220,229900,1,10,0:0:0:0:
430,298,230072,1,2,0:0:0:0:
440,303,230157,1,2,0:0:0:0:
450,310,230243,1,2,0:0:0:0:
459,319,230329,1,2,0:0:0:0:
466,329,230414,1,2,0:0:0:0:
399,369,230587,6,0,B|402:326|431:310|433:322|473:294|470:248,1,146.249993305207,2|0,3:2|0:0,0:0:0:0:
461,238,230929,1,8,0:0:0:0:
346,287,231101,6,0,B|323:249|290:248|294:260|246:252|228:209,1,146.249993305207,2|0,3:2|0:0,0:0:0:0:
300,224,231443,1,8,0:0:0:0:
165,246,231615,1,2,0:0:0:0:
141,251,231700,1,2,0:0:0:0:
120,263,231786,1,2,0:0:0:0:
103,280,231872,1,2,0:0:0:0:
92,302,231957,1,10,0:0:0:0:
46,217,232129,6,0,B|46:171|86:144|88:156|118:142|124:100,1,146.249993305207,2|0,3:2|0:0,0:0:0:0:
110,88,232472,1,8,0:0:0:0:
271,126,232644,6,0,B|265:83|235:69|233:81|193:55|192:9,1,146.249993305207,2|0,3:2|0:0,0:0:0:0:
257,52,232987,1,8,0:0:0:0:
338,99,233158,6,0,P|345:126|333:170,1,48.7499977684022,2|0,3:2|0:0,0:0:0:0:
325,226,233329,2,0,P|313:248|295:264,1,48.7499977684022,2|0,3:2|0:0,0:0:0:0:
226,303,233500,2,0,P|202:311|179:309,1,48.7499977684022,2|0,3:2|0:0,0:0:0:0:
303,272,233672,6,0,P|369:298|409:344,1,97.4999955368044,10|0,0:0|0:0,0:0:0:0:
458,272,233929,1,2,0:0:0:0:
467,284,234015,2,0,P|437:245|423:198,1,97.4999955368044,10|0,0:0|0:0,0:0:0:0:
367,139,234272,1,2,0:0:0:0:
370,149,234358,2,0,P|331:178|284:192,1,97.4999955368044,10|0,0:0|0:0,0:0:0:0:
231,100,234615,1,2,0:0:0:0:
241,94,234701,2,0,P|269:103|299:125,1,48.7499977684022,10|0,0:0|0:0,0:0:0:0:
267,37,234872,6,0,B|226:51|219:83|230:82|213:127|168:137,1,146.249993305207,2|0,3:2|0:0,0:0:0:0:
151,130,235215,1,8,0:0:0:0:
73,88,235387,1,2,0:0:0:0:
60,67,235472,1,2,0:0:0:0:
57,43,235558,1,2,0:0:0:0:
63,19,235644,1,2,0:0:0:0:
77,0,235729,1,10,0:0:0:0:
23,233,236072,6,0,B|67:242|85:288|73:286|80:319|121:333,1,146.249993305207,2|0,3:2|0:0,0:0:0:0:
142,337,236415,1,10,0:0:0:0:
165,329,236500,1,10,0:0:0:0:
184,315,236586,1,10,0:0:0:0:
189,232,236758,1,8,0:0:0:0:
272,250,236929,1,0,3:2:0:0:
248,172,237101,2,0,L|281:160,8,24.3749988842011,8|8|8|8|8|8|8|8|8,0:0|0:0|0:0|0:0|0:0|0:0|0:0|0:0|0:0,0:0:0:0:
238,90,237615,6,0,B|252:133|299:145|296:134|329:138|348:177,1,146.249993305207,2|0,3:2|0:0,0:0:0:0:
346,190,237958,1,8,0:0:0:0:
481,106,238129,6,0,B|444:134|449:182|459:176|467:208|437:239,1,146.249993305207,2|0,3:2|0:0,0:0:0:0:
431,162,238472,1,8,0:0:0:0:
410,63,238644,1,10,0:0:0:0:
429,49,238729,1,10,0:0:0:0:
452,42,238815,1,10,0:0:0:0:
359,123,238987,6,0,P|342:114|297:115,1,48.7499977684022,2|0,3:2|0:0,0:0:0:0:
299,125,239159,1,8,0:0:0:0:
161,100,239329,6,0,P|178:108|203:146,1,48.7499977684022,2|0,3:2|0:0,0:0:0:0:
192,163,239502,1,8,0:0:0:0:
228,262,239672,6,0,P|210:255|165:261,1,48.7499977684022,2|0,3:2|0:0,0:0:0:0:
124,299,239844,1,8,0:0:0:0:
5,212,240015,1,2,0:0:0:0:
1,201,240186,1,2,0:0:0:0:
0,191,240357,1,2,0:0:0:0:
21,125,240529,2,0,P|15:174|63:279,1,146.249993305207,2|0,0:0|0:0,0:0:0:0:
44,270,240872,2,0,P|111:244|160:191,1,146.249993305207,2|0,0:0|0:0,0:0:0:0:
160,182,241215,2,0,P|129:247|133:320,1,146.249993305207,2|0,0:0|0:0,0:0:0:0:
206,345,241558,6,0,P|231:328|254:281,1,75,6|2,3:2|0:0,0:0:0:0:
253,275,241901,2,0,P|269:308|299:330,1,75,2|2,0:0|0:0,0:0:0:0:
285,353,242244,2,0,P|251:336|214:336,1,75,2|2,0:2|0:0,0:0:0:0:
206,345,242587,1,2,0:0:0:0:
201,354,242758,1,2,0:0:0:0:
377,99,244301,6,0,P|402:82|425:35,1,75,2|2,0:0|0:0,0:0:0:0:
424,29,244644,2,0,P|440:62|470:84,1,75,10|2,0:0|0:0,0:0:0:0:
456,107,244987,2,0,P|422:90|385:90,1,75,2|10,0:0|0:0,0:0:0:0:
377,99,245329,1,2,0:0:0:0:
408,170,245501,6,0,P|419:205|446:231,1,75,2|2,0:0|0:0,0:0:0:0:
457,236,245844,2,0,P|421:247|395:274,1,75,2|10,0:0|0:0,0:0:0:0:
385,267,246187,2,0,P|396:231|389:194,1,75,2|2,0:0|0:0,0:0:0:0:
372,194,246529,2,0,P|336:182|310:155,1,75,10|2,0:0|0:0,0:0:0:0:
310,140,246872,1,2,0:0:0:0:
205,27,247044,6,0,P|231:53|243:88,1,75,2|2,0:0|0:0,0:0:0:0:
236,98,247387,2,0,P|200:86|174:59,1,75,10|2,0:0|0:0,0:0:0:0:
159,53,247729,2,0,P|132:79|120:114,1,75,2|10,0:0|0:0,0:0:0:0:
128,124,248072,2,0,P|163:112|189:85,1,75,2|2,0:0|0:0,0:0:0:0:
252,246,249787,5,2,0:0:0:0:
285,234,249958,1,2,0:0:0:0:
214,214,250129,5,10,0:0:0:0:
233,226,250301,1,2,0:0:0:0:
207,161,250472,5,2,0:0:0:0:
211,182,250644,1,10,0:0:0:0:
239,109,250815,5,2,0:0:0:0:
229,124,250987,2,0,P|164:135|144:119,1,75,2|2,0:0|3:2,0:0:0:0:
86,93,251329,2,0,P|120:104|139:136,1,75,2|10,0:0|0:0,0:0:0:0:
158,216,251672,2,0,P|140:182|148:146,1,75,2|2,0:0|0:0,0:0:0:0:
219,121,252015,2,0,P|154:132|134:116,1,75,10|2,0:0|0:0,0:0:0:0:
298,202,252358,5,2,0:0:0:0:
286,200,252529,2,0,P|307:229|343:239,1,75,2|2,3:2|0:0,0:0:0:0:
400,288,252872,2,0,P|435:278|457:248,1,75,10|2,0:0|0:0,0:0:0:0:
512,199,253215,2,0,P|505:162|477:138,1,75,2|10,0:0|0:0,0:0:0:0:
465,145,253558,1,2,0:0:0:0:
466,159,253729,1,2,0:0:0:0:
182,219,255272,5,2,3:2:0:0:
138,234,255443,1,2,0:0:0:0:
231,260,255615,5,10,0:0:0:0:
206,245,255786,1,2,0:0:0:0:
241,330,255958,5,2,0:0:0:0:
235,302,256129,1,10,0:0:0:0:
194,373,256301,5,2,0:0:0:0:
223,359,256472,1,0,0:0:0:0:
124,342,256644,5,2,3:2:0:0:
124,342,256815,1,2,3:2:0:0:
48,372,256987,1,10,0:0:0:0:
95,227,257158,2,0,L|80:271,1,37.5,2|2,0:0|0:0,0:0:0:0:
85,229,257329,2,0,L|72:264,1,37.5,2|2,0:0|0:0,0:0:0:0:
63,272,257501,1,8,0:0:0:0:
13,207,257672,1,2,0:0:0:0:
11,197,257844,1,2,0:0:0:0:
156,109,258015,5,2,3:2:0:0:
137,151,258186,1,2,3:2:0:0:
118,57,258357,5,10,0:0:0:0:
131,83,258529,1,2,0:0:0:0:
49,42,258700,5,2,0:0:0:0:
76,50,258872,1,10,0:0:0:0:
3,86,259043,5,2,0:0:0:0:
19,58,259215,1,2,0:0:0:0:
62,141,259387,5,2,3:2:0:0:
62,141,259558,1,2,3:2:0:0:
102,214,259729,1,8,0:0:0:0:
212,197,259901,2,0,L|168:182,1,37.5,2|2,0:0|0:0,0:0:0:0:
210,187,260072,2,0,L|175:174,1,37.5,2|2,0:0|0:0,0:0:0:0:
167,165,260244,1,8,0:0:0:0:
285,252,260415,2,0,L|329:237,1,37.5,2|2,0:0|0:0,0:0:0:0:
287,242,260587,2,0,L|322:229,1,37.5,2|2,0:0|0:0,0:0:0:0:
330,220,260758,5,2,3:2:0:0:
285,162,260929,1,2,3:2:0:0:
446,224,261100,5,10,0:0:0:0:
376,209,261272,1,2,0:0:0:0:
512,145,261444,5,2,0:0:0:0:
456,189,261615,1,10,0:0:0:0:
475,42,261786,5,2,0:0:0:0:
507,110,261958,1,2,0:0:0:0:
465,41,262129,5,0,0:0:0:0:
465,41,262815,6,0,L|410:58,1,37.5,10|0,0:0|0:0,0:0:0:0:
340,128,262987,6,0,L|285:145,1,37.5,8|0,0:0|0:0,0:0:0:0:
212,231,263158,6,0,L|157:248,1,37.5,10|0,0:0|0:0,0:0:0:0:
87,318,263330,6,0,L|32:335,1,37.5,8|0,0:0|0:0,0:0:0:0:
356,308,263501,6,0,L|372:244,1,60,6|0,3:2|0:0,0:0:0:0:
296,207,263672,2,0,L|280:271,1,60,2|0,0:0|0:0,0:0:0:0:
440,210,263844,1,10,0:0:0:0:
212,231,264015,1,2,0:0:0:0:
196,273,264100,1,2,0:0:0:0:
181,315,264186,1,2,0:0:0:0:
218,328,264272,1,2,0:0:0:0:
262,337,264357,1,2,3:2:0:0:
281,265,264530,1,8,0:0:0:0:
114,114,264701,5,2,0:0:0:0:
114,114,264787,1,2,0:0:0:0:
114,114,264872,2,0,L|97:51,1,56.25,2|0,3:2|0:0,0:0:0:0:
96,44,265215,1,8,0:0:0:0:
91,25,265387,2,0,P|140:101|239:90,1,180,2|0,0:0|0:0,0:0:0:0:
153,260,265729,2,0,P|172:172|107:111,1,180,2|0,3:2|0:0,0:0:0:0:
66,215,266072,1,2,0:0:0:0:
54,242,266158,1,2,0:0:0:0:
41,269,266244,6,0,L|24:196,1,60,2|0,3:2|0:0,0:0:0:0:
153,260,266415,2,0,L|139:201,1,60,2|0,0:0|0:0,0:0:0:0:
264,167,266587,2,0,L|247:240,1,60,10|0,0:0|0:0,0:0:0:0:
374,169,266758,2,0,L|360:227,1,60,2|0,0:0|0:0,0:0:0:0:
243,229,266929,1,2,0:0:0:0:
249,199,267014,1,2,0:0:0:0:
256,170,267101,1,2,3:2:0:0:
274,93,267272,1,8,0:0:0:0:
459,255,267444,5,2,0:0:0:0:
459,255,267529,1,2,0:0:0:0:
459,255,267615,2,0,B|386:286|386:286|370:277|370:277|286:310,1,180,2|0,3:2|0:0,0:0:0:0:
444,347,267958,2,0,L|514:316,1,60,8|0,0:0|0:0,0:0:0:0:
512,188,268129,1,2,0:0:0:0:
468,176,268214,1,2,0:0:0:0:
424,165,268300,1,2,0:0:0:0:
381,153,268386,1,2,0:0:0:0:
337,142,268471,1,2,3:2:0:0:
407,80,268644,1,8,0:0:0:0:
350,16,268815,1,0,0:0:0:0:
120,143,268987,6,0,L|184:127,1,60,6|0,3:2|0:0,0:0:0:0:
221,203,269158,2,0,L|157:219,1,60,2|0,0:0|0:0,0:0:0:0:
218,59,269330,1,10,0:0:0:0:
197,287,269501,1,2,0:0:0:0:
155,303,269586,1,2,0:0:0:0:
113,318,269672,1,2,0:0:0:0:
100,281,269758,1,2,0:0:0:0:
91,237,269843,1,2,3:2:0:0:
163,218,270016,1,8,0:0:0:0:
391,335,270187,5,2,0:0:0:0:
391,335,270272,1,2,0:0:0:0:
391,335,270358,1,0,3:2:0:0:
512,160,270529,1,0,0:0:0:0:
512,175,270701,1,10,0:0:0:0:
512,193,270872,2,0,P|513:109|403:81,1,180,2|0,0:0|0:0,0:0:0:0:
335,123,271215,2,0,P|411:85|411:0,1,180,2|0,3:2|0:0,0:0:0:0:
267,34,271558,5,2,0:0:0:0:
255,31,271644,1,2,0:0:0:0:
243,28,271729,2,0,L|305:44,1,60,2|0,3:2|0:0,0:0:0:0:
197,108,271901,2,0,L|138:93,1,60,2|0,0:0|0:0,0:0:0:0:
233,199,272072,1,8,0:0:0:0:
216,20,272244,1,2,0:0:0:0:
224,64,272329,1,2,0:0:0:0:
232,108,272415,1,2,0:0:0:0:
240,152,272501,1,2,0:0:0:0:
248,196,272587,1,2,3:2:0:0:
313,141,272758,1,8,0:0:0:0:
171,210,272929,5,2,0:0:0:0:
171,210,273015,1,2,0:0:0:0:
171,210,273101,2,0,L|33:177,1,120,2|0,3:2|0:0,0:0:0:0:
250,384,273444,2,0,L|222:267,1,120,10|0,0:0|0:0,0:0:0:0:
108,333,273787,1,2,0:0:0:0:
108,333,273872,1,2,0:0:0:0:
108,333,273958,1,2,0:0:0:0:
349,224,274129,1,8,0:0:0:0:
163,74,274301,1,0,3:2:0:0:
310,0,274472,6,0,L|288:68,1,60,6|0,3:2|0:0,0:0:0:0:
220,165,274644,2,0,L|242:97,1,60,2|0,0:0|0:0,0:0:0:0:
471,241,274815,2,0,L|449:173,1,60,10|0,0:0|0:0,0:0:0:0:
381,76,274987,2,0,L|403:144,1,60,2|0,0:0|0:0,0:0:0:0:
479,242,275158,1,2,0:0:0:0:
469,213,275243,1,2,0:0:0:0:
460,184,275329,1,2,3:2:0:0:
506,313,275501,1,8,0:0:0:0:
339,220,275672,5,2,0:0:0:0:
339,220,275758,1,2,0:0:0:0:
339,220,275844,2,0,L|314:286,1,56.25,2|0,3:2|0:0,0:0:0:0:
313,288,276187,1,10,0:0:0:0:
308,304,276358,2,0,P|281:258|148:269,1,180,2|0,0:0|0:0,0:0:0:0:
88,255,276701,2,0,P|159:206|157:119,1,180,2|0,3:2|0:0,0:0:0:0:
11,51,277044,5,2,0:0:0:0:
11,51,277129,1,2,0:0:0:0:
11,51,277215,2,0,L|85:32,1,60,2|0,3:2|0:0,0:0:0:0:
64,131,277387,2,0,L|5:145,1,60,2|0,0:0|0:0,0:0:0:0:
149,0,277558,1,8,0:0:0:0:
10,221,277729,1,2,0:0:0:0:
68,122,277901,1,2,0:0:0:0:
38,129,277986,1,2,0:0:0:0:
9,136,278072,1,2,3:2:0:0:
181,276,278244,2,0,L|339:311,1,120,8|0,0:0|0:0,0:0:0:0:
420,319,278501,5,0,0:0:0:0:
420,319,278587,2,0,L|346:338,1,60,2|0,3:2|0:0,0:0:0:0:
367,239,278759,2,0,L|425:224,1,60,2|0,0:0|0:0,0:0:0:0:
298,376,278930,1,8,0:0:0:0:
468,201,279101,1,2,0:0:0:0:
453,243,279186,1,2,0:0:0:0:
439,286,279272,1,2,0:0:0:0:
424,328,279358,1,2,0:0:0:0:
410,371,279443,1,2,3:2:0:0:
283,176,279615,1,8,0:0:0:0:
367,239,279787,1,0,0:0:0:0:
89,297,279958,6,0,L|113:230,1,60,6|2,3:2|0:0,0:0:0:0:
204,218,280129,2,0,L|180:285,1,60,2|2,0:0|0:0,0:0:0:0:
283,176,280301,2,0,L|262:119,1,60,10|2,0:0|0:0,0:0:0:0:
339,58,280472,2,0,L|359:114,1,60,2|2,0:0|0:0,0:0:0:0:
144,2,280644,1,2,0:0:0:0:
144,2,280729,1,2,0:0:0:0:
144,2,280815,1,2,3:2:0:0:
49,76,280987,1,8,0:0:0:0:
277,4,281158,5,2,0:0:0:0:
277,4,281244,1,2,0:0:0:0:
277,4,281329,1,2,3:2:0:0:
144,120,281501,2,0,P|146:96|157:77,1,44.999998626709,2|0,0:0|0:0,0:0:0:0:
173,80,281672,2,0,P|171:104|160:123,1,44.999998626709,10|0,0:0|0:0,0:0:0:0:
177,192,281844,2,0,P|188:127|245:96,1,134.999995880127,2|0,0:0|0:0,0:0:0:0:
321,269,282187,2,0,P|264:238|253:174,1,134.999995880127,2|0,3:2|0:0,0:0:0:0:
331,190,282529,5,2,0:0:0:0:
331,190,282615,1,2,0:0:0:0:
331,190,282701,2,0,L|17:248,1,300,2|0,3:2|0:0,0:0:0:0:
103,206,283558,1,2,0:0:0:0:
180,238,283729,1,2,0:0:0:0:
241,181,283901,1,2,0:0:0:0:
35,244,284072,6,0,L|486:160,1,450,2|2,0:0|0:0,0:0:0:0:
477,161,285272,1,2,0:0:0:0:
228,344,285444,6,0,L|265:225,2,120,6|2|10,3:2|0:0|0:0,0:0:0:0:
313,286,285958,1,2,0:0:0:0:
299,243,286043,1,2,0:0:0:0:
285,200,286129,1,2,0:0:0:0:
272,157,286215,1,2,0:0:0:0:
258,114,286301,1,2,3:2:0:0:
382,179,286472,1,8,0:0:0:0:
81,47,286644,5,2,0:0:0:0:
81,47,286729,1,2,0:0:0:0:
81,47,286815,2,0,P|154:53|170:119,1,134.999995880127,2|0,3:2|0:0,0:0:0:0:
84,163,287158,2,0,L|288:105,1,180,10|0,0:0|0:0,0:0:0:0:
125,293,287501,1,2,0:0:0:0:
59,242,287672,1,2,3:2:0:0:
144,285,287844,1,8,0:0:0:0:
41,247,288015,1,2,0:0:0:0:
459,314,288187,6,0,L|328:355,2,120,2|2|10,3:2|0:0|0:0,0:0:0:0:
435,115,288701,1,2,0:0:0:0:
435,115,288787,1,2,0:0:0:0:
435,115,288872,2,0,L|499:136,1,60,2|0,0:0|0:0,0:0:0:0:
369,250,289044,2,0,L|305:229,1,60,2|0,3:2|0:0,0:0:0:0:
412,184,289215,1,8,0:0:0:0:
218,47,289387,5,0,0:0:0:0:
185,147,289558,2,0,P|169:125|169:92,1,44.999998626709,2|0,3:2|0:0,0:0:0:0:
251,111,289729,2,0,P|267:133|267:166,1,44.999998626709,2|0,0:0|0:0,0:0:0:0:
176,222,289901,2,0,L|227:4,1,180,10|0,0:0|0:0,0:0:0:0:
84,163,290244,1,2,0:0:0:0:
84,163,290329,1,2,0:0:0:0:
84,163,290415,2,0,L|120:294,1,120,2|8,3:2|0:0,0:0:0:0:
115,278,290758,1,0,0:0:0:0:
353,270,290929,6,0,L|277:246,1,60,6|0,3:2|0:0,0:0:0:0:
269,150,291101,2,0,L|345:174,1,60,2|0,0:0|0:0,0:0:0:0:
240,64,291272,1,8,0:0:0:0:
316,336,291444,1,2,0:0:0:0:
359,348,291529,1,2,0:0:0:0:
402,361,291615,1,2,0:0:0:0:
416,320,291701,1,2,0:0:0:0:
429,277,291786,1,2,3:2:0:0:
353,270,291958,1,8,0:0:0:0:
106,356,292129,5,2,0:0:0:0:
106,356,292215,1,2,0:0:0:0:
106,356,292301,2,0,P|174:284|152:248,1,134.999995880127,2|0,3:2|0:0,0:0:0:0:
94,267,292644,2,0,L|296:214,1,180,10|0,0:0|0:0,0:0:0:0:
197,132,292987,1,2,0:0:0:0:
151,202,293158,1,2,3:2:0:0:
189,123,293329,1,8,0:0:0:0:
168,216,293501,1,2,0:0:0:0:
31,53,293672,6,0,L|50:117,1,60,2|0,3:2|0:0,0:0:0:0:
118,2,293844,2,0,L|135:59,1,60,2|0,0:0|0:0,0:0:0:0:
298,109,294015,2,0,L|317:45,1,60,10|0,0:0|0:0,0:0:0:0:
385,160,294187,2,0,L|402:102,1,60,2|0,0:0|0:0,0:0:0:0:
229,5,294358,1,2,0:0:0:0:
229,5,294444,1,2,0:0:0:0:
229,5,294529,1,2,3:2:0:0:
303,206,294701,1,8,0:0:0:0:
471,124,294872,1,0,0:0:0:0:
425,302,295044,6,0,L|489:324,1,60,2|0,3:2|0:0,0:0:0:0:
401,378,295215,2,0,L|337:356,1,60,2|0,0:0|0:0,0:0:0:0:
295,194,295387,2,0,L|359:216,1,60,10|0,0:0|0:0,0:0:0:0:
223,346,295558,2,0,L|159:324,1,60,2|0,0:0|0:0,0:0:0:0:
354,98,295729,6,0,L|115:147,1,202.499993820191,2|0,0:0|0:0,0:0:0:0:
303,30,296072,1,10,0:0:0:0:
219,1,296244,1,0,3:2:0:0:
82,92,296415,6,0,L|110:22,1,60,6|0,3:2|0:0,0:0:0:0:
230,154,296587,2,0,L|202:224,1,60,2|0,0:0|0:0,0:0:0:0:
43,260,296758,2,0,L|71:190,1,60,10|0,0:0|0:0,0:0:0:0:
237,145,296929,1,2,0:0:0:0:
192,153,297014,1,2,0:0:0:0:
148,161,297100,1,2,0:0:0:0:
104,170,297186,1,2,0:0:0:0:
60,178,297271,1,2,3:2:0:0:
146,250,297444,1,8,0:0:0:0:
94,328,297615,1,0,0:0:0:0:
267,377,297787,6,0,P|286:327|375:331,1,134.999995880127,2|0,3:2|0:0,0:0:0:0:
392,377,298129,2,0,B|341:353|341:353|321:367|321:367|186:308,1,180,10|0,0:0|0:0,0:0:0:0:
309,197,298472,1,2,0:0:0:0:
242,228,298644,1,2,3:2:0:0:
319,180,298815,1,8,0:0:0:0:
238,244,298987,1,2,0:0:0:0:
427,14,299158,6,0,L|296:45,2,120,2|2|10,3:2|0:0|0:0,0:0:0:0:
334,189,299672,1,2,0:0:0:0:
290,176,299757,1,2,0:0:0:0:
247,163,299843,1,2,0:0:0:0:
204,151,299929,1,2,0:0:0:0:
161,138,300014,1,2,3:2:0:0:
238,244,300187,1,8,0:0:0:0:
108,58,300358,1,0,0:0:0:0:
227,252,300529,6,0,P|207:264|165:260,1,44.999998626709,2|0,3:2|0:0,0:0:0:0:
179,341,300701,2,0,P|201:344|219:356,1,44.999998626709,2|0,0:0|0:0,0:0:0:0:
285,280,300872,2,0,L|88:343,1,180,10|0,0:0|0:0,0:0:0:0:
62,160,301215,1,2,0:0:0:0:
62,160,301301,1,2,0:0:0:0:
62,160,301387,2,0,L|196:198,1,120,2|10,3:2|0:0,0:0:0:0:
177,192,301729,1,0,0:0:0:0:
282,53,301901,6,0,L|306:135,1,60,6|0,3:2|0:0,0:0:0:0:
392,142,302072,2,0,L|368:60,1,60,2|0,0:0|0:0,0:0:0:0:
449,20,302244,2,0,L|473:102,1,60,10|0,0:0|0:0,0:0:0:0:
283,42,302415,1,2,0:0:0:0:
326,53,302500,1,2,0:0:0:0:
370,64,302586,1,2,0:0:0:0:
413,75,302672,1,2,0:0:0:0:
457,86,302758,1,2,3:2:0:0:
317,187,302929,1,8,0:0:0:0:
363,257,303101,1,0,0:0:0:0:
119,218,303272,6,0,P|135:166|225:187,1,134.999995880127,2|0,3:2|0:0,0:0:0:0:
269,266,303615,2,0,L|75:209,1,180,10|0,0:0|0:0,0:0:0:0:
125,372,303958,1,2,0:0:0:0:
183,315,304129,1,2,3:2:0:0:
145,384,304301,1,8,0:0:0:0:
170,312,304472,1,2,0:0:0:0:
500,303,304644,6,0,L|460:157,2,120,2|2|10,3:2|0:0|0:0,0:0:0:0:
301,180,305158,1,2,0:0:0:0:
315,137,305243,1,2,0:0:0:0:
329,94,305329,1,2,0:0:0:0:
343,51,305415,1,2,0:0:0:0:
357,9,305500,1,2,3:2:0:0:
254,122,305672,2,0,L|371:97,1,120,8|0,0:0|0:0,0:0:0:0:
185,289,305929,5,2,0:0:0:0:
185,289,306015,2,0,P|166:251|168:212,1,60,2|0,3:2|0:0,0:0:0:0:
237,210,306187,2,0,P|256:248|254:287,1,60,2|0,0:0|0:0,0:0:0:0:
349,252,306358,2,0,P|333:277|328:306,1,60,10|0,0:0|0:0,0:0:0:0:
73,245,306529,2,0,P|88:219|93:190,1,60,2|0,0:0|0:0,0:0:0:0:
51,129,306701,1,2,0:0:0:0:
183,10,306872,5,0,3:2:0:0:
188,40,306957,1,0,3:2:0:0:
194,69,307043,1,10,0:0:0:0:
240,336,307215,1,10,0:0:0:0:
437,59,307729,5,0,0:0:0:0:
377,112,307900,1,0,0:0:0:0:
377,112,308586,1,2,0:0:0:0:
306,81,308929,1,2,0:0:0:0:
225,143,309272,5,8,0:0:0:0:
225,143,309358,1,8,0:0:0:0:
225,143,309443,2,0,L|240:90,1,44.999998626709,8|0,0:0|0:0,0:0:0:0:
120,28,309615,1,8,0:0:0:0:
124,41,309700,1,8,0:0:0:0:
127,53,309786,5,4,3:3:0:0:
148,121,309872,1,4,3:3:0:0:
168,190,309958,1,8,3:3:0:0:
188,258,310043,1,8,3:3:0:0:
206,327,310129,6,0,L|222:263,1,60,6|0,3:2|0:0,0:0:0:0:
116,246,310301,2,0,L|100:310,1,60,2|0,0:0|0:0,0:0:0:0:
289,221,310472,1,10,0:0:0:0:
32,270,310643,1,2,0:0:0:0:
16,312,310728,1,2,0:0:0:0:
1,354,310814,1,2,0:0:0:0:
38,367,310900,1,2,0:0:0:0:
82,376,310987,1,2,3:2:0:0:
101,304,311158,1,8,0:0:0:0:
289,221,311329,5,2,0:0:0:0:
366,205,311501,1,2,3:2:0:0:
360,130,311672,1,2,0:0:0:0:
438,107,311844,1,10,0:0:0:0:
438,107,312015,1,2,0:0:0:0:
431,300,312187,5,2,0:0:0:0:
439,94,312358,1,2,3:2:0:0:
231,165,312529,5,10,0:0:0:0:
440,82,312701,1,2,0:0:0:0:
182,57,312872,6,0,B|210:163|210:163|205:173|205:173|243:307,1,240,2|10,3:2|0:0,0:0:0:0:
113,305,313387,1,2,0:0:0:0:
125,261,313472,1,2,0:0:0:0:
137,218,313558,1,2,0:0:0:0:
149,174,313644,1,2,0:0:0:0:
161,131,313729,1,2,3:2:0:0:
39,191,313901,1,8,0:0:0:0:
237,287,314072,1,2,0:0:0:0:
176,362,314244,5,0,3:2:0:0:
436,78,314587,2,0,P|369:25|293:63,1,180,10|0,0:0|0:0,0:0:0:0:
368,205,314929,2,0,P|442:163|436:78,1,180,2|0,0:0|0:0,0:0:0:0:
300,148,315272,1,10,0:0:0:0:
300,148,315615,5,2,3:2:0:0:
100,44,315787,1,2,0:0:0:0:
201,247,315958,1,10,0:0:0:0:
1,143,316130,1,2,0:0:0:0:
167,13,316301,5,2,0:0:0:0:
112,152,316472,1,2,3:2:0:0:
49,291,316644,1,10,0:0:0:0:
300,148,316815,2,0,L|135:193,1,120,2|0,0:0|3:2,0:0:0:0:
315,13,317158,2,0,L|430:44,1,120,2|8,0:0|0:0,0:0:0:0:
254,299,317501,2,0,L|89:344,1,120,2|0,0:0|0:0,0:0:0:0:
300,148,317844,1,2,3:2:0:0:
416,329,318015,1,8,0:0:0:0:
430,44,318187,1,2,3:2:0:0:
509,199,318358,6,0,L|379:162,1,120,6|0,3:2|0:0,0:0:0:0:
129,97,318701,1,8,0:0:0:0:
30,83,318872,1,2,0:0:0:0:
73,72,318957,1,2,0:0:0:0:
117,61,319043,1,2,0:0:0:0:
160,50,319129,1,2,0:0:0:0:
204,39,319214,1,2,3:2:0:0:
24,177,319387,1,8,0:0:0:0:
176,312,319558,5,2,0:0:0:0:
176,312,319644,1,2,0:0:0:0:
176,311,319729,2,0,B|237:332,1,56.25,2|0,3:2|0:0,0:0:0:0:
216,337,320072,1,10,0:0:0:0:
205,345,320244,2,0,P|278:351|327:256,1,180,2|0,0:0|0:0,0:0:0:0:
426,256,320587,2,0,P|353:262|304:167,1,180,2|0,3:2|0:0,0:2:0:0:
426,56,320929,5,2,0:0:0:0:
426,56,321015,1,2,0:0:0:0:
426,56,321101,2,0,L|387:191,2,120,2|2|10,3:2|0:0|0:0,0:0:0:0:
134,162,321615,2,0,L|249:128,1,120,2|0,0:0|0:0,0:0:0:0:
202,230,321958,1,0,3:2:0:0:
60,126,322129,1,8,0:0:0:0:
273,331,322301,5,2,0:0:0:0:
353,303,322472,1,2,3:2:0:0:
310,234,322644,1,2,0:0:0:0:
395,202,322815,1,10,0:0:0:0:
395,202,322987,1,2,0:0:0:0:
351,34,323158,5,2,0:0:0:0:
485,172,323329,1,2,3:2:0:0:
443,0,323501,5,10,0:0:0:0:
310,234,323672,1,2,0:0:0:0:
462,82,323844,6,0,L|182:143,1,240,6|10,3:2|0:0,0:0:0:0:
482,280,324358,1,2,0:0:0:0:
482,280,324444,1,2,0:0:0:0:
482,280,324529,2,0,L|459:340,1,60,2|0,0:0|0:0,0:0:0:0:
373,341,324701,2,0,L|396:281,1,60,2|0,3:2|0:0,0:0:0:0:
178,201,324872,1,8,0:0:0:0:
231,272,325044,5,2,0:0:0:0:
231,272,325129,1,2,0:0:0:0:
231,272,325215,1,2,3:2:0:0:
164,104,325558,2,0,L|233:278,1,180,10|0,0:0|0:0,0:0:0:0:
77,366,325901,2,0,L|255:255,1,180,2|0,0:0|0:0,0:0:0:0:
382,365,326244,2,0,L|228:270,1,180,10|0,0:0|0:0,0:0:0:0:
469,203,326587,5,2,3:2:0:0:
326,297,326758,1,2,0:0:0:0:
432,15,326929,1,10,0:0:0:0:
282,116,327100,1,2,0:0:0:0:
500,285,327272,5,2,0:0:0:0:
383,242,327444,1,2,3:2:0:0:
263,199,327615,1,10,0:0:0:0:
432,15,327787,6,0,L|465:148,1,120,2|0,0:0|3:2,0:0:0:0:
282,116,328129,2,0,L|253:0,1,120,2|8,0:0|0:0,0:0:0:0:
354,358,328472,2,0,L|387:225,1,120,2|0,0:0|0:0,0:0:0:0:
171,145,328815,1,0,3:2:0:0:
162,174,328900,1,0,3:2:0:0:
151,202,328987,1,10,2:0:0:0:
93,360,329158,1,10,2:0:0:0:
215,214,329329,6,0,L|61:258,1,120,6|0,3:2|0:0,0:0:0:0:
125,110,329587,1,2,0:0:0:0:
125,110,329672,2,0,L|198:134,1,60,10|0,0:0|0:0,0:0:0:0:
150,270,329844,1,2,0:0:0:0:
164,227,329929,1,2,0:0:0:0:
175,184,330015,1,2,0:0:0:0:
190,141,330101,1,2,0:0:0:0:
203,98,330187,1,2,3:2:0:0:
323,266,330358,2,0,L|310:207,1,60,10|0,0:0|0:0,0:0:0:0:
377,163,330529,2,0,L|389:221,1,60,2|0,0:0|0:0,0:0:0:0:
421,378,330701,5,2,3:2:0:0:
421,378,331044,2,0,L|408:319,1,60,10|0,0:0|0:0,0:0:0:0:
389,221,331215,2,0,P|411:136|508:138,1,180,2|0,0:0|0:0,0:0:0:0:
399,118,331558,2,0,P|315:106|296:24,1,180,2|0,3:2|0:0,0:0:0:0:
364,0,331901,1,2,0:0:0:0:
243,147,332072,6,0,B|294:136|294:136|142:55,1,180,2|0,3:2|0:0,0:0:0:0:
48,109,332415,2,0,L|144:157,1,60,10|0,0:0|0:0,0:0:0:0:
125,15,332587,1,2,0:0:0:0:
132,59,332672,1,2,0:0:0:0:
140,103,332758,1,2,0:0:0:0:
148,147,332844,1,2,0:0:0:0:
156,192,332929,1,2,3:2:0:0:
48,109,333101,1,8,0:0:0:0:
264,251,333272,5,2,0:0:0:0:
264,251,333358,1,2,0:0:0:0:
264,251,333444,2,0,P|333:229|343:130,1,180,2|0,3:2|0:0,0:0:0:0:
257,96,333787,2,0,L|466:161,1,180,10|0,0:0|0:0,0:0:0:0:
468,254,334129,6,0,P|398:275|388:374,1,146.249993305207,2|0,0:0|0:0,0:0:0:0:
444,378,334472,2,0,L|276:325,1,146.249993305207,10|0,0:0|0:0,0:0:0:0:
139,384,334815,6,0,L|89:233,1,120,6|0,3:2|0:0,0:0:0:0:
226,221,335072,1,2,0:0:0:0:
226,221,335158,2,0,L|209:285,1,60,10|0,0:0|0:0,0:0:0:0:
101,338,335329,1,2,0:0:0:0:
86,295,335414,1,2,0:0:0:0:
72,252,335500,1,2,0:0:0:0:
58,209,335586,1,2,0:0:0:0:
43,167,335672,1,2,3:2:0:0:
141,127,335844,2,0,L|165:59,1,60,10|0,0:0|0:0,0:0:0:0:
78,66,336015,2,0,L|102:-2,1,60,2|0,0:0|0:0,0:0:0:0:
43,167,336187,5,0,3:2:0:0:
274,18,336358,1,2,0:0:0:0:
277,29,336529,1,10,0:0:0:0:
280,40,336701,2,0,P|341:105|419:60,1,180,2|0,0:0|0:0,0:0:0:0:
507,31,337044,2,0,P|431:78|460:164,1,180,2|0,3:2|0:0,0:0:0:0:
512,195,337387,1,2,0:0:0:0:
284,269,337558,6,0,L|381:248,1,60,2|0,3:2|0:0,0:0:0:0:
358,169,337729,2,0,L|261:190,1,60,2|0,0:0|0:0,0:0:0:0:
245,336,337901,1,10,0:0:0:0:
177,114,338072,1,2,0:0:0:0:
177,114,338158,1,2,0:0:0:0:
177,114,338244,2,0,L|253:129,1,60,2|0,0:0|0:0,0:0:0:0:
265,54,338415,1,0,3:2:0:0:
104,174,338587,1,10,0:0:0:0:
59,88,338758,6,0,L|264:131,1,180,2|0,0:0|0:0,0:0:0:0:
104,174,339101,1,2,0:0:0:0:
235,136,339272,2,0,L|162:121,1,60,10|0,0:0|0:0,0:0:0:0:
103,332,339444,2,0,P|43:282|54:216,1,120,2|0,0:0|0:0,0:0:0:0:
269,283,339787,2,0,P|219:343|153:332,1,120,2|8,3:2|0:0,0:0:0:0:
176,123,340129,1,2,3:2:0:0:
413,308,340301,6,0,L|467:186,1,120,6|0,3:2|0:0,0:0:0:0:
370,211,340558,1,2,0:0:0:0:
370,211,340644,2,0,L|351:127,1,60,10|0,0:0|0:0,0:0:0:0:
403,57,340815,1,2,0:0:0:0:
403,57,340901,1,2,0:0:0:0:
403,57,340987,2,0,B|423:140|423:140|488:-2,1,240,2|10,0:0|0:0,0:0:0:0:
461,198,341501,1,2,0:0:0:0:
277,126,341672,5,2,3:2:0:0:
277,126,342015,2,0,L|256:51,1,60,10|0,0:0|0:0,0:0:0:0:
56,142,342187,2,0,P|161:170|189:251,1,180,2|0,0:0|0:0,0:0:0:0:
48,228,342529,2,0,P|123:258|51:290,1,180,2|0,3:2|0:0,0:0:0:0:
0,287,342872,1,2,0:0:0:0:
285,332,343044,6,0,L|359:351,1,60,2|0,3:2|0:0,0:0:0:0:
413,273,343215,2,0,L|339:254,1,60,2|0,0:0|0:0,0:0:0:0:
322,163,343387,2,0,L|396:182,1,60,10|0,0:0|0:0,0:0:0:0:
512,261,343558,1,2,0:0:0:0:
512,261,343644,1,2,0:0:0:0:
512,261,343729,2,0,L|374:289,1,120,2|0,0:0|3:2,0:0:0:0:
394,284,344072,1,8,0:0:0:0:
495,172,344244,1,0,0:0:0:0:
301,52,344415,6,0,B|282:10|282:10|229:160,1,180,2|0,3:2|0:0,0:0:0:0:
245,211,344758,2,0,P|246:182|106:170,1,180,10|0,0:0|0:0,0:0:0:0:
220,330,345101,6,0,B|203:365|203:365|158:238,1,146.249993305207,2|0,0:0|0:0,0:0:0:0:
173,194,345444,2,0,P|174:217|55:228,1,146.249993305207,10|0,0:0|0:0,0:0:0:0:
11,111,345787,6,0,L|143:140,1,120,2|0,3:2|0:0,0:0:0:0:
249,1,346129,2,0,P|193:27|205:87,1,120,10|0,0:0|0:0,0:0:0:0:
270,103,346387,1,2,0:0:0:0:
308,92,346472,1,2,0:0:0:0:
347,82,346558,1,2,0:0:0:0:
385,71,346644,1,2,3:2:0:0:
489,206,346815,2,0,L|512:151,1,60,10|0,0:0|0:0,0:0:0:0:
410,198,346987,2,0,L|432:142,1,60,2|0,0:0|0:0,0:0:0:0:
485,3,347158,5,2,3:2:0:0:
201,97,347329,1,2,0:0:0:0:
189,100,347501,1,10,0:0:0:0:
177,102,347672,2,0,L|363:153,1,180,2|0,0:0|0:0,0:0:0:0:
269,49,348015,2,0,L|95:96,1,180,2|0,3:2|0:0,0:0:0:0:
24,117,348358,1,2,0:0:0:0:
210,273,348529,6,0,L|171:379,1,89.9999972534181,2|0,3:2|0:0,0:0:0:0:
306,262,348872,2,0,L|274:346,1,89.9999972534181,2|0,0:0|0:0,0:0:0:0:
399,249,349215,2,0,L|367:333,1,89.9999972534181,2|0,0:0|0:0,0:0:0:0:
350,187,349558,1,2,0:0:0:0:
350,187,349729,2,0,L|318:102,1,89.9999972534181,2|0,0:0|0:0,0:0:0:0:
250,206,350072,2,0,L|218:121,1,89.9999972534181,2|0,0:0|0:0,0:0:0:0:
319,0,350415,6,0,L|245:196,1,168.750006437302,2|0,0:0|0:0,0:0:0:0:
378,260,350758,2,0,L|304:64,1,168.750006437302,2|0,0:0|0:0,0:0:0:0:
467,85,351101,5,2,0:0:0:0:
439,153,351272,1,6,0:0:0:0:
