osu file format v14

[General]
AudioFilename: audio.mp3
AudioLeadIn: 0
PreviewTime: 260261
Countdown: 1
SampleSet: Normal
StackLeniency: 0.7
Mode: 0
LetterboxInBreaks: 0
WidescreenStoryboard: 0

[Editor]
Bookmarks: 22958,87677
DistanceSpacing: 1.2
BeatDivisor: 4
GridSize: 32
TimelineZoom: 1.4

[Metadata]
Title:Escape With The Clouds
TitleUnicode:Escape With The Clouds
Artist:Boxplot
ArtistUnicode:Boxplot
Creator:trevrasher
Version:fortnite
Source:
Tags:
BeatmapID:1839209
BeatmapSetID:879471

[Difficulty]
HPDrainRate:8
CircleSize:4
OverallDifficulty:9
ApproachRate:9.3
SliderMultiplier:1.6
SliderTickRate:1

[Events]
//Background and Video events
0,0,"42144.jpg",0,0
//Break Periods
2,44783,54763
2,103045,259707
//Storyboard Layer 0 (Background)
//Storyboard Layer 1 (Fail)
//Storyboard Layer 2 (Pass)
//Storyboard Layer 3 (Foreground)
//Storyboard Sound Samples

[TimingPoints]
1385,337.078651685393,4,1,0,100,1,0
22958,-100,4,1,0,40,0,0
60710,-100,4,1,0,10,0,0
65092,-133.333333333333,4,1,0,10,0,0
66104,-250,4,1,0,20,0,0
82283,-83.3333333333333,4,1,0,41,0,0
86328,-250,4,1,0,41,0,0
86665,-142.857142857143,4,1,0,41,0,0
87002,-100,4,1,0,41,0,0
87340,-83.3333333333333,4,1,0,41,0,0
87440,-83.3333333333333,4,1,0,41,0,0
260261,-83.3333333333333,4,1,0,20,0,0

[HitObjects]
71,186,22958,6,0,L|79:281,1,80
130,117,23295,1,0,0:0:0:0:
163,209,23463,1,0,0:0:0:0:
163,209,23547,1,0,0:0:0:0:
163,209,23632,1,0,0:0:0:0:
215,128,23800,1,0,0:0:0:0:
178,43,23969,2,0,L|290:52,1,80
272,234,24306,6,0,L|280:329,1,80
311,148,24643,1,0,0:0:0:0:
199,167,24811,1,0,0:0:0:0:
199,167,24896,1,0,0:0:0:0:
199,167,24980,2,0,L|164:254,1,80
130,89,25317,2,0,L|35:96,1,80
69,202,25654,6,0,L|77:297,1,80
89,361,25991,1,0,0:0:0:0:
187,273,26160,2,0,L|159:302,2,40
69,202,26497,1,0,0:0:0:0:
161,194,26665,2,0,L|256:186,1,80
275,43,27002,6,0,L|325:126,1,80
371,213,27340,2,0,P|396:172|414:132,1,80
409,143,27592,1,0,0:0:0:0:
409,143,27677,1,0,0:0:0:0:
272,186,27845,1,0,0:0:0:0:
172,83,28014,6,0,B|153:156|153:156|151:229,1,120
148,340,28351,5,0,0:0:0:0:
278,193,28519,1,0,0:0:0:0:
230,334,28688,1,0,0:0:0:0:
131,209,28856,1,0,0:0:0:0:
131,209,28940,1,0,0:0:0:0:
131,209,29024,1,0,0:0:0:0:
310,326,29193,1,0,0:0:0:0:
352,78,29362,2,0,L|344:158,1,80
116,31,29699,6,0,L|104:145,1,80
29,126,30036,1,0,0:0:0:0:
107,193,30205,1,0,0:0:0:0:
107,193,30289,1,0,0:0:0:0:
107,193,30373,1,0,0:0:0:0:
181,136,30542,1,0,0:0:0:0:
196,264,30710,2,0,L|204:343,1,80
322,128,31047,6,0,L|314:49,1,80
386,183,31384,1,0,0:0:0:0:
332,247,31553,1,0,0:0:0:0:
332,247,31637,1,0,0:0:0:0:
332,247,31722,1,0,0:0:0:0:
349,335,31890,1,0,0:0:0:0:
220,284,32059,2,0,L|113:270,1,80
340,210,32396,6,0,L|447:224,1,80
372,291,32733,1,0,0:0:0:0:
396,144,32901,1,0,0:0:0:0:
396,144,32986,1,0,0:0:0:0:
396,144,33070,1,0,0:0:0:0:
372,291,33238,1,0,0:0:0:0:
107,30,33407,6,0,B|91:85|91:85|89:148,1,120
234,179,33744,6,0,L|148:244,1,80
100,274,34081,1,0,0:0:0:0:
187,314,34250,1,0,0:0:0:0:
187,314,34334,1,0,0:0:0:0:
187,314,34418,2,0,L|170:218,1,80
267,345,34755,2,0,L|346:355,1,80
182,235,35092,6,0,L|133:171,1,80
84,97,35429,1,0,0:0:0:0:
168,58,35598,1,0,0:0:0:0:
168,58,35682,1,0,0:0:0:0:
168,58,35767,2,0,L|202:165,1,80
257,52,36104,2,0,L|336:62,1,80
311,200,36441,6,0,L|300:279,1,80
287,358,36778,1,0,0:0:0:0:
388,293,36946,1,0,0:0:0:0:
388,293,37031,1,0,0:0:0:0:
388,293,37115,1,0,0:0:0:0:
400,203,37283,1,0,0:0:0:0:
208,278,37452,2,0,L|219:199,1,80
399,52,37789,6,0,L|335:100,1,80
264,155,38126,1,0,0:0:0:0:
271,248,38295,1,0,0:0:0:0:
271,248,38379,1,0,0:0:0:0:
271,248,38463,1,0,0:0:0:0:
191,208,38632,1,0,0:0:0:0:
52,46,38800,6,0,B|113:67|113:67|159:111,1,120
100,315,39137,6,0,L|163:266,1,80
163,265,39390,1,0,0:0:0:0:
163,265,39474,1,0,0:0:0:0:
303,182,39643,1,0,0:0:0:0:
303,182,39728,1,0,0:0:0:0:
303,182,39812,1,0,0:0:0:0:
76,124,39980,1,0,0:0:0:0:
153,65,40149,2,0,L|265:67,1,80
250,211,40486,6,0,L|330:216,1,80
329,215,40738,1,0,0:0:0:0:
329,215,40823,1,0,0:0:0:0:
197,288,40991,1,0,0:0:0:0:
197,288,41076,1,0,0:0:0:0:
197,288,41160,1,0,0:0:0:0:
163,207,41328,1,0,0:0:0:0:
218,130,41497,2,0,L|281:81,1,80
86,215,41834,6,0,L|74:294,1,80
91,130,42171,1,0,0:0:0:0:
168,186,42340,1,0,0:0:0:0:
168,186,42424,1,0,0:0:0:0:
168,186,42508,1,0,0:0:0:0:
165,91,42677,1,0,0:0:0:0:
245,129,42845,2,0,L|341:169,1,80
439,197,43182,5,0,0:0:0:0:
364,103,43351,1,0,0:0:0:0:
207,183,43519,1,0,0:0:0:0:
287,93,43688,1,0,0:0:0:0:
290,349,43856,2,0,L|306:237,1,80
332,31,44193,2,0,B|337:120|337:120|311:189,1,160
256,192,55317,12,0,60373,0:0:0:0:
124,265,60710,5,0,0:0:0:0:
109,172,61384,1,0,0:0:0:0:
209,212,62059,5,0,0:0:0:0:
194,119,62733,1,0,0:0:0:0:
297,150,63407,5,0,0:0:0:0:
282,57,64081,1,0,0:0:0:0:
396,111,64755,5,0,0:0:0:0:
477,110,65092,2,0,P|447:162|410:190,1,90.0000034332277
341,139,65429,2,0,P|308:170|288:210,1,90.0000034332277
358,273,65767,2,0,P|328:325|283:355,1,90.0000034332277
100,305,66104,6,0,B|65:260|114:227|88:172,1,128
178,186,67452,2,0,B|170:129|229:125|234:64,1,128
302,132,68800,2,0,B|336:86|381:125|427:86,1,128
372,185,70149,2,0,L|355:290,1,96
356,279,70823,1,0,0:0:0:0:
276,148,70991,2,0,L|288:75,1,64
137,269,71497,6,0,P|85:237|82:176,1,128
217,54,72845,2,0,P|174:99|179:162,1,128
347,215,74193,2,0,P|319:158|264:130,1,128
241,317,75542,2,0,P|234:277|240:221,1,96
239,222,76216,1,0,0:0:0:0:
349,281,76384,2,0,P|350:228|345:206,1,64
78,306,76890,6,0,L|85:178,1,128
200,47,78238,2,0,L|193:175,1,128
285,319,79587,2,0,L|292:191,1,128
416,64,80935,2,0,L|415:166,1,96
415,159,81609,1,0,0:0:0:0:
380,318,81778,2,0,P|348:298|331:285,1,48
315,91,82283,6,0,P|294:141|254:176,1,95.9999970703126
230,87,82620,1,0,0:0:0:0:
104,253,82789,1,0,0:0:0:0:
141,244,82873,1,0,0:0:0:0:
178,233,82958,1,0,0:0:0:0:
56,337,83126,1,0,0:0:0:0:
256,304,83295,1,0,0:0:0:0:
264,271,83379,1,0,0:0:0:0:
269,238,83463,1,0,0:0:0:0:
269,204,83547,1,0,0:0:0:0:
267,170,83632,1,0,0:0:0:0:
105,55,83800,6,0,P|90:118|93:162,1,95.9999970703126
172,111,84137,1,0,0:0:0:0:
172,111,84222,1,0,0:0:0:0:
172,111,84306,1,0,0:0:0:0:
128,242,84474,1,0,0:0:0:0:
251,177,84643,1,0,0:0:0:0:
260,144,84727,1,0,0:0:0:0:
265,110,84811,1,0,0:0:0:0:
263,76,84896,1,0,0:0:0:0:
259,42,84980,5,0,0:0:0:0:
450,156,85149,1,0,0:0:0:0:
62,228,85317,1,0,0:0:0:0:
363,45,85486,1,0,0:0:0:0:
149,339,85654,1,0,0:0:0:0:
184,48,85823,1,0,0:0:0:0:
376,323,85991,1,0,0:0:0:0:
245,168,86160,1,0,0:0:0:0:
245,168,86244,1,0,0:0:0:0:
245,168,86328,6,0,P|236:195|228:211,1,32
45,318,86665,2,0,P|54:273|78:248,1,55.9999982910157
233,315,87002,2,0,P|310:315|341:297,1,80
283,127,87340,2,0,P|307:73|358:16,1,95.9999970703126
365,258,87677,6,0,P|340:311|303:344,1,95.9999970703126
313,178,88014,1,0,0:0:0:0:
192,268,88182,1,0,0:0:0:0:
200,216,88266,1,0,0:0:0:0:
210,164,88350,1,0,0:0:0:0:
221,112,88434,1,0,0:0:0:0:
229,59,88519,1,0,0:0:0:0:
106,130,88688,1,0,0:0:0:0:
115,344,88856,5,0,0:0:0:0:
115,344,88941,1,0,0:0:0:0:
115,344,89025,2,0,P|168:317|201:282,1,95.9999970703126
248,173,89362,1,0,0:0:0:0:
171,31,89531,1,0,0:0:0:0:
159,78,89616,1,0,0:0:0:0:
150,125,89700,1,0,0:0:0:0:
141,172,89784,1,0,0:0:0:0:
133,220,89868,1,0,0:0:0:0:
52,275,90036,1,0,0:0:0:0:
311,40,90205,6,0,L|318:126,2,47.9999985351563
335,282,90542,1,0,0:0:0:0:
247,303,90710,1,0,0:0:0:0:
214,111,90879,2,0,L|221:197,1,47.9999985351563
163,315,91047,2,0,L|159:267,1,47.9999985351563
138,126,91216,1,0,0:0:0:0:
75,331,91384,1,0,0:0:0:0:
449,29,91553,5,0,0:0:0:0:
449,29,91637,1,0,0:0:0:0:
449,29,91722,2,0,P|448:77|425:142,1,95.9999970703126
417,235,92059,1,0,0:0:0:0:
360,329,92227,1,0,0:0:0:0:
338,281,92311,1,0,0:0:0:0:
317,231,92396,1,0,0:0:0:0:
302,180,92480,1,0,0:0:0:0:
290,128,92564,1,0,0:0:0:0:
132,309,92733,2,0,L|156:171,1,95.9999970703126
268,348,93070,6,0,L|201:249,1,95.9999970703126
148,165,93407,1,0,0:0:0:0:
257,20,93576,1,0,0:0:0:0:
273,74,93660,1,0,0:0:0:0:
290,128,93744,1,0,0:0:0:0:
310,182,93828,1,0,0:0:0:0:
332,235,93913,1,0,0:0:0:0:
353,42,94081,2,0,P|377:90|402:168,1,95.9999970703126
186,349,94418,6,0,P|228:304|242:271,1,95.9999970703126
273,176,94755,1,0,0:0:0:0:
65,209,94924,2,0,L|95:163,1,47.9999985351563
238,88,95092,2,0,L|211:128,1,47.9999985351563
137,247,95261,1,0,0:0:0:0:
383,114,95429,2,0,P|394:169|392:223,1,95.9999970703126
51,143,95767,6,0,P|81:92|121:59,1,95.9999970703126
67,235,96104,1,0,0:0:0:0:
170,334,96272,1,0,0:0:0:0:
198,295,96356,1,0,0:0:0:0:
226,256,96441,1,0,0:0:0:0:
251,215,96525,1,0,0:0:0:0:
274,173,96609,1,0,0:0:0:0:
274,338,96778,1,0,0:0:0:0:
139,60,96946,5,0,0:0:0:0:
139,60,97031,1,0,0:0:0:0:
139,60,97115,2,0,P|134:118|147:178,1,95.9999970703126
163,283,97452,1,0,0:0:0:0:
288,157,97621,1,0,0:0:0:0:
333,141,97705,1,0,0:0:0:0:
379,126,97790,1,0,0:0:0:0:
423,108,97874,1,0,0:0:0:0:
469,95,97958,1,0,0:0:0:0:
335,236,98126,1,0,0:0:0:0:
312,53,98295,1,0,0:0:0:0:
108,340,98463,6,0,P|101:282|115:228,1,95.9999970703126
117,139,98800,1,0,0:0:0:0:
183,45,98969,1,0,0:0:0:0:
191,92,99053,1,0,0:0:0:0:
197,139,99137,1,0,0:0:0:0:
203,186,99222,1,0,0:0:0:0:
209,233,99306,1,0,0:0:0:0:
273,18,99474,1,0,0:0:0:0:
61,310,99643,1,0,0:0:0:0:
61,310,99727,1,0,0:0:0:0:
61,310,99811,6,0,P|116:322|156:318,1,95.9999970703126
306,328,100149,1,0,0:0:0:0:
274,225,100317,1,0,0:0:0:0:
322,231,100401,1,0,0:0:0:0:
370,238,100485,1,0,0:0:0:0:
419,242,100570,1,0,0:0:0:0:
467,246,100654,1,0,0:0:0:0:
138,150,100823,2,0,P|127:197|132:245,1,95.9999970703126
242,102,101160,6,0,P|252:55|248:7,1,95.9999970703126
299,175,101497,1,0,0:0:0:0:
53,142,101665,2,0,L|50:189,1,47.9999985351563
161,328,101834,2,0,L|163:280,1,47.9999985351563
165,152,102002,1,0,0:0:0:0:
273,331,102171,1,0,0:0:0:0:
403,48,102340,5,0,0:0:0:0:
403,48,102424,1,0,0:0:0:0:
403,48,102508,2,0,P|415:100|415:163,1,95.9999970703126
417,235,102845,1,0,0:0:0:0:
70,228,260261,6,0,P|63:283|62:328,1,95.9999970703126
0,376,260598,1,0,0:0:0:0:
192,345,260767,1,0,0:0:0:0:
200,312,260851,1,0,0:0:0:0:
205,279,260935,1,0,0:0:0:0:
205,245,261019,1,0,0:0:0:0:
201,211,261104,1,0,0:0:0:0:
284,167,261272,1,0,0:0:0:0:
113,135,261441,1,0,0:0:0:0:
296,262,261609,6,0,P|356:290|483:299,1,191.999994140625
385,99,262115,2,0,P|325:71|198:62,1,191.999994140625
131,119,262620,2,0,L|116:222,1,95.9999970703126
46,365,262958,5,0,0:0:0:0:
183,342,263126,1,0,0:0:0:0:
105,224,263295,1,0,0:0:0:0:
166,322,263463,1,0,0:0:0:0:
29,345,263632,5,0,0:0:0:0:
166,322,263800,1,0,0:0:0:0:
88,204,263969,1,0,0:0:0:0:
149,302,264137,1,0,0:0:0:0:
17,325,264306,6,0,P|6:266|6:213,1,95.9999970703126
244,173,264643,2,0,P|255:232|255:285,1,95.9999970703126
120,289,264980,1,0,0:0:0:0:
122,163,265149,1,0,0:0:0:0:
120,289,265317,2,0,L|116:399,1,95.9999970703126
28,205,265654,5,8,0:0:0:0:
244,281,265823,1,0,0:0:0:0:
437,160,265991,1,0,0:0:0:0:
219,91,266160,2,0,P|212:153|211:202,1,95.9999970703126
252,254,266497,1,0,0:0:0:0:
138,232,266665,2,0,L|27:228,1,95.9999970703126
315,176,267002,6,0,L|410:172,1,95.9999970703126
480,242,267340,1,0,0:0:0:0:
461,92,267508,1,0,0:0:0:0:
392,326,267677,2,0,P|331:316|272:324,1,95.9999970703126
467,251,268014,2,0,P|489:179|484:106,1,143.999995605469
410,172,268351,6,0,L|315:176,1,95.9999970703126
140,230,268688,1,0,0:0:0:0:
195,59,268856,1,0,0:0:0:0:
195,59,268941,1,0,0:0:0:0:
195,59,269025,6,0,L|198:154,1,95.9999970703126
252,329,269362,1,0,0:0:0:0:
81,274,269530,1,0,0:0:0:0:
81,274,269615,1,0,0:0:0:0:
81,274,269699,6,0,L|176:270,1,95.9999970703126
431,110,270036,2,0,L|336:114,1,95.9999970703126
277,185,270373,1,0,0:0:0:0:
196,62,270542,1,0,0:0:0:0:
195,294,270710,1,0,0:0:0:0:
428,238,270879,1,0,0:0:0:0:
428,238,270963,1,0,0:0:0:0:
428,238,271047,6,0,P|419:297|410:335,2,95.9999970703126
