osu file format v14

[General]
AudioFilename: audio.mp3
AudioLeadIn: 0
PreviewTime: 340243
Countdown: 1
SampleSet: Soft
StackLeniency: 0.7
Mode: 0
LetterboxInBreaks: 0
EpilepsyWarning: 1
WidescreenStoryboard: 1

[Editor]
Bookmarks: 22157,33129,44100,66043,77014,87986,93471,120900,131185,142157,153128,164100,164786,186043,197014,208672,230614,252557,274500,318385,323871,329357,334843,340329,362100,362185,362271,384215,406157,428100,460672
DistanceSpacing: 1
BeatDivisor: 4
GridSize: 4
TimelineZoom: 2.200001

[Metadata]
Title:My Non-Existent Friend, Alice
TitleUnicode:My Non-Existent Friend, Alice
Artist:Boxplot
ArtistUnicode:Boxplot
Creator:Secretpipe
Version:Breathtaking Experience
Source:
Tags:drum and bass dnb kawa alena aenami osu osu! instrumental electronic fa featured artist nonexistent
BeatmapID:1465268
BeatmapSetID:692496

[Difficulty]
HPDrainRate:6.5
CircleSize:4
OverallDifficulty:8.3
ApproachRate:9.4
SliderMultiplier:1.6
SliderTickRate:1

[Events]
//Background and Video events
0,0,"alena-aenami-004-1k1.jpg",0,0
//Break Periods
2,90928,92901
2,210043,228360
2,382935,383652
//Storyboard Layer 0 (Background)
//Storyboard Layer 1 (Fail)
//Storyboard Layer 2 (Pass)
//Storyboard Layer 3 (Foreground)
//Storyboard Layer 4 (Overlay)
//Storyboard Sound Samples

[TimingPoints]
215,685.714285714286,4,2,7,10,1,0
386,-100,4,2,1,10,0,0
10843,-66.6666666666667,4,2,7,10,0,0
11015,-66.6666666666667,4,2,1,10,0,0
11186,-100,4,2,1,10,0,0
22157,-83.3333333333333,4,2,7,10,0,0
22843,-83.3333333333333,4,2,1,10,0,0
33129,-76.9230769230769,4,2,7,10,0,0
33643,-76.9230769230769,4,2,1,10,0,0
38615,-71.4285714285714,4,2,1,10,0,0
41357,-66.6666666666667,4,2,1,10,0,0
42729,-62.5,4,2,1,10,0,0
44100,-90.9090909090909,4,2,1,10,0,0
66043,342.857142857143,4,2,1,20,1,0
71528,-100,4,2,1,30,0,0
75643,-100,4,2,1,40,0,0
81128,-100,4,2,1,50,0,0
85243,-100,4,2,1,60,0,0
88328,-100,4,2,1,50,0,0
88671,-100,4,2,1,40,0,0
89014,-100,4,2,1,30,0,0
89357,-100,4,2,1,20,0,0
89700,-100,4,2,1,10,0,0
90728,-100,4,2,1,5,0,0
93471,-200,4,2,1,20,0,0
111300,-200,4,2,2,20,0,0
115414,-200,4,2,2,30,0,0
116785,-200,4,2,2,40,0,0
118157,-200,4,2,2,50,0,0
119528,-200,4,2,2,60,0,0
120900,-133.333333333333,4,2,10,60,0,0
121243,-133.333333333333,4,2,3,60,0,0
123643,-133.333333333333,4,2,10,60,0,0
123814,-133.333333333333,4,2,3,60,0,0
126385,-133.333333333333,4,2,10,60,0,0
126557,-133.333333333333,4,2,3,60,0,0
129128,-133.333333333333,4,2,10,60,0,0
129300,-133.333333333333,4,2,3,60,0,0
131185,-100,4,2,3,60,0,0
131871,-133.333333333333,4,2,10,60,0,0
132043,-133.333333333333,4,2,3,60,0,0
134271,-200,4,2,3,60,0,0
134528,-133.333333333333,4,2,3,60,0,0
134614,-133.333333333333,4,2,10,60,0,0
134785,-133.333333333333,4,2,3,60,0,0
137357,-133.333333333333,4,2,10,60,0,0
137528,-133.333333333333,4,2,3,60,0,0
140100,-133.333333333333,4,2,10,60,0,0
140271,-133.333333333333,4,2,3,60,0,0
142157,-100,4,2,3,60,0,0
143185,-100,4,2,3,60,0,0
143528,-133.333333333333,4,2,3,60,0,0
143871,-133.333333333333,4,2,10,60,0,0
144214,-133.333333333333,4,2,3,60,0,0
145585,-133.333333333333,4,2,10,60,0,0
145757,-133.333333333333,4,2,3,60,0,0
148328,-133.333333333333,4,2,10,60,0,0
148500,-133.333333333333,4,2,3,60,0,0
151071,-133.333333333333,4,2,10,60,0,0
151243,-133.333333333333,4,2,3,60,0,0
153128,-100,4,2,3,60,0,0
153814,-133.333333333333,4,2,10,60,0,0
153985,-133.333333333333,4,2,3,60,0,0
156557,-133.333333333333,4,2,10,60,0,0
156728,-133.333333333333,4,2,3,60,0,0
159300,-133.333333333333,4,2,10,60,0,0
159471,-133.333333333333,4,2,3,60,0,0
162043,-133.333333333333,4,2,10,60,0,0
162214,-133.333333333333,4,2,3,60,0,0
164100,-100,4,2,3,60,0,0
164785,-111.111111111111,4,2,10,60,0,0
164957,-111.111111111111,4,2,3,60,0,0
165300,-111.111111111111,4,2,4,60,0,0
165471,-111.111111111111,4,2,3,60,0,0
166671,-111.111111111111,4,2,5,60,0,0
167014,-111.111111111111,4,2,3,60,0,0
167185,-111.111111111111,4,2,5,60,0,0
167443,-111.111111111111,4,2,3,60,0,0
167528,-133.333333333333,4,2,10,60,0,0
167700,-111.111111111111,4,2,3,60,0,0
168043,-111.111111111111,4,2,6,60,0,0
168214,-111.111111111111,4,2,3,60,0,0
169243,-111.111111111111,4,2,8,60,0,0
169414,-111.111111111111,4,2,5,60,0,0
169757,-111.111111111111,4,2,8,60,0,0
170100,-111.111111111111,4,2,5,60,0,0
170271,-111.111111111111,4,2,10,60,0,0
170443,-111.111111111111,4,2,3,60,0,0
170785,-111.111111111111,4,2,4,60,0,0
170957,-111.111111111111,4,2,3,60,0,0
172157,-111.111111111111,4,2,5,60,0,0
172500,-111.111111111111,4,2,3,60,0,0
172671,-111.111111111111,4,2,5,60,0,0
172928,-111.111111111111,4,2,3,60,0,0
173014,-133.333333333333,4,2,10,60,0,0
173185,-111.111111111111,4,2,3,60,0,0
173528,-111.111111111111,4,2,6,60,0,0
173700,-111.111111111111,4,2,3,60,0,0
174728,-111.111111111111,4,2,8,60,0,0
174900,-111.111111111111,4,2,5,60,0,0
175071,-90.9090909090908,4,2,3,60,0,0
175585,-111.111111111111,4,2,5,60,0,0
175757,-111.111111111111,4,2,10,60,0,0
175928,-111.111111111111,4,2,3,60,0,0
176271,-111.111111111111,4,2,4,60,0,0
176443,-111.111111111111,4,2,3,60,0,0
177643,-111.111111111111,4,2,5,60,0,0
177985,-111.111111111111,4,2,3,60,0,0
178157,-111.111111111111,4,2,5,60,0,0
178414,-111.111111111111,4,2,3,60,0,0
178500,-133.333333333333,4,2,10,60,0,0
178671,-111.111111111111,4,2,3,60,0,0
179014,-111.111111111111,4,2,6,60,0,0
179185,-111.111111111111,4,2,3,60,0,0
180214,-111.111111111111,4,2,8,60,0,0
180385,-111.111111111111,4,2,5,60,0,0
180728,-111.111111111111,4,2,8,60,0,0
181071,-111.111111111111,4,2,5,60,0,0
181243,-111.111111111111,4,2,10,60,0,0
181414,-111.111111111111,4,2,3,60,0,0
181757,-111.111111111111,4,2,4,60,0,0
181928,-111.111111111111,4,2,3,60,0,0
183128,-111.111111111111,4,2,5,60,0,0
183471,-111.111111111111,4,2,3,60,0,0
183643,-111.111111111111,4,2,5,60,0,0
183900,-111.111111111111,4,2,3,60,0,0
183985,-133.333333333333,4,2,10,60,0,0
184157,-111.111111111111,4,2,3,60,0,0
184500,-111.111111111111,4,2,4,60,0,0
184671,-111.111111111111,4,2,3,60,0,0
185700,-111.111111111111,4,2,8,60,0,0
185871,-111.111111111111,4,2,5,60,0,0
186043,-90.9090909090909,4,2,3,60,0,0
186557,-111.111111111111,4,2,5,60,0,0
186728,-200,4,2,3,60,0,0
187071,-100,4,2,3,60,0,0
187757,-111.111111111111,4,2,10,60,0,0
188100,-111.111111111111,4,2,3,60,0,0
188614,-111.111111111111,4,2,5,60,0,0
188957,-111.111111111111,4,2,3,60,0,0
189128,-111.111111111111,4,2,5,60,0,0
189385,-111.111111111111,4,2,3,60,0,0
189471,-133.333333333333,4,2,10,60,0,0
189643,-111.111111111111,4,2,3,60,0,0
189985,-111.111111111111,4,2,4,60,0,0
190157,-111.111111111111,4,2,3,60,0,0
191185,-111.111111111111,4,2,8,60,0,0
191357,-111.111111111111,4,2,5,60,0,0
191700,-111.111111111111,4,2,8,60,0,0
192043,-111.111111111111,4,2,5,60,0,0
192214,-111.111111111111,4,2,10,60,0,0
192385,-111.111111111111,4,2,3,60,0,0
192728,-111.111111111111,4,2,6,60,0,0
192900,-111.111111111111,4,2,3,60,0,0
194100,-111.111111111111,4,2,5,60,0,0
194443,-111.111111111111,4,2,3,60,0,0
194614,-111.111111111111,4,2,5,60,0,0
194871,-111.111111111111,4,2,3,60,0,0
194957,-133.333333333333,4,2,10,60,0,0
195128,-111.111111111111,4,2,3,60,0,0
195471,-111.111111111111,4,2,4,60,0,0
195643,-111.111111111111,4,2,3,60,0,0
196671,-111.111111111111,4,2,8,60,0,0
196843,-111.111111111111,4,2,5,60,0,0
197014,-90.9090909090909,4,2,3,60,0,0
197528,-111.111111111111,4,2,5,60,0,0
197700,-111.111111111111,4,2,10,60,0,0
197871,-111.111111111111,4,2,3,60,0,0
198214,-111.111111111111,4,2,4,60,0,0
198385,-111.111111111111,4,2,3,60,0,0
199585,-111.111111111111,4,2,5,60,0,0
199928,-111.111111111111,4,2,3,60,0,0
200357,-111.111111111111,4,2,3,60,0,0
200443,-133.333333333333,4,2,10,60,0,0
200614,-111.111111111111,4,2,3,60,0,0
200957,-111.111111111111,4,2,6,60,0,0
201128,-111.111111111111,4,2,3,60,0,0
202157,-111.111111111111,4,2,8,60,0,0
202328,-111.111111111111,4,2,5,60,0,0
202671,-111.111111111111,4,2,8,60,0,0
203014,-111.111111111111,4,2,5,60,0,0
203100,-111.111111111111,4,2,3,60,0,0
203185,-133.333333333333,4,2,10,60,0,0
203357,-111.111111111111,4,2,3,60,0,0
203700,-111.111111111111,4,2,4,60,0,0
203871,-111.111111111111,4,2,3,60,0,0
205071,-111.111111111111,4,2,5,60,0,0
205414,-111.111111111111,4,2,3,60,0,0
205585,-111.111111111111,4,2,5,60,0,0
205843,-111.111111111111,4,2,3,60,0,0
205928,-133.333333333333,4,2,10,60,0,0
206100,-111.111111111111,4,2,3,60,0,0
206443,-111.111111111111,4,2,6,60,0,0
206614,-111.111111111111,4,2,3,60,0,0
207643,-111.111111111111,4,2,8,60,0,0
207728,-111.111111111111,4,2,3,60,0,0
207814,-111.111111111111,4,2,5,60,0,0
207985,-90.9090909090908,4,2,3,60,0,0
208671,-90.9090909090908,4,2,7,60,0,0
228900,-90.9090909090908,4,2,7,40,0,0
231985,-200,4,2,1,40,0,0
252557,-133.333333333333,4,2,9,50,0,0
273128,-133.333333333333,4,2,11,65,0,0
273300,-133.333333333333,4,2,9,65,0,0
274500,-125,4,2,9,65,0,0
281357,-125,4,2,9,40,0,0
284100,-125,4,2,9,30,0,0
290957,-125,4,2,9,40,0,0
293700,-125,4,2,9,50,0,0
295928,-125,4,2,4,50,0,0
296443,-100,4,2,10,30,0,0
297814,-100,4,2,9,30,0,0
301928,-100,4,2,9,40,0,0
306043,-100,4,2,9,50,0,0
310157,-100,4,2,9,60,0,0
318385,-90.9090909090909,4,2,2,60,0,0
329357,-90.9090909090909,4,2,2,70,0,0
334843,-90.9090909090909,4,2,2,80,0,0
340307,342.857142857143,4,2,1,80,1,1
340307,-66.6666666666667,4,2,1,80,0,1
345278,-100,4,2,1,80,0,1
345449,-83.3333333333333,4,2,1,80,0,1
345621,-71.4285714285714,4,2,1,80,0,1
345792,-66.6666666666667,4,2,1,80,0,1
349907,-100,4,2,1,80,0,1
350078,-90.9090909090909,4,2,1,80,0,1
350249,-83.3333333333333,4,2,1,80,0,1
350421,-76.9230769230769,4,2,1,80,0,1
350592,-71.4285714285714,4,2,1,80,0,1
350764,-66.6666666666667,4,2,1,80,0,1
350935,-62.5,4,2,1,80,0,1
351107,-58.8235294117647,4,2,1,80,0,1
351278,-66.6666666666667,4,2,1,80,0,1
356249,-100,4,2,1,80,0,1
356421,-83.3333333333333,4,2,1,80,0,1
356592,-71.4285714285714,4,2,1,80,0,1
367221,-100,4,2,1,80,0,1
367392,-83.3333333333333,4,2,1,80,0,1
367564,-71.4285714285714,4,2,1,80,0,1
367735,-66.6666666666667,4,2,1,80,0,1
382821,-66.6666666666667,4,2,1,80,0,0
384192,-71.4285714285714,4,2,1,80,0,1
389164,-100,4,2,1,80,0,1
389335,-83.3333333333333,4,2,1,80,0,1
389507,-76.9230769230769,4,2,1,80,0,1
389678,-66.6666666666667,4,2,1,80,0,1
399278,-71.4285714285714,4,2,1,80,0,1
400649,-66.6666666666667,4,2,1,80,0,1
402021,-71.4285714285714,4,2,1,80,0,1
403392,-66.6666666666667,4,2,1,80,0,1
404764,-71.4285714285714,4,2,1,80,0,1
406478,-66.6666666666667,4,2,1,80,0,1
407507,-71.4285714285714,4,2,1,80,0,1
411107,-100,4,2,1,80,0,1
411278,-83.3333333333333,4,2,1,80,0,1
411449,-71.4285714285714,4,2,1,80,0,1
411621,-66.6666666666667,4,2,1,80,0,1
415735,-100,4,2,1,80,0,1
415907,-90.9090909090909,4,2,1,80,0,1
416078,-83.3333333333333,4,2,1,80,0,1
416249,-76.9230769230769,4,2,1,80,0,1
416421,-71.4285714285714,4,2,1,80,0,1
416592,-66.6666666666667,4,2,1,80,0,1
416764,-62.5,4,2,1,80,0,1
416935,-58.8235294117647,4,2,1,80,0,1
417107,-66.6666666666667,4,2,1,80,0,1
422078,-100,4,2,1,80,0,1
422249,-83.3333333333333,4,2,1,80,0,1
422421,-71.4285714285714,4,2,1,80,0,1
428078,-133.333333333333,4,2,1,80,0,0
428249,-133.333333333333,4,2,1,30,0,0
428470,342.857142857143,4,2,1,30,1,0
428470,-133.333333333333,4,2,1,30,0,0

[Colours]
Combo1 : 249,183,30
Combo2 : 245,104,56
Combo3 : 225,0,0
Combo4 : 252,214,124
SliderTrackOverride : 220,213,255
SliderBorder : 250,220,112

[HitObjects]
76,306,215,6,0,P|67:291|65:253,3,40,2|0|2|0,0:0|0:0|0:0|0:0,0:0:0:0:
118,207,900,2,0,P|127:189|131:170,3,40,0|0|2|0,0:0|0:0|0:0|0:0,0:0:0:0:
77,117,1586,2,0,L|70:71,3,40,0|0|2|0,0:0|0:0|0:0|0:0,0:0:0:0:
173,88,2272,2,0,L|179:48,3,40,0|0|2|0,0:0|0:0|0:0|0:0,0:0:0:0:
228,154,2957,6,0,P|249:157|280:146,1,40,0|0,0:0|0:0,0:0:0:0:
349,75,3300,2,0,L|334:127,1,40,2|0,0:0|0:0,0:0:0:0:
368,234,3643,2,0,L|358:181,3,40,0|0|2|0,0:0|0:0|0:0|0:0,0:0:0:0:
459,305,4329,2,0,P|430:300|399:303,1,40,0|0,0:0|0:0,0:0:0:0:
288,354,4672,2,0,P|309:356|336:349,1,40,2|0,0:0|0:0,0:0:0:0:
214,302,5015,2,0,L|202:250,3,40,0|0|2|0,0:0|0:0|0:0|0:0,0:0:0:0:
247,188,5700,6,0,L|255:142,3,40,0|0|2|0,0:0|0:0|0:0|0:0,0:0:0:0:
128,175,6386,2,0,L|186:168,3,40,0|0|2|0,0:0|0:0|0:0|0:0,0:0:0:0:
115,286,7072,2,0,L|150:241,3,40,0|0|2|0,0:0|0:0|0:0|0:0,0:0:0:0:
187,357,7757,2,0,L|180:311,1,40,0|0,0:0|0:0,0:0:0:0:
275,240,8100,2,0,L|264:297,1,40,2|0,0:0|0:0,0:0:0:0:
353,354,8443,6,0,L|343:300,3,40,0|0|2|0,0:0|0:0|0:0|0:0,0:0:0:0:
416,215,9129,2,0,L|410:255,3,40,0|0|2|0,0:0|0:0|0:0|0:0,0:0:0:0:
345,157,9815,2,0,P|341:139|341:114,1,40,0|0,0:0|0:0,0:0:0:0:
448,71,10157,2,0,P|428:79|405:82,1,40,2|0,0:0|0:0,0:0:0:0:
247,57,10500,2,0,P|264:51|291:49,1,40,0|0,0:0|0:0,0:0:0:0:
185,115,10843,6,0,B|189:129|189:129|186:138|186:138|183:150|183:150|183:159|183:159|186:168|186:168|183:178,1,60.0000022888184,2|0,0:0|0:0,0:0:0:0:
151,244,11186,6,0,L|97:253,3,40,0|0|2|0,0:0|0:0|0:0|0:0,0:0:0:0:
250,301,11872,2,0,L|191:296,3,40,0|0|2|0,0:0|0:0|0:0|0:0,0:0:0:0:
353,242,12557,2,0,L|299:251,3,40,0|0|2|0,0:0|0:0|0:0|0:0,0:0:0:0:
422,337,13243,2,0,P|411:318|412:288,1,40,0|0,0:0|0:0,0:0:0:0:
461,187,13586,2,0,P|461:215|448:239,1,40,2|0,0:0|0:0,0:0:0:0:
401,119,13929,6,0,L|410:63,3,40,0|0|2|0,0:0|0:0|0:0|0:0,0:0:0:0:
336,181,14615,2,0,L|345:236,3,40,0|0|2|0,0:0|0:0|0:0|0:0,0:0:0:0:
284,95,15300,2,0,L|293:40,3,40,0|0|2|0,0:0|0:0|0:0|0:0,0:0:0:0:
214,169,15986,1,0,0:0:0:0:
159,114,16157,2,0,L|148:59,2,40,0|2|0,0:0|0:0|0:0,0:0:0:0:
73,192,16672,6,0,L|112:193,3,40,0|0|2|0,0:0|0:0|0:0|0:0,0:0:0:0:
164,289,17357,2,0,P|168:271|159:240,3,40,0|0|2|0,0:0|0:0|0:0|0:0,0:0:0:0:
214,351,18043,2,0,L|265:347,3,40,0|0|2|0,0:0|0:0|0:0|0:0,0:0:0:0:
319,300,18729,2,0,P|321:281|309:242,1,40,0|0,0:0|0:0,0:0:0:0:
184,219,19072,2,0,P|194:235|211:246,1,40,2|0,0:0|0:0,0:0:0:0:
200,133,19415,6,0,L|190:88,3,40,0|0|2|0,0:0|0:0|0:0|0:0,0:0:0:0:
116,184,20100,2,0,L|126:131,3,40,0|0|2|0,0:0|0:0|0:0|0:0,0:0:0:0:
143,251,20786,1,0,0:0:0:0:
196,306,20957,1,0,0:0:0:0:
251,252,21129,1,2,0:0:0:0:
197,199,21300,1,0,0:0:0:0:
280,329,21472,2,0,L|344:321,3,40,0|0|2|0,0:0|0:0|0:0|0:0,0:0:0:0:
427,325,22157,6,0,B|423:304|450:276|450:276|468:232|442:202|442:202|426:171|442:132,1,191.999994140625,2|0,0:0|0:0,0:0:0:0:
466,76,23015,2,0,L|450:15,2,47.9999985351563,0|2|0,0:0|0:0|0:0,0:0:0:0:
335,98,23529,6,0,P|362:88|394:92,3,47.9999985351563,0|0|2|0,0:0|0:0|0:0|0:0,0:0:0:0:
284,158,24215,2,0,L|221:152,1,47.9999985351563,0|0,0:0|0:0,0:0:0:0:
110,117,24557,2,0,L|168:109,1,47.9999985351563,2|0,0:0|0:0,0:0:0:0:
67,219,24900,2,0,P|55:198|61:161,3,47.9999985351563,0|0|2|0,0:0|0:0|0:0|0:0,0:0:0:0:
118,327,25586,2,0,P|130:306|124:269,3,47.9999985351563,0|0|2|0,0:0|0:0|0:0|0:0,0:0:0:0:
0,354,26272,2,0,L|58:345,1,47.9999985351563
192,352,26615,2,0,L|269:360,1,47.9999985351563,2|0,0:0|0:0,0:0:0:0:
369,312,26957,2,0,L|300:321,2,47.9999985351563,0|0|2,0:0|0:0|0:0,0:0:0:0:
241,263,27472,1,0,0:0:0:0:
272,114,27643,6,0,P|341:120|292:203,1,191.999994140625,2|0,0:0|0:0,0:0:0:0:
236,184,28500,2,0,P|211:179|184:184,2,47.9999985351563,0|2|0,0:0|0:0|0:0,0:0:0:0:
120,281,29015,2,0,L|126:219,3,47.9999985351563,0|0|2|0,0:0|0:0|0:0|0:0,0:0:0:0:
72,165,29700,2,0,L|64:109,1,47.9999985351563,0|0,0:0|0:0,0:0:0:0:
140,24,30043,2,0,L|132:86,1,47.9999985351563,2|0,0:0|0:0,0:0:0:0:
210,166,30386,6,0,P|183:164|152:177,3,47.9999985351563,0|0|2|0,0:0|0:0|0:0|0:0,0:0:0:0:
277,224,31072,2,0,L|334:213,3,47.9999985351563,0|0|2|0,0:0|0:0|0:0|0:0,0:0:0:0:
404,280,31757,1,0,0:0:0:0:
469,227,31929,1,0,0:0:0:0:
404,166,32100,2,0,L|388:98,1,47.9999985351563,2|0,0:0|0:0,0:0:0:0:
324,214,32443,1,0,0:0:0:0:
324,214,32615,1,0,0:0:0:0:
393,119,32786,1,2,0:0:0:0:
393,119,32957,1,0,0:0:0:0:
208,127,33129,6,0,P|249:157|262:80,1,155.999992858887,2|0,0:0|0:0,0:0:0:0:
209,36,33815,1,0,0:0:0:0:
209,36,33986,1,0,0:0:0:0:
209,36,34157,2,0,L|145:46,1,51.999997619629,2|0,0:0|0:0,0:0:0:0:
55,91,34500,6,0,L|113:101,3,51.999997619629,0|0|2|0,0:0|0:0|0:0|0:0,0:0:0:0:
147,212,35186,2,0,P|157:188|158:159,1,51.999997619629,0|0,0:0|0:0,0:0:0:0:
77,283,35529,2,0,P|78:256|70:226,1,51.999997619629,2|0,0:0|0:0,0:0:0:0:
140,344,35872,6,0,L|202:333,3,51.999997619629,0|0|2|0,0:0|0:0|0:0|0:0,0:0:0:0:
284,344,36557,2,0,L|348:353,1,51.999997619629,0|0,0:0|0:0,0:0:0:0:
450,289,36900,2,0,L|380:306,1,51.999997619629,2|0,0:0|0:0,0:0:0:0:
272,254,37243,2,0,L|342:269,3,51.999997619629,0|0|2|0,0:0|0:0|0:0|0:0,0:0:0:0:
246,184,37929,1,0,0:0:0:0:
177,211,38100,1,0,0:0:0:0:
196,284,38272,1,2,0:0:0:0:
272,254,38443,1,0,0:0:0:0:
185,133,38615,6,0,P|114:125|59:231,1,167.999994873047,2|0,0:0|0:0,0:0:0:0:
40,264,39300,2,0,L|56:341,1,55.9999982910157,0|0,0:0|0:0,0:0:0:0:
182,338,39643,2,0,L|200:263,1,55.9999982910157,2|0,0:0|0:0,0:0:0:0:
316,335,39986,6,0,P|291:338|261:328,3,55.9999982910157,0|0|2|0,0:0|0:0|0:0|0:0,0:0:0:0:
459,279,40672,2,0,P|432:288|405:285,3,55.9999982910157,0|0|2|0,0:0|0:0|0:0|0:0,0:0:0:0:
309,206,41357,6,0,L|319:274,1,60.0000022888184,0|0,0:0|0:0,0:0:0:0:
398,160,41700,2,0,L|405:96,1,60.0000022888184,2|0,0:0|0:0,0:0:0:0:
307,224,42043,2,0,L|316:292,1,60.0000022888184,0|0,0:0|0:0,0:0:0:0:
409,144,42386,2,0,L|417:79,1,60.0000022888184,2|0,0:0|0:0,0:0:0:0:
193,150,42729,6,0,P|220:168|266:167,1,64,0|0,0:0|0:0,0:0:0:0:
83,77,43072,2,0,L|16:87,1,64,2|0,0:0|0:0,0:0:0:0:
103,245,43415,2,0,P|118:210|118:175,1,64,0|0,0:0|0:0,0:0:0:0:
21,355,43757,2,0,L|96:345,1,64,2|0,0:0|0:0,0:0:0:0:
329,301,44100,6,0,L|267:309,1,44.0000013427735,2|0,0:0|0:0,0:0:0:0:
219,264,44443,1,0,0:0:0:0:
273,137,44615,2,0,P|297:178|280:232,1,88.000002685547,0|0,0:0|0:0,0:0:0:0:
219,264,45129,2,0,L|151:271,1,44.0000013427735,2|0,0:0|0:0,0:0:0:0:
93,226,45472,2,0,L|48:224,2,44.0000013427735,0|0|2,0:0|0:0|0:0,0:0:0:0:
151,157,45986,1,0,0:0:0:0:
151,157,46157,2,0,L|194:160,1,44.0000013427735
277,197,46500,2,0,L|340:203,1,44.0000013427735,2|0,0:0|0:0,0:0:0:0:
436,183,46843,5,0,0:0:0:0:
449,171,47186,2,0,P|456:128|440:82,1,88.000002685547,2|0,0:0|0:0,0:0:0:0:
374,51,47700,2,0,L|309:57,2,44.0000013427735,0|2|0,0:0|0:0|0:0,0:0:0:0:
273,108,48215,2,0,L|264:159,1,44.0000013427735,0|0,0:0|0:0,0:0:0:0:
314,226,48557,1,2,0:0:0:0:
314,226,48729,1,0,0:0:0:0:
314,226,48900,2,0,L|320:288,1,44.0000013427735,0|0,0:0|0:0,0:0:0:0:
227,352,49243,1,2,0:0:0:0:
203,331,49415,1,0,0:0:0:0:
174,320,49586,6,0,L|105:330,1,44.0000013427735,2|0,0:0|0:0,0:0:0:0:
65,365,49929,2,0,P|86:327|79:261,1,88.000002685547
41,223,50443,2,0,P|98:243|138:225,1,88.000002685547,0|0,0:0|0:0,0:0:0:0:
181,183,50957,2,0,L|170:130,2,44.0000013427735,0|0|2,0:0|0:0|0:0,0:0:0:0:
239,105,51472,1,0,0:0:0:0:
293,168,51643,2,0,P|314:174|343:172,1,44.0000013427735,0|0,0:0|0:0,0:0:0:0:
459,118,51986,2,0,P|433:114|405:120,1,44.0000013427735,2|0,0:0|0:0,0:0:0:0:
501,187,52329,5,0,0:0:0:0:
352,349,52672,2,0,L|369:232,1,88.000002685547,2|0,0:0|0:0,0:0:0:0:
299,217,53186,2,0,L|287:295,2,44.0000013427735,0|2|0,0:0|0:0|0:0,0:0:0:0:
238,350,53700,1,0,0:0:0:0:
208,359,53872,1,0,0:0:0:0:
177,362,54043,2,0,L|121:355,1,44.0000013427735,2|0,0:0|0:0,0:0:0:0:
57,247,54386,1,0,0:0:0:0:
49,217,54557,1,0,0:0:0:0:
55,186,54729,2,0,L|70:130,1,44.0000013427735,2|0,0:0|0:0,0:0:0:0:
199,234,55072,6,0,L|208:287,1,44.0000013427735,2|0,0:0|0:0,0:0:0:0:
340,190,55415,2,0,P|292:177|233:199,1,88.000002685547
199,234,55929,1,0,0:0:0:0:
199,234,56100,2,0,L|123:229,1,44.0000013427735,2|0,0:0|0:0,0:0:0:0:
27,315,56443,2,0,B|62:327|62:327|124:318,1,88.000002685547,0|2,0:0|0:0,0:0:0:0:
183,303,56957,1,0,0:0:0:0:
183,303,57129,2,0,L|245:313,1,44.0000013427735,0|0,0:0|0:0,0:0:0:0:
354,354,57472,2,0,L|295:362,1,44.0000013427735,2|0,0:0|0:0,0:0:0:0:
410,277,57815,5,0,0:0:0:0:
489,168,57986,1,0,0:0:0:0:
397,268,58157,2,0,P|378:240|386:168,1,88.000002685547,2|0,0:0|0:0,0:0:0:0:
405,48,58672,2,0,L|414:109,2,44.0000013427735,0|2|0,0:0|0:0|0:0,0:0:0:0:
250,102,59186,6,0,L|347:91,1,88.000002685547,2|0,0:0|0:0,0:0:0:0:
184,57,59700,2,0,L|71:47,1,88.000002685547,0|0,0:0|0:0,0:0:0:0:
185,179,60215,2,0,P|185:165|174:136,1,44.0000013427735,2|0,0:0|0:0,0:0:0:0:
91,278,60557,6,0,L|166:277,1,44.0000013427735,2|0,0:0|0:0,0:0:0:0:
284,330,60900,2,0,P|230:327|207:306,1,88.000002685547,2|0,0:0|0:0,0:0:0:0:
352,282,61415,2,0,L|416:290,2,44.0000013427735,0|2|0,0:0|0:0|0:0,0:0:0:0:
480,358,61929,2,0,B|492:323|492:323|474:247,1,88.000002685547,0|2,0:0|0:0,0:0:0:0:
444,204,62443,1,0,0:0:0:0:
444,204,62615,2,0,L|451:149,1,44.0000013427735,2|0,0:0|0:0,0:0:0:0:
427,48,62957,1,2,0:0:0:0:
500,90,63129,1,0,0:0:0:0:
339,109,63300,5,2,0:0:0:0:
330,125,63643,2,0,P|311:179|326:221,1,88.000002685547,2|0,0:0|0:0,0:0:0:0:
353,271,64157,1,0,0:0:0:0:
358,301,64329,1,2,0:0:0:0:
344,328,64500,1,0,0:0:0:0:
341,358,64672,2,0,L|448:349,1,88.000002685547,0|2,0:0|0:0,0:0:0:0:
271,315,65186,2,0,L|176:305,1,88.000002685547,0|0,0:0|0:0,0:0:0:0:
66,329,65700,2,0,P|95:332|125:326,1,44.0000013427735,2|0,0:0|0:0,0:0:0:0:
285,249,66043,6,4,P|294:208|271:155,1,80,0|0,3:2|0:0,0:0:0:0:
75,134,66385,2,0,L|154:140,1,80,8|0,0:2|0:0,0:0:0:0:
179,154,66643,1,0,3:2:0:0:
203,166,66728,2,4,L|291:172,1,80,0|8,3:2|0:2,0:0:0:0:
431,139,67071,2,4,P|382:130|346:142,1,80,0|0,0:0|3:2,0:0:0:0:
478,292,67414,6,4,B|489:258|489:258|478:205,1,80,0|0,0:0|3:2,0:0:0:0:
310,332,67757,2,4,P|268:316|216:326,1,80,8|0,0:2|0:0,0:0:0:0:
208,330,68014,1,0,3:2:0:0:
181,340,68100,2,4,P|141:347|86:328,1,80,0|0,3:2|3:2,0:0:0:0:
237,246,68443,1,8,0:2:0:0:
146,150,68614,1,0,3:2:0:0:
240,33,68785,6,4,L|227:134,1,80,0|0,3:2|0:0,0:0:0:0:
335,267,69128,2,4,L|325:176,1,80,8|0,0:2|0:0,0:0:0:0:
317,160,69385,1,0,3:2:0:0:
304,134,69471,1,0,3:2:0:0:
425,296,69643,1,8,0:2:0:0:
279,355,69814,2,4,P|244:363|190:350,1,80,0|0,0:0|3:2,0:0:0:0:
76,267,70157,6,4,P|58:231|74:172,1,80,0|0,0:0|3:2,0:0:0:0:
272,166,70500,2,4,B|234:174|234:174|180:165,1,80,8|0,0:2|0:0,0:0:0:0:
167,156,70757,1,0,3:2:0:0:
142,142,70843,2,4,L|126:86,2,40,0|0|0,3:2|3:2|3:2,0:0:0:0:
177,338,71185,2,4,L|191:245,1,80,8|0,0:2|3:2,0:0:0:0:
451,335,71528,6,4,P|391:356|324:335,1,120,0|0,3:2|0:0,0:0:0:0:
273,301,71871,2,4,L|263:211,1,80,8|0,0:2|0:0,0:0:0:0:
254,195,72128,1,0,3:2:0:0:
246,167,72214,1,0,3:2:0:0:
398,35,72385,2,4,L|381:137,2,80,8|0|0,0:2|0:0|3:2,0:0:0:0:
476,279,72900,6,4,P|478:228|451:182,1,80,0|0,0:0|3:2,0:0:0:0:
313,59,73243,1,8,0:2:0:0:
171,190,73414,1,0,0:0:0:0:
198,196,73500,1,0,3:2:0:0:
225,194,73585,2,4,L|286:183,1,40,0|0,0:0|0:0,0:0:0:0:
330,162,73757,2,4,L|391:168,1,40,0|0,3:2|0:0,0:0:0:0:
430,215,73928,1,8,0:2:0:0:
265,100,74100,1,0,3:2:0:0:
324,354,74271,6,4,L|333:243,1,80,0|0,3:2|0:0,0:0:0:0:
46,322,74614,2,4,P|92:338|134:334,1,80,8|0,0:2|0:0,0:0:0:0:
149,326,74871,1,0,3:2:0:0:
174,315,74957,2,4,L|171:261,1,40,0|0,3:2|0:0,0:0:0:0:
219,216,75128,2,4,L|230:122,2,80,8|0|0,0:2|0:0|3:2,0:0:0:0:
137,81,75643,5,0,0:0:0:0:
219,216,75814,1,0,3:2:0:0:
427,79,75985,1,8,0:2:0:0:
228,136,76157,1,0,0:0:0:0:
254,144,76243,1,0,3:2:0:0:
281,144,76328,1,0,3:2:0:0:
306,132,76414,1,0,3:2:0:0:
326,113,76500,1,0,3:2:0:0:
129,178,76671,1,8,0:2:0:0:
253,59,76843,1,0,3:2:0:0:
41,76,77014,6,4,L|53:183,1,80,0|0,3:2|0:0,0:0:0:0:
236,308,77357,2,4,P|196:291|144:296,1,80,8|0,0:2|0:0,0:0:0:0:
135,305,77614,1,0,3:2:0:0:
109,316,77700,1,0,3:2:0:0:
301,365,77871,2,4,L|385:355,2,80,8|0|0,0:2|0:0|3:2,0:0:0:0:
457,291,78385,5,0,0:0:0:0:
457,291,78557,1,0,3:2:0:0:
371,48,78728,2,4,P|346:94|358:139,1,80,8|0,0:2|0:0,0:0:0:0:
358,146,78985,1,0,3:2:0:0:
370,171,79071,2,4,P|375:216|352:265,1,80,0|0,0:0|3:2,0:0:0:0:
142,90,79414,2,4,L|233:100,1,80,8|0,0:2|3:2,0:0:0:0:
75,223,79757,6,4,P|59:196|73:132,1,80,0|0,3:2|0:0,0:0:0:0:
160,340,80100,2,4,P|177:304|172:265,1,80,8|0,0:2|0:0,0:0:0:0:
160,241,80357,1,0,3:2:0:0:
155,213,80443,2,4,L|166:168,1,40,0|0,3:2|0:0,0:0:0:0:
205,43,80614,2,4,P|220:92|206:133,1,80,8|0,0:2|0:0,0:0:0:0:
105,22,80957,1,0,3:2:0:0:
247,200,81128,6,0,P|298:209|347:186,1,80,0|0,0:0|3:2,0:0:0:0:
486,108,81471,1,8,0:2:0:0:
348,29,81643,1,0,0:0:0:0:
342,56,81728,1,0,3:2:0:0:
347,83,81814,2,0,L|362:147,2,40,0|0|0,3:2|3:2|3:2,0:0:0:0:
406,287,82157,2,0,L|412:202,1,80,8|0,0:2|3:2,0:0:0:0:
200,302,82500,6,0,L|211:354,1,40,0|0,3:2|0:0,0:0:0:0:
146,244,82671,2,0,L|157:192,1,40,0|0,0:0|0:0,0:0:0:0:
118,342,82843,1,8,0:2:0:0:
235,189,83014,1,0,0:0:0:0:
227,162,83100,1,0,3:2:0:0:
206,143,83185,1,0,3:2:0:0:
416,80,83357,2,0,L|313:99,1,80,8|0,0:2|0:0,0:0:0:0:
222,34,83700,1,0,3:2:0:0:
349,132,83871,6,0,L|330:70,1,40,0|0,0:0|0:0,0:0:0:0:
404,225,84043,2,0,L|414:176,1,40,0|0,3:2|0:0,0:0:0:0:
350,294,84214,1,8,0:2:0:0:
109,193,84385,1,0,0:0:0:0:
134,181,84471,1,0,3:2:0:0:
162,181,84557,2,0,L|211:189,1,40,0|0,0:0|0:0,0:0:0:0:
281,251,84728,2,0,L|241:257,1,40,0|0,3:2|0:0,0:0:0:0:
172,101,84900,2,0,L|268:116,1,80,8|0,0:2|3:2,0:0:0:0:
403,193,85243,6,0,L|339:186,1,40,0|0,3:2|0:0,0:0:0:0:
340,100,85414,2,0,L|388:92,1,40,0|0,0:0|0:0,0:0:0:0:
470,239,85585,2,0,P|473:278|454:313,1,80,8|0,0:2|0:0,0:0:0:0:
433,331,85843,1,0,3:2:0:0:
410,347,85928,2,0,L|353:344,1,40,0|0,3:2|0:0,0:0:0:0:
225,310,86100,2,0,P|258:297|304:304,1,80,8|0,0:2|0:0,0:0:0:0:
126,369,86443,1,0,3:2:0:0:
49,251,86614,6,0,L|59:306,1,40,0|0,0:0|0:0,0:0:0:0:
132,165,86785,2,0,L|121:223,1,40,0|0,3:2|0:0,0:0:0:0:
42,38,86957,1,8,0:2:0:0:
253,145,87128,1,0,0:0:0:0:
218,172,87214,1,0,3:2:0:0:
174,178,87300,1,0,3:2:0:0:
132,165,87385,1,0,3:2:0:0:
100,133,87471,1,0,3:2:0:0:
311,47,87643,6,6,P|349:36|388:45,1,80,8|0,0:2|3:2,0:0:0:0:
256,192,87985,12,0,90728,0:0:0:0:
29,307,93471,6,0,B|75:324|72:290|113:302|113:302|144:291|171:299|175:316|210:320|210:320|232:302|276:311,1,240,2|2,0:0|0:0,0:0:0:0:
335,326,94671,1,0,0:0:0:0:
387,271,94843,2,0,L|382:226,3,40,0|0|0|0,0:0|0:0|0:0|0:0,0:0:0:0:
435,177,95528,2,0,L|440:132,2,40,2|0|0,0:0|0:0|0:0,0:0:0:0:
385,78,96043,1,0,0:0:0:0:
318,130,96214,6,0,L|279:135,3,40
216,187,96900,2,0,L|177:183,3,40
116,122,97585,1,2,0:0:0:0:
64,184,97757,1,0,0:0:0:0:
112,255,97928,1,0,0:0:0:0:
53,317,98100,1,0,0:0:0:0:
12,245,98271,5,0,0:0:0:0:
64,184,98443,1,0,0:0:0:0:
112,255,98614,1,0,0:0:0:0:
170,190,98785,1,0,0:0:0:0:
259,285,98957,6,0,P|238:246|368:183,1,240,2|2,0:0|0:0,0:0:0:0:
422,242,100157,1,0,0:0:0:0:
486,157,100328,2,0,L|428:167,3,40
323,99,101014,2,0,L|372:107,3,40,2|0|0|0,0:0|0:0|0:0|0:0,0:0:0:0:
251,58,101700,2,0,L|197:70,3,40,0|0|0|0,0:0|0:0|0:0|0:0,0:0:0:0:
153,123,102385,2,0,L|99:111,3,40,0|0|0|0,0:0|0:0|0:0|0:0,0:0:0:0:
50,167,103071,2,0,B|30:209|30:209|40:283,2,120,2|0|0,0:0|0:0|0:0,0:0:0:0:
120,349,104443,6,0,B|150:341|176:355|176:355|197:339|229:337|229:337|287:381|361:349,1,240,2|2,0:0|0:0,0:0:0:0:
257,233,105814,2,0,P|280:284|336:278,1,120
288,170,106500,2,0,L|418:173,1,120,2|0,0:0|0:0,0:0:0:0:
496,93,107185,6,0,L|367:100,1,120,0|0,0:0|0:0,0:0:0:0:
299,74,107871,2,0,P|293:54|300:24,3,40,0|0|0|0,0:0|0:0|0:0|0:0,0:0:0:0:
204,106,108557,2,0,P|180:105|164:90,3,40,2|0|0|0,0:0|0:0|0:0|0:0,0:0:0:0:
263,179,109243,2,0,P|275:194|279:213,3,40
364,172,109928,6,0,B|485:163|485:163|457:191,1,160,2|0,0:0|0:0,0:0:0:0:
405,249,110785,2,0,L|401:295,2,40,0|0|0,0:0|0:0|0:0,0:0:0:0:
324,334,111300,6,0,L|359:341,3,20,10|2|2|2,0:0|0:0|0:0|0:0,0:0:0:0:
230,355,111643,2,8,L|249:351,3,20,10|2|2|2,0:0|0:0|0:0|0:0,0:0:0:0:
150,305,111985,2,8,L|185:312,3,20,10|2|2|2,0:0|0:0|0:0|0:0,0:0:0:0:
55,332,112328,2,8,L|74:328,3,20,10|2|2|2,0:0|0:0|0:0|0:0,0:0:0:0:
100,230,112671,6,8,L|92:267,3,20,10|2|2|2,0:0|0:0|0:0|0:0,0:0:0:0:
140,152,113014,2,8,L|131:123,3,20,10|2|2|2,0:0|0:0|0:0|0:0,0:0:0:0:
184,231,113357,2,8,L|177:258,3,20,10|2|2|2,0:0|0:0|0:0|0:0,0:0:0:0:
228,146,113700,2,0,L|225:118,3,20,10|2|2|2,0:0|0:0|0:0|0:0,0:0:0:0:
297,214,114043,6,0,L|269:215,3,20,10|2|2|2,0:0|0:0|0:0|0:0,0:0:0:0:
380,176,114385,2,0,L|410:181,3,20,10|2|2|2,0:0|0:0|0:0|0:0,0:0:0:0:
372,264,114728,2,0,L|376:295,3,20,10|2|2|2,0:0|0:0|0:0|0:0,0:0:0:0:
299,344,115071,2,0,L|303:311,3,20,10|2|2|2,0:0|0:0|0:0|0:0,0:0:0:0:
243,279,115414,5,10,0:0:0:0:
222,272,115500,1,2,0:0:0:0:
200,271,115585,1,2,0:0:0:0:
177,272,115671,1,2,0:0:0:0:
158,284,115757,2,0,L|154:318,3,20,10|2|2|2,0:0|0:0|0:0|0:0,0:0:0:0:
107,233,116100,2,0,L|104:213,3,20,10|2|2|2,0:0|0:0|0:0|0:0,0:0:0:0:
176,162,116443,2,0,L|172:196,3,20,10|2|2|2,0:0|0:0|0:0|0:0,0:0:0:0:
125,111,116785,2,0,L|122:91,3,20,10|2|2|2,0:0|0:0|0:0|0:0,0:0:0:0:
185,55,117128,5,10,0:0:0:0:
204,65,117214,1,2,0:0:0:0:
224,72,117300,1,2,0:0:0:0:
245,72,117385,1,2,0:0:0:0:
266,67,117471,1,10,0:0:0:0:
286,58,117557,1,2,0:0:0:0:
307,51,117643,1,2,0:0:0:0:
328,48,117728,1,2,0:0:0:0:
348,54,117814,6,0,L|355:81,3,20,10|6|6|6,0:0|0:3|0:3|0:3,0:0:0:0:
317,138,118157,2,0,L|309:173,3,20,10|6|6|6,0:0|0:3|0:3|0:3,0:0:0:0:
357,222,118500,5,10,0:0:0:0:
338,232,118585,1,6,0:3:0:0:
318,239,118671,1,6,0:3:0:0:
297,239,118757,1,6,0:3:0:0:
276,234,118843,1,10,0:0:0:0:
256,225,118928,1,6,0:3:0:0:
235,218,119014,1,6,0:3:0:0:
214,215,119100,1,6,0:3:0:0:
194,221,119185,6,0,L|187:248,3,20,10|6|6|6,0:0|0:3|0:3|0:3,0:0:0:0:
199,327,119528,1,10,0:0:0:0:
180,312,119614,1,6,0:3:0:0:
156,307,119700,1,6,0:3:0:0:
132,308,119785,1,10,0:0:0:0:
112,323,119871,1,10,0:0:0:0:
89,331,119957,1,6,0:3:0:0:
64,331,120043,1,6,0:3:0:0:
41,325,120128,1,10,0:0:0:0:
42,250,120214,2,0,L|80:257,3,20,10|6|6|10,0:0|0:3|0:3|0:0,0:0:0:0:
108,193,120557,2,0,L|140:186,3,20,10|6|6|10,0:0|0:3|0:3|0:0,0:0:0:0:
181,128,120900,6,0,P|222:112|288:163,1,120.000004577637,0|0,3:2|0:0,0:0:0:0:
265,279,121414,2,0,P|226:257|229:178,1,120.000004577637,0|0,3:2|0:0,0:0:0:0:
455,238,121928,2,0,L|318:229,1,120.000004577637,0|0,3:2|0:0,0:0:0:0:
145,294,122443,2,0,L|276:277,1,120.000004577637,0|0,3:2|0:0,0:0:0:0:
62,346,122957,1,0,3:2:0:0:
54,341,123300,1,0,0:0:0:0:
102,220,123471,1,0,0:0:0:0:
56,95,123643,6,0,L|41:177,1,60.0000022888184,0|0,3:2|0:0,0:0:0:0:
124,45,123985,1,0,0:0:0:0:
227,175,124157,2,0,P|238:121|177:70,1,120.000004577637,0|0,3:2|0:0,0:0:0:0:
168,238,124671,2,0,P|176:292|250:319,1,120.000004577637,0|0,3:2|0:0,0:0:0:0:
349,251,125185,2,0,P|287:227|229:271,1,120.000004577637,0|0,3:2|0:0,0:0:0:0:
444,345,125700,2,0,L|424:259,1,60.0000022888184,0|0,3:2|0:0,0:0:0:0:
483,122,126043,2,0,P|493:165|471:210,1,90.0000034332277,0|0,0:0|0:0,0:0:0:0:
443,215,126385,6,0,L|373:209,2,60.0000022888184,0|0|0,3:2|0:0|0:0,0:0:0:0:
202,173,126900,2,0,B|237:153|237:153|332:171,1,120.000004577637,0|0,3:2|0:0,0:0:0:0:
244,349,127414,2,0,B|230:317|230:317|253:232,1,120.000004577637,0|0,3:2|0:0,0:0:0:0:
417,293,127928,2,0,P|368:322|306:302,1,120.000004577637,0|0,3:2|0:0,0:0:0:0:
149,199,128443,1,0,3:2:0:0:
145,189,128785,1,0,0:0:0:0:
204,98,128957,1,0,0:0:0:0:
199,268,129128,6,0,L|132:279,1,60.0000022888184,0|0,3:2|0:0,0:0:0:0:
257,319,129471,1,0,0:0:0:0:
271,139,129643,2,0,P|252:192|284:244,1,120.000004577637,0|0,3:2|0:0,0:0:0:0:
441,186,130157,2,0,B|404:170|404:170|310:188,1,120.000004577637,0|0,3:2|0:0,0:0:0:0:
182,248,130671,2,0,B|103:233|103:233|66:249,1,120.000004577637,0|0,3:2|0:0,0:0:0:0:
286,365,131185,6,0,B|331:340|375:366|375:366|424:331|426:286|420:254|391:227,1,240,8|0,0:2|0:0,0:0:0:0:
341,169,131871,6,0,L|347:97,2,60.0000022888184,0|0|0,3:2|0:0|0:0,0:0:0:0:
257,46,132385,2,0,P|189:28|138:57,1,120.000004577637,0|0,3:2|0:0,0:0:0:0:
120,230,132900,2,0,P|158:180|136:119,1,120.000004577637,0|0,3:2|0:0,0:0:0:0:
35,248,133414,2,0,L|60:379,1,120.000004577637,0|0,3:2|0:0,0:0:0:0:
196,259,133928,2,0,L|189:332,1,60.0000022888184,0|0,3:2|0:0,0:0:0:0:
262,203,134271,6,0,L|256:136,1,60,0|0,0:0|0:0,0:0:0:0:
241,113,134614,6,0,P|233:82|252:42,2,60.0000022888184,0|0|0,3:2|0:0|0:0,0:0:0:0:
430,93,135128,2,0,P|369:78|301:90,1,120.000004577637,0|0,3:2|0:0,0:0:0:0:
140,194,135643,2,0,P|200:208|275:179,1,120.000004577637,0|0,3:2|0:0,0:0:0:0:
47,109,136157,2,0,B|65:145|65:145|53:167|47:182|56:198|50:214|67:236,1,120.000004577637,0|0,3:2|0:0,0:0:0:0:
115,341,136671,2,0,L|104:270,1,60.0000022888184,0|0,3:2|0:0,0:0:0:0:
257,229,137014,2,0,P|210:242|149:228,1,90.0000034332277,0|0,0:0|0:0,0:0:0:0:
144,215,137357,6,0,L|138:142,2,60.0000022888184,0|0|0,3:2|0:0|0:0,0:0:0:0:
282,52,137871,2,0,P|225:48|177:104,1,120.000004577637,0|0,3:2|0:0,0:0:0:0:
375,195,138385,2,0,P|383:136|338:81,1,120.000004577637,0|0,3:2|0:0,0:0:0:0:
227,266,138900,2,0,P|276:287|351:254,1,120.000004577637,0|0,3:2|0:0,0:0:0:0:
162,200,139414,2,0,L|86:211,1,60.0000022888184,0|0,3:2|0:0,0:0:0:0:
173,327,139757,1,0,0:0:0:0:
173,327,139928,1,0,0:0:0:0:
284,168,140100,6,0,L|269:95,1,60.0000022888184,0|0,3:2|0:0,0:0:0:0:
319,236,140443,1,0,0:0:0:0:
494,167,140614,2,0,P|445:140|366:162,1,120.000004577637,0|0,3:2|0:0,0:0:0:0:
231,235,141128,2,0,P|172:225|120:252,1,120.000004577637,0|0,3:2|0:0,0:0:0:0:
281,357,141643,2,0,L|273:284,2,60.0000022888184,0|0|0,3:2|0:0|0:0,0:0:0:0:
150,157,142157,6,0,B|152:122|183:109|183:109|194:83|188:64|188:64|207:17|207:17|229:45|193:83|227:115,1,240,8|0,0:2|0:0,0:0:0:0:
320,262,142843,6,0,P|263:212|189:268,1,160,0|0,0:2|0:0,0:0:0:0:
320,262,143357,1,0,3:2:0:0:
259,139,143528,2,0,P|244:106|256:63,1,60.0000022888184,0|0,3:2|0:0,0:0:0:0:
442,109,143871,2,0,L|306:97,1,120.000004577637,0|0,3:2|0:0,0:0:0:0:
482,205,144385,2,0,L|349:213,1,120.000004577637,0|0,3:2|0:0,0:0:0:0:
510,318,144900,2,0,L|437:311,1,60.0000022888184,0|0,3:2|0:0,0:0:0:0:
257,340,145243,1,0,0:0:0:0:
368,297,145414,1,0,0:0:0:0:
196,179,145585,6,0,L|179:253,1,60.0000022888184,0|0,3:2|0:0,0:0:0:0:
285,153,145928,1,0,0:0:0:0:
208,23,146100,2,0,B|197:58|197:58|208:83,2,60.0000022888184,0|0|0,3:2|0:0|0:0,0:0:0:0:
273,207,146614,2,0,B|290:179|290:179|281:138,1,60.0000022888184,0|0,3:2|0:0,0:0:0:0:
160,310,146957,2,0,L|240:307,2,60.0000022888184,0|0|0,0:0|3:2|0:0,0:0:0:0:
293,348,147471,1,0,0:0:0:0:
107,238,147643,2,0,L|189:233,1,60.0000022888184,0|0,3:2|0:0,0:0:0:0:
362,211,147985,2,0,L|254:206,1,90.0000034332277,0|0,0:0|0:0,0:0:0:0:
246,185,148328,6,0,P|234:162|240:125,2,60.0000022888184,0|0|0,3:2|0:0|0:0,0:0:0:0:
405,63,148843,2,0,B|334:45|349:81|272:65,1,120.000004577637,0|0,3:2|0:0,0:0:0:0:
128,180,149357,2,0,B|190:166|175:202|246:184,1,120.000004577637,0|0,3:2|0:0,0:0:0:0:
64,125,149871,2,0,P|43:160|71:237,1,120.000004577637,0|0,3:2|0:0,0:0:0:0:
256,307,150385,2,0,L|54:327,1,180.000006866455,0|0,3:2|0:0,0:0:0:0:
332,331,151071,6,0,P|336:293|318:259,1,60.0000022888184,0|0,3:2|0:0,0:0:0:0:
272,187,151414,1,0,0:0:0:0:
86,233,151585,2,0,L|230:246,1,120.000004577637,0|0,3:2|0:0,0:0:0:0:
32,159,152100,2,0,L|154:151,1,120.000004577637,0|0,3:2|0:0,0:0:0:0:
224,99,152614,1,0,3:2:0:0:
275,228,152785,2,0,P|264:191|278:165,1,60.0000022888184,0|0,0:0|0:0,0:0:0:0:
400,321,153128,6,0,B|376:318|350:345|319:338|301:325|301:325|276:331|254:326|239:310|239:310|205:333|158:317,1,240,8|0,3:2|0:0,0:0:0:0:
32,260,153814,6,0,L|45:318,2,60.0000022888184,0|0|0,3:2|0:0|0:0,0:0:0:0:
135,194,154328,2,0,L|119:264,2,60.0000022888184,0|0|0,3:2|0:0|0:0,0:0:0:0:
201,320,154843,2,0,P|241:304|316:344,1,120.000004577637,0|0,3:2|0:0,0:0:0:0:
121,357,155357,2,0,L|47:342,2,60.0000022888184,0|0|0,3:2|0:0|0:0,0:0:0:0:
64,159,155871,2,0,P|38:203|122:267,1,180.000006866455,0|0,3:2|0:0,0:0:0:0:
123,111,156557,6,0,P|126:91|105:49,2,60.0000022888184,0|0|0,3:2|0:0|0:0,0:0:0:0:
326,55,157071,2,0,L|197:72,1,120.000004577637,0|0,3:2|0:0,0:0:0:0:
364,231,157585,2,0,L|382:105,1,120.000004577637,0|0,3:2|0:0,0:0:0:0:
282,272,158100,2,0,L|212:258,1,60.0000022888184,0|0,3:2|0:0,0:0:0:0:
121,239,158443,1,0,0:0:0:0:
36,310,158614,2,0,L|106:324,1,60.0000022888184,0|0,3:2|0:0,0:0:0:0:
247,354,158957,2,0,L|174:364,1,60.0000022888184,0|0,0:0|0:0,0:0:0:0:
313,289,159300,6,0,P|314:261|289:218,2,60.0000022888184,0|0|0,3:2|0:0|0:0,0:0:0:0:
243,174,159814,2,0,P|224:126|249:48,1,120.000004577637,0|0,3:2|0:0,0:0:0:0:
216,251,160328,2,0,P|151:251|101:209,1,120.000004577637,0|0,3:2|0:0,0:0:0:0:
309,121,160843,2,0,P|369:119|429:167,1,120.000004577637,0|0,3:2|0:0,0:0:0:0:
349,274,161357,2,0,L|334:202,1,60.0000022888184,0|0,3:2|0:0,0:0:0:0:
411,343,161700,1,0,0:0:0:0:
257,303,161871,1,0,0:0:0:0:
469,206,162043,6,0,L|404:221,2,60.0000022888184,0|0|0,3:2|0:0|0:0,0:0:0:0:
240,175,162557,2,0,P|307:159|347:195,1,120.000004577637,0|0,3:2|0:0,0:0:0:0:
164,213,163071,2,0,P|97:197|57:233,1,120.000004577637,0|0,3:2|0:0,0:0:0:0:
194,337,163585,2,0,P|243:368|298:350,1,120.000004577637,0|0,3:2|0:0,0:0:0:0:
416,103,164100,6,0,B|399:166|443:193|443:193|397:270|459:337,1,240,8|0,3:2|0:0,0:0:0:0:
345,48,164785,6,0,P|303:41|264:62,1,71.9999978027344,0|0,3:2|0:0,0:0:0:0:
258,69,165043,1,0,0:0:0:0:
239,86,165128,1,0,0:0:0:0:
345,252,165300,2,0,L|338:168,2,71.9999978027344,2|0|0,3:2|0:0|0:0,0:0:0:0:
436,62,165814,6,0,L|426:151,1,71.9999978027344,0|0,3:2|0:0,0:0:0:0:
419,157,166071,1,0,0:0:0:0:
415,182,166157,1,0,0:0:0:0:
465,356,166328,2,0,L|448:270,1,71.9999978027344,0|0,3:2|0:0,0:0:0:0:
247,293,166671,2,0,P|280:328|316:252,1,143.999995605469,2|0,0:2|0:0,0:0:0:0:
77,211,167185,2,0,L|190:221,1,107.999996704102,2|0,0:2|0:0,0:0:0:0:
209,216,167528,6,0,P|220:194|214:155,1,60.0000022888184,0|0,3:2|0:0,0:0:0:0:
208,125,167785,1,0,0:0:0:0:
195,103,167871,1,0,0:0:0:0:
329,218,168043,2,0,L|402:210,1,71.9999978027344,2|0,3:2|0:0,0:0:0:0:
425,203,168300,1,0,0:0:0:0:
449,197,168385,1,0,0:0:0:0:
293,34,168557,5,0,3:2:0:0:
323,141,168728,2,0,L|332:93,2,35.9999989013672,0|0|0,0:0|0:0|0:0,0:0:0:0:
251,273,169071,1,0,3:2:0:0:
243,168,169243,1,2,0:2:0:0:
435,287,169414,2,0,P|405:316|330:266,1,143.999995605469,2|2,0:2|0:2,0:0:0:0:
327,198,169928,1,2,0:2:0:0:
103,121,170100,1,2,0:2:0:0:
196,32,170271,6,0,L|186:114,1,71.9999978027344,0|0,3:2|0:0,0:0:0:0:
186,128,170528,1,0,0:0:0:0:
184,153,170614,1,0,0:0:0:0:
219,351,170785,1,2,3:2:0:0:
100,296,170957,1,0,0:0:0:0:
125,292,171043,1,0,0:0:0:0:
149,288,171128,1,0,0:0:0:0:
399,313,171300,6,0,P|348:325|314:313,1,71.9999978027344,0|0,3:2|0:0,0:0:0:0:
306,310,171557,1,0,0:0:0:0:
283,298,171643,1,0,0:0:0:0:
425,107,171814,1,0,3:2:0:0:
386,237,171985,1,0,0:0:0:0:
363,224,172071,1,0,0:0:0:0:
340,211,172157,2,0,P|266:196|191:232,1,143.999995605469,2|0,0:2|0:0,0:0:0:0:
10,157,172671,2,0,P|47:149|121:183,1,107.999996704102,2|0,0:2|0:0,0:0:0:0:
128,200,173014,5,0,3:2:0:0:
52,322,173185,2,0,L|41:269,2,35.9999989013672,0|0|0,0:0|0:0|0:0,0:0:0:0:
243,269,173528,2,0,P|199:263|165:273,1,71.9999978027344,2|0,3:2|0:0,0:0:0:0:
151,283,173785,1,0,0:0:0:0:
126,298,173871,1,0,0:0:0:0:
329,329,174043,6,0,L|321:238,1,71.9999978027344,0|0,3:2|0:0,0:0:0:0:
313,229,174300,1,0,0:0:0:0:
304,201,174385,1,0,0:0:0:0:
464,149,174557,2,0,P|424:164|379:143,1,71.9999978027344,0|2,3:2|0:0,0:0:0:0:
287,105,174900,1,2,0:2:0:0:
151,283,175071,6,0,B|129:250|160:214|160:214|179:163|137:122|80:141|55:167|64:206|93:223,1,264.000008056641,8|2,3:2|0:2,0:0:0:0:
224,343,175757,5,0,3:2:0:0:
294,185,175928,1,0,0:0:0:0:
294,185,176014,1,0,0:0:0:0:
294,185,176100,1,0,0:0:0:0:
429,289,176271,2,0,P|386:301|342:290,1,71.9999978027344,2|0,3:2|0:0,0:0:0:0:
331,289,176528,1,0,0:0:0:0:
303,279,176614,1,0,0:0:0:0:
431,74,176785,6,0,L|418:175,1,71.9999978027344,0|0,3:2|0:0,0:0:0:0:
409,171,177043,1,0,0:0:0:0:
399,198,177128,1,0,0:0:0:0:
285,44,177300,2,0,L|307:148,1,71.9999978027344,0|0,3:2|0:0,0:0:0:0:
97,174,177643,2,0,P|117:123|202:122,1,143.999995605469,2|0,0:2|0:0,0:0:0:0:
118,269,178157,2,0,P|64:274|17:214,1,107.999996704102,2|0,0:2|0:0,0:0:0:0:
24,212,178500,5,0,3:2:0:0:
207,240,178671,2,0,L|215:190,1,35.9999989013672,0|0,0:0|0:0,0:0:0:0:
256,298,178843,1,0,0:0:0:0:
350,164,179014,1,2,3:2:0:0:
177,37,179185,1,0,0:0:0:0:
165,63,179271,1,0,0:0:0:0:
167,91,179357,1,0,0:0:0:0:
350,164,179528,6,0,P|322:140|277:138,1,71.9999978027344,0|0,3:2|0:0,0:0:0:0:
261,145,179785,1,0,0:0:0:0:
236,160,179871,1,0,0:0:0:0:
419,334,180043,2,0,L|434:247,1,71.9999978027344,0|2,3:2|0:0,0:0:0:0:
196,331,180385,2,0,B|246:351|246:351|345:323,1,143.999995605469,2|2,0:2|0:2,0:0:0:0:
167,250,180900,1,2,0:2:0:0:
75,331,181071,2,0,L|87:281,1,35.9999989013672,2|0,0:2|0:0,0:0:0:0:
77,267,181243,5,0,3:2:0:0:
43,99,181414,1,0,0:0:0:0:
43,99,181500,1,0,0:0:0:0:
43,99,181585,1,0,0:0:0:0:
238,169,181757,2,0,P|201:154|148:171,1,71.9999978027344,2|0,3:2|0:0,0:0:0:0:
145,172,182014,1,0,0:0:0:0:
123,190,182100,1,0,0:0:0:0:
295,235,182271,5,0,3:2:0:0:
348,51,182443,1,0,0:0:0:0:
345,79,182528,1,0,0:0:0:0:
345,107,182614,1,0,0:0:0:0:
228,18,182785,2,0,L|237:89,1,71.9999978027344,0|0,3:2|0:0,0:0:0:0:
416,212,183128,2,0,P|473:220|502:126,1,143.999995605469,2|0,0:2|0:0,0:0:0:0:
196,190,183643,2,0,L|210:306,1,107.999996704102,2|0,0:2|0:0,0:0:0:0:
195,322,183985,5,0,3:2:0:0:
128,154,184157,2,0,L|119:209,2,35.9999989013672,0|0|0,0:0|0:0|0:0,0:0:0:0:
343,98,184500,2,0,P|303:82|260:96,1,71.9999978027344,2|0,3:2|0:0,0:0:0:0:
254,106,184757,1,0,0:0:0:0:
228,119,184843,1,0,0:0:0:0:
25,44,185014,6,0,L|108:54,1,71.9999978027344,0|0,3:2|0:0,0:0:0:0:
121,66,185271,1,0,0:0:0:0:
147,78,185357,1,0,0:0:0:0:
33,257,185528,1,0,3:2:0:0:
191,330,185700,1,2,0:2:0:0:
167,313,185785,1,0,0:0:0:0:
137,311,185871,1,2,0:2:0:0:
344,314,186043,6,0,B|330:259|365:223|365:223|407:184|392:132|392:132|371:172|336:176,1,264.000008056641,8|2,3:2|0:2,0:0:0:0:
189,81,186728,6,0,P|232:74|274:92,1,80,0|2,0:0|0:2,0:0:0:0:
115,174,187243,6,0,L|122:104,1,40,8|0,0:2|0:0,0:0:0:0:
180,269,187414,2,0,L|177:230,1,40,8|0,0:2|0:0,0:0:0:0:
106,310,187585,1,8,0:2:0:0:
106,310,187671,1,8,0:2:0:0:
106,310,187757,6,0,P|154:361|227:346,1,143.999995605469,0|0,3:2|0:0,0:0:0:0:
338,276,188271,2,0,P|296:271|260:292,1,71.9999978027344,0|0,3:2|0:0,0:0:0:0:
407,345,188614,2,0,L|422:200,1,143.999995605469,2|0,0:2|0:0,0:0:0:0:
346,35,189128,2,0,B|329:85|329:85|353:156,1,107.999996704102,2|0,0:2|0:0,0:0:0:0:
342,165,189471,5,0,3:2:0:0:
220,296,189643,1,0,0:0:0:0:
193,307,189728,1,0,0:0:0:0:
164,307,189814,1,0,0:0:0:0:
179,72,189985,2,0,P|198:103|202:141,1,71.9999978027344,2|0,3:2|0:0,0:0:0:0:
198,166,190243,1,0,0:0:0:0:
190,193,190328,1,0,0:0:0:0:
95,65,190500,5,0,3:2:0:0:
267,187,190671,2,0,L|254:234,2,35.9999989013672,0|0|0,0:0|0:0|0:0,0:0:0:0:
300,338,191014,1,0,3:2:0:0:
190,193,191185,1,2,0:2:0:0:
458,181,191357,2,0,P|443:142|354:156,1,143.999995605469,2|2,0:2|0:2,0:0:0:0:
309,214,191871,1,2,0:2:0:0:
399,337,192043,1,2,0:2:0:0:
170,338,192214,6,0,L|161:259,1,71.9999978027344,0|0,3:2|0:0,0:0:0:0:
164,237,192471,1,0,0:0:0:0:
174,210,192557,1,0,0:0:0:0:
268,97,192728,1,2,3:2:0:0:
80,100,192900,1,0,0:0:0:0:
103,106,192985,1,0,0:0:0:0:
127,111,193071,1,0,0:0:0:0:
387,86,193243,6,0,P|344:68|302:78,1,71.9999978027344,0|0,3:2|0:0,0:0:0:0:
293,82,193500,1,0,0:0:0:0:
268,97,193585,1,0,0:0:0:0:
373,340,193757,1,0,3:2:0:0:
392,206,193928,1,0,0:0:0:0:
366,220,194014,1,0,0:0:0:0:
340,234,194100,2,0,B|287:251|287:251|182:227,1,143.999995605469,2|0,0:2|0:0,0:0:0:0:
14,158,194614,2,0,B|60:174|60:174|128:158,1,107.999996704102,2|0,0:2|0:0,0:0:0:0:
142,145,194957,5,0,3:2:0:0:
64,298,195128,2,0,L|59:258,2,35.9999989013672,0|0|0,0:0|0:0|0:0,0:0:0:0:
226,340,195471,2,0,P|232:304|225:269,1,71.9999978027344,2|0,3:2|0:0,0:0:0:0:
212,247,195728,1,0,0:0:0:0:
197,222,195814,1,0,0:0:0:0:
291,35,195985,6,0,L|290:126,1,71.9999978027344,0|0,3:2|0:0,0:0:0:0:
294,135,196243,1,0,0:0:0:0:
304,161,196328,1,0,0:0:0:0:
426,318,196500,2,0,P|396:288|346:288,1,71.9999978027344,0|2,3:2|0:0,0:0:0:0:
240,323,196843,1,2,0:2:0:0:
201,65,197014,6,0,B|211:119|156:143|156:143|124:113|51:121|51:121|104:115|112:89,1,264.000008056641,8|2,3:2|0:2,0:0:0:0:
290,41,197700,5,0,3:2:0:0:
253,235,197871,2,0,L|269:171,2,35.9999989013672,0|0|0,0:0|0:0|0:0,0:0:0:0:
469,156,198214,2,0,P|432:133|390:136,1,71.9999978027344,2|0,3:2|0:0,0:0:0:0:
376,139,198471,1,0,0:0:0:0:
348,149,198557,1,0,0:0:0:0:
379,372,198728,6,0,L|394:269,1,71.9999978027344,0|0,3:2|0:0,0:0:0:0:
402,274,198985,1,0,0:0:0:0:
412,247,199071,1,0,0:0:0:0:
278,190,199243,2,0,L|267:97,1,71.9999978027344,0|0,3:2|0:0,0:0:0:0:
70,243,199585,2,0,P|78:281|183:297,1,143.999995605469,2|0,0:2|0:0,0:0:0:0:
155,112,200100,2,0,P|108:84|40:119,1,107.999996704102,2|0,0:2|0:0,0:0:0:0:
45,123,200443,5,0,3:2:0:0:
252,159,200614,2,0,L|245:208,1,35.9999989013672,0|0,0:0|0:0,0:0:0:0:
303,97,200785,1,0,0:0:0:0:
387,251,200957,1,2,3:2:0:0:
139,279,201128,1,0,0:0:0:0:
139,250,201214,1,0,0:0:0:0:
152,225,201300,1,0,0:0:0:0:
324,322,201471,6,0,P|288:331|246:314,1,71.9999978027344,0|0,3:2|0:0,0:0:0:0:
235,301,201728,1,0,0:0:0:0:
219,277,201814,1,0,0:0:0:0:
453,151,201985,2,0,L|442:235,1,71.9999978027344,0|2,3:2|0:0,0:0:0:0:
278,65,202328,2,0,P|337:41|417:89,1,143.999995605469,2|2,0:2|0:2,0:0:0:0:
235,136,202843,1,2,0:2:0:0:
108,20,203014,2,0,L|97:70,1,35.9999989013672,2|0,0:2|0:0,0:0:0:0:
85,84,203185,5,0,3:2:0:0:
165,211,203357,1,0,0:0:0:0:
165,211,203443,1,0,0:0:0:0:
165,211,203528,1,0,0:0:0:0:
26,323,203700,2,0,P|61:348|109:345,1,71.9999978027344,2|0,3:2|0:0,0:0:0:0:
117,345,203957,1,0,0:0:0:0:
145,338,204043,1,0,0:0:0:0:
360,281,204214,5,2,3:2:0:0:
273,136,204385,1,0,0:0:0:0:
284,161,204471,1,0,0:0:0:0:
293,188,204557,1,0,0:0:0:0:
348,352,204728,2,0,L|360:281,1,71.9999978027344,0|0,3:2|0:0,0:0:0:0:
358,76,205071,2,0,P|413:93|400:190,1,143.999995605469,2|0,0:2|0:0,0:0:0:0:
221,233,205585,2,0,P|211:172|245:122,1,107.999996704102,2|0,0:2|0:0,0:0:0:0:
258,115,205928,5,0,3:2:0:0:
95,160,206100,2,0,L|82:106,2,35.9999989013672,0|0|0,0:0|0:0|0:0,0:0:0:0:
255,310,206443,2,0,P|212:320|173:302,1,71.9999978027344,2|0,3:2|0:0,0:0:0:0:
161,296,206700,1,0,0:0:0:0:
136,281,206785,1,0,0:0:0:0:
336,240,206957,6,0,L|419:244,1,71.9999978027344,0|0,3:2|0:0,0:0:0:0:
433,234,207214,1,0,0:0:0:0:
460,227,207300,1,0,0:0:0:0:
301,121,207471,1,0,3:2:0:0:
386,317,207643,2,0,L|380:353,2,35.9999989013672,2|0|2,0:0|0:0|0:2,0:0:0:0:
132,250,207985,6,0,P|156:288|250:252,1,132.00000402832,8|0,3:2|0:0,0:0:0:0:
257,253,208328,1,8,0:2:0:0:
172,39,208500,5,10,0:2:0:0:
161,72,208585,1,8,0:2:0:0:
172,105,208671,1,12,3:2:0:0:
256,192,228900,12,0,231643,0:0:0:0:
424,155,231985,6,0,P|381:124|319:139,1,120,2|0,0:2|0:0,0:0:0:0:
263,198,232671,2,0,P|213:224|115:133,1,200,2|0,0:2|0:0,0:0:0:0:
134,71,233700,2,0,P|183:46|194:147,1,200,2|0,0:2|0:0,0:0:0:0:
123,177,234728,2,0,P|82:218|100:289,1,120,2|0,0:2|0:0,0:0:0:0:
145,336,235414,2,0,L|275:344,1,120,2|0,0:2|0:0,0:0:0:0:
356,350,236100,6,0,B|348:318|369:293|369:293|364:251|344:247|335:215|348:179|348:179|334:130|374:134|354:80,1,280,2|0,0:2|0:0,0:0:0:0:
295,42,237471,2,0,B|241:32|241:32|160:52,1,120,2|0,0:2|0:0,0:0:0:0:
118,96,238157,2,0,P|165:140|106:239,1,200,2|0,0:2|0:0,0:0:0:0:
52,288,239185,2,0,P|105:239|199:298,1,200,2|0,0:2|0:0,0:0:0:0:
242,360,240214,2,0,L|251:234,1,120,2|0,0:2|0:0,0:0:0:0:
308,184,240900,2,0,L|427:201,1,120,2|0,0:2|0:0,0:0:0:0:
457,131,241585,6,0,P|367:160|457:270,1,280,2|0,0:2|0:0,0:0:0:0:
492,215,242957,2,0,L|479:347,1,120,2|0,0:2|0:0,0:0:0:0:
409,365,243643,2,0,P|350:373|295:350,1,120,2|0,0:2|0:0,0:0:0:0:
234,308,244328,2,0,L|181:302,1,40,2|0,0:0|0:0,0:0:0:0:
121,312,244671,2,0,P|97:237|189:183,1,200,2|0,0:2|0:0,0:0:0:0:
264,210,245700,6,0,L|432:199,2,160,2|2|2,0:2|0:2|0:2,0:0:0:0:
52,107,248443,6,0,P|94:90|166:124,1,120,2|0,0:2|0:0,0:0:0:0:
205,186,249128,2,0,P|255:193|309:150,1,120,2|0,0:2|0:0,0:0:0:0:
256,192,249814,12,0,252385,0:0:0:0:
80,268,252557,6,0,L|67:198,3,60.0000022888184,2|0|0|0,3:2|0:0|0:0|0:0,0:0:0:0:
129,151,253243,2,0,L|137:83,1,60.0000022888184,0|0,0:0|0:0,0:0:0:0:
79,36,253585,1,2,0:2:0:0:
211,102,253757,1,2,0:2:0:0:
231,113,253843,1,0,0:0:0:0:
254,115,253928,6,0,L|323:107,3,60.0000022888184,0|0|0|0,0:0|0:0|0:0|0:0,0:0:0:0:
382,65,254614,2,0,L|451:73,3,60.0000022888184,0|0|0|0,0:0|0:0|0:0|0:0,0:0:0:0:
345,242,255300,1,0,0:0:0:0:
329,160,255471,1,0,0:0:0:0:
413,148,255643,1,0,0:0:0:0:
439,239,255814,1,0,0:0:0:0:
439,239,255900,1,0,0:0:0:0:
439,239,255985,1,0,0:0:0:0:
368,324,256157,1,0,0:0:0:0:
241,291,256328,5,2,0:2:0:0:
229,269,256414,1,2,0:2:0:0:
227,244,256500,1,2,0:2:0:0:
233,221,256585,1,0,0:0:0:0:
244,199,256671,6,0,L|232:134,3,60.0000022888184,0|0|0|0,0:0|0:0|0:0|0:0,0:0:0:0:
179,32,257357,2,0,L|169:92,3,60.0000022888184,0|0|0|0,0:0|0:0|0:0|0:0,0:0:0:0:
95,159,258043,1,0,0:0:0:0:
52,229,258214,1,0,0:0:0:0:
109,301,258385,1,0,0:0:0:0:
17,339,258557,2,0,L|25:290,2,30.0000011444092,0|0|0,0:0|0:0|0:0,0:0:0:0:
135,223,258900,1,0,0:0:0:0:
214,338,259071,5,2,0:2:0:0:
236,345,259157,1,2,0:2:0:0:
260,346,259243,1,2,0:2:0:0:
283,340,259328,1,0,0:0:0:0:
305,332,259414,6,0,L|294:262,1,60.0000022888184,0|0,0:0|0:0,0:0:0:0:
317,123,259757,1,0,0:0:0:0:
367,196,259928,1,0,0:0:0:0:
274,200,260100,1,0,0:0:0:0:
225,127,260271,1,0,0:0:0:0:
261,49,260443,1,0,0:0:0:0:
350,44,260614,1,0,0:0:0:0:
466,125,260785,6,0,L|392:113,1,60.0000022888184,0|0,0:0|0:0,0:0:0:0:
317,123,261128,1,0,0:0:0:0:
174,43,261300,1,0,0:0:0:0:
167,66,261385,1,0,0:0:0:0:
164,89,261471,2,0,L|171:134,2,30.0000011444092,0|0|0,0:0|0:0|0:0,0:0:0:0:
108,254,261814,5,2,0:2:0:0:
115,229,261900,1,2,0:2:0:0:
116,205,261985,1,2,0:2:0:0:
110,181,262071,1,0,0:0:0:0:
97,160,262157,6,0,L|38:168,2,60.0000022888184,0|0|0,0:0|0:0|0:0,0:0:0:0:
37,353,262671,1,0,0:0:0:0:
23,333,262757,1,0,0:0:0:0:
20,309,262843,2,0,L|32:243,2,60.0000022888184,0|0|0,0:0|0:0|0:0,0:0:0:0:
119,235,263357,1,0,0:0:0:0:
275,314,263528,6,0,P|241:322|205:307,2,60.0000022888184,0|0|0,0:0|0:0|0:0,0:0:0:0:
184,159,264043,1,0,0:0:0:0:
184,159,264128,1,0,0:0:0:0:
184,159,264214,1,0,0:0:0:0:
241,240,264385,1,0,0:0:0:0:
221,60,264557,5,2,0:2:0:0:
197,54,264643,1,2,0:2:0:0:
173,56,264728,1,2,0:2:0:0:
154,70,264814,1,0,0:0:0:0:
136,87,264900,6,0,L|57:89,3,60.0000022888184,0|0|0|0,0:0|0:0|0:0|0:0,0:0:0:0:
191,154,265585,1,0,0:0:0:0:
318,218,265757,1,0,0:0:0:0:
194,143,265928,1,0,0:0:0:0:
332,228,266100,1,0,0:0:0:0:
346,246,266185,1,0,0:0:0:0:
352,269,266271,6,0,L|346:346,1,60.0000022888184,0|0,0:0|0:0,0:0:0:0:
249,209,266614,1,0,0:0:0:0:
348,34,266785,1,0,0:0:0:0:
348,34,266871,1,0,0:0:0:0:
348,34,266957,2,0,L|354:78,1,30.0000011444092,0|0,0:0|0:0,0:0:0:0:
312,127,267128,2,0,L|308:158,1,30.0000011444092,0|0,0:0|0:0,0:0:0:0:
332,228,267300,5,2,0:2:0:0:
354,236,267385,1,2,0:2:0:0:
378,236,267471,1,2,0:2:0:0:
400,228,267557,1,0,0:0:0:0:
420,215,267643,6,0,L|413:155,2,60.0000022888184,0|0|0,0:0|0:0|0:0,0:0:0:0:
388,27,268157,1,0,0:0:0:0:
388,27,268243,1,0,0:0:0:0:
388,27,268328,2,0,L|378:96,2,60.0000022888184,0|0|0,0:0|0:0|0:0,0:0:0:0:
312,127,268843,1,0,0:0:0:0:
365,282,269014,6,0,P|373:252|361:211,1,60.0000022888184,0|0,0:0|0:0,0:0:0:0:
298,341,269357,1,0,0:0:0:0:
194,247,269528,1,0,0:0:0:0:
217,241,269614,1,0,0:0:0:0:
241,241,269700,2,0,L|285:250,2,30.0000011444092,0|0|0,0:0|0:0|0:0,0:0:0:0:
430,322,270043,5,2,0:2:0:0:
442,301,270128,1,2,0:2:0:0:
446,277,270214,1,2,0:2:0:0:
445,252,270300,1,0,0:0:0:0:
436,229,270385,6,0,L|429:155,2,60.0000022888184,0|0|0,0:0|0:0|0:0,0:0:0:0:
481,88,270900,1,0,0:0:0:0:
481,88,270985,1,0,0:0:0:0:
481,88,271071,1,0,0:0:0:0:
326,131,271243,1,0,0:0:0:0:
377,26,271414,1,0,0:0:0:0:
393,175,271585,1,0,0:0:0:0:
228,72,271757,6,0,L|239:130,1,60.0000022888184,0|0,0:0|0:0,0:0:0:0:
194,283,272100,1,0,0:0:0:0:
69,195,272271,1,0,0:0:0:0:
89,182,272357,1,0,0:0:0:0:
112,178,272443,2,0,L|191:189,1,60.0000022888184,0|0,0:0|0:0,0:0:0:0:
346,282,272785,5,2,0:2:0:0:
324,294,272871,1,2,0:2:0:0:
301,298,272957,1,2,0:2:0:0:
276,297,273043,1,0,0:0:0:0:
253,288,273128,6,0,L|179:281,2,60.0000022888184,4|0|0,0:2|0:0|0:0,0:0:0:0:
114,333,273643,1,0,0:0:0:0:
55,168,273814,2,0,L|63:243,1,60.0000022888184,0|0,0:0|0:0,0:0:0:0:
157,85,274157,2,0,L|147:157,1,60.0000022888184,0|0,0:0|0:0,0:0:0:0:
297,194,274500,6,0,P|289:146|214:138,1,128,0|0,3:2|0:0,0:0:0:0:
258,264,275014,1,0,0:0:0:0:
396,222,275185,1,0,0:0:0:0:
373,24,275357,2,0,L|379:111,1,64,0|0,3:2|0:0,0:0:0:0:
371,109,275614,1,0,0:0:0:0:
367,131,275700,1,0,0:0:0:0:
165,94,275871,6,0,B|304:76|304:76|261:120,1,192,0|0,3:2|0:0,0:0:0:0:
179,189,276557,1,0,0:0:0:0:
263,345,276728,2,0,L|253:264,1,64,0|0,3:2|0:0,0:0:0:0:
260,259,276985,1,0,0:0:0:0:
265,237,277071,1,0,0:0:0:0:
366,74,277243,6,0,L|356:156,2,64,0|0|0,3:2|0:0|0:0,0:0:0:0:
406,213,277757,1,0,0:0:0:0:
410,234,277843,1,0,0:0:0:0:
411,256,277928,1,0,0:0:0:0:
460,149,278100,1,0,3:2:0:0:
328,283,278271,5,2,0:2:0:0:
307,274,278357,1,2,0:2:0:0:
284,271,278443,1,2,0:2:0:0:
262,274,278528,1,0,0:0:0:0:
240,281,278614,6,0,P|204:296|121:273,1,128,0|0,3:2|0:0,0:0:0:0:
43,201,279128,1,0,0:0:0:0:
162,146,279300,1,0,0:0:0:0:
67,32,279471,2,0,L|80:122,1,64,0|0,3:2|0:0,0:0:0:0:
187,219,279814,1,0,0:0:0:0:
187,219,279900,1,0,0:0:0:0:
187,219,279985,6,0,L|321:206,1,128,0|0,3:2|0:0,0:0:0:0:
464,244,280500,1,0,0:0:0:0:
464,244,280585,1,0,0:0:0:0:
464,244,280671,2,0,P|425:249|389:235,1,64,0|0,0:0|3:2,0:0:0:0:
430,72,281014,1,0,0:0:0:0:
439,92,281100,1,0,0:0:0:0:
447,112,281185,1,2,0:0:0:0:
447,134,281271,1,0,0:0:0:0:
440,155,281357,6,0,P|395:173|315:146,1,128,0|0,3:2|0:0,0:0:0:0:
244,81,281871,1,0,0:0:0:0:
332,40,282043,1,0,0:0:0:0:
221,189,282214,1,0,3:2:0:0:
143,100,282385,2,0,L|147:67,2,32,0|0|0,0:0|0:0|0:0,0:0:0:0:
24,116,282728,6,0,P|22:70|94:27,1,128,0|0,3:2|0:0,0:0:0:0:
233,283,283243,1,0,0:0:0:0:
136,330,283414,1,0,0:0:0:0:
221,189,283585,1,0,3:2:0:0:
433,264,283757,1,0,0:0:0:0:
413,275,283843,1,0,0:0:0:0:
391,281,283928,1,2,0:0:0:0:
368,281,284014,1,0,0:0:0:0:
347,271,284100,6,0,P|301:253|223:297,2,128,0|0|0,3:2|0:0|0:0,0:0:0:0:
202,355,284957,1,0,3:2:0:0:
130,200,285128,2,0,L|124:302,1,96,0|0,0:0|0:0,0:0:0:0:
115,316,285471,6,0,P|67:326|32:254,1,128,0|0,3:2|0:0,0:0:0:0:
260,28,286157,1,0,0:0:0:0:
212,183,286328,1,0,3:2:0:0:
316,111,286500,1,0,0:0:0:0:
295,101,286585,1,0,0:0:0:0:
272,97,286671,1,2,0:0:0:0:
250,101,286757,1,0,0:0:0:0:
228,108,286843,5,0,3:2:0:0:
344,252,287014,2,0,B|341:227|341:227|353:208|353:208|351:180,2,64,0|0|0,0:0|0:0|0:0,0:0:0:0:
428,185,287528,1,0,0:0:0:0:
271,236,287700,2,0,P|226:223|144:300,1,160,0|0,3:2|0:0,0:0:0:0:
148,311,288214,5,0,3:2:0:0:
91,215,288385,2,0,L|75:130,1,64,0|0,0:0|0:0,0:0:0:0:
181,53,288728,2,0,L|168:116,1,64,0|0,0:0|0:0,0:0:0:0:
92,58,289071,1,0,3:2:0:0:
269,37,289243,2,0,L|286:113,1,64,0|0,0:0|0:0,0:0:0:0:
314,248,289585,6,0,L|328:186,2,64,0|0|0,3:2|0:0|0:0,0:0:0:0:
257,356,290100,2,0,L|244:293,1,64,0|0,0:0|0:0,0:0:0:0:
75,272,290443,2,0,P|86:304|166:289,1,128,0|0,3:2|0:0,0:0:0:0:
204,37,290957,6,0,L|220:181,2,128,0|0|0,3:2|0:0|0:0,0:0:0:0:
298,136,291814,1,0,3:2:0:0:
136,224,291985,2,0,L|148:138,1,64,0|0,0:0|0:0,0:0:0:0:
190,280,292328,6,0,P|151:302|96:289,1,96,0|0,3:2|0:0,0:0:0:0:
69,281,292671,2,0,L|49:141,1,128,0|0,0:0|0:0,0:0:0:0:
136,224,293185,1,0,3:2:0:0:
303,129,293357,2,4,P|244:114|204:139,1,96,0|0,0:0|0:0,0:0:0:0:
200,145,293700,6,0,L|187:64,1,64,0|0,3:2|0:0,0:0:0:0:
257,211,294043,2,0,L|241:347,1,128,0|0,0:0|0:0,0:0:0:0:
173,256,294557,1,0,3:2:0:0:
327,172,294728,2,0,P|339:207|321:246,1,64,0|0,0:0|0:0,0:0:0:0:
405,83,295071,5,0,3:2:0:0:
82,66,295928,5,0,3:2:0:0:
164,161,296100,2,0,P|198:169|249:128,1,96,0|0,0:2|0:0,0:0:0:0:
301,82,296443,6,0,B|328:134|328:134|321:251,3,160,0|0|0|0,3:2|0:0|0:0|0:0,0:0:0:0:
69,91,297814,2,0,B|112:117|112:117|238:92,3,160,2|0|0|0,0:0|0:0|0:0|0:0,0:0:0:0:
66,314,299185,2,4,P|99:262|57:169,3,160,2|0|0|0,0:0|0:0|0:0|0:0,0:0:0:0:
336,262,300557,2,4,L|168:286,3,160,2|0|0|0,0:0|0:0|0:0|0:0,0:0:0:0:
413,336,301928,6,4,L|407:236,1,80,2|0,0:0|0:0,0:0:0:0:
495,250,302271,2,0,L|451:174,1,80,0|0,0:0|0:0,0:0:0:0:
345,33,302614,2,4,L|346:126,1,80,0|0,0:0|0:0,0:0:0:0:
255,89,302957,2,0,L|280:180,1,80,0|0,0:0|0:0,0:0:0:0:
302,344,303300,6,0,L|318:246,1,80,2|0,0:0|0:0,0:0:0:0:
149,307,303643,2,0,L|244:297,1,80,0|0,0:0|0:0,0:0:0:0:
154,147,303985,2,0,L|176:240,1,80,0|0,0:0|0:0,0:0:0:0:
318,186,304328,2,0,L|234:173,1,80
465,121,304671,6,0,L|376:137,1,80,2|0,0:0|0:0,0:0:0:0:
238,173,305014,2,0,L|318:186,1,80,0|0,0:0|0:0,0:0:0:0:
477,227,305357,2,0,L|388:243,1,80,0|0,0:0|0:0,0:0:0:0:
251,295,305700,2,0,L|330:307,1,80,0|0,0:0|0:0,0:0:0:0:
178,344,306043,6,0,L|165:246,1,80,2|0,0:0|0:0,0:0:0:0:
140,110,306385,2,0,L|127:196,1,80,0|0,0:0|0:0,0:0:0:0:
292,185,306728,2,0,L|200:193,1,80
11,252,307071,2,0,L|91:264,1,80,0|0,0:0|0:0,0:0:0:0:
302,342,307414,6,0,L|283:249,1,80,2|0,0:0|0:0,0:0:0:0:
372,119,307757,2,0,L|362:198,1,80,0|0,0:0|0:0,0:0:0:0:
293,356,308100,2,0,L|274:263,1,80,0|0,0:0|0:0,0:0:0:0:
392,111,308443,2,0,L|382:190,1,80,0|0,0:0|0:0,0:0:0:0:
253,67,308785,6,0,L|343:48,1,80,2|0,0:0|0:0,0:0:0:0:
103,112,309128,2,0,L|186:121,1,80,0|0,0:0|0:0,0:0:0:0:
62,246,309471,2,0,L|38:158,1,80,0|0,0:0|0:0,0:0:0:0:
213,263,309814,2,0,L|115:283,1,80,0|0,0:0|0:0,0:0:0:0:
294,214,310157,6,0,L|392:232,1,80,2|0,0:0|0:0,0:0:0:0:
234,84,310500,2,0,P|227:125|253:173,1,80,0|0,0:0|0:0,0:0:0:0:
397,50,310843,2,0,P|352:27|308:34,1,80,0|0,0:0|0:0,0:0:0:0:
157,75,311185,2,0,P|206:89|252:73,1,80,0|0,0:0|0:0,0:0:0:0:
71,37,311528,6,0,L|56:122,1,80,2|0,0:0|0:0,0:0:0:0:
117,262,311871,2,0,P|122:215|102:185,1,80,0|0,0:0|0:0,0:0:0:0:
28,280,312214,2,0,L|40:360,1,80,0|0,0:0|0:0,0:0:0:0:
193,296,312557,2,0,L|204:210,1,80,0|0,0:0|0:0,0:0:0:0:
273,338,312900,5,2,0:0:0:0:
353,282,313071,1,0,0:0:0:0:
270,244,313243,1,0,0:0:0:0:
368,360,313414,1,0,0:0:0:0:
450,232,313585,2,4,L|463:151,1,80,0|0,0:0|0:0,0:0:0:0:
317,31,313928,2,4,L|329:131,1,80,0|0,0:0|0:0,0:0:0:0:
189,295,314271,5,2,0:0:0:0:
145,210,314443,1,0,0:0:0:0:
233,160,314614,1,0,0:0:0:0:
280,245,314785,1,0,0:0:0:0:
97,281,314957,2,4,P|56:285|12:263,1,80,0|0,0:0|0:0,0:0:0:0:
159,136,315300,2,4,P|200:139|239:168,1,80,0|0,0:0|0:0,0:0:0:0:
370,328,315643,5,2,0:0:0:0:
281,275,315814,1,0,0:0:0:0:
371,133,315985,1,0,0:0:0:0:
360,237,316157,1,0,0:0:0:0:
278,82,316328,2,4,L|292:175,1,80,0|0,0:0|0:0,0:0:0:0:
457,55,316671,2,4,L|446:142,1,80,0|0,0:0|0:0,0:0:0:0:
381,298,317014,6,4,P|341:282|291:290,1,80,2|0,0:0|0:0,0:0:0:0:
125,349,317357,2,4,P|164:351|201:335,1,80,0|0,0:0|0:0,0:0:0:0:
399,286,317700,2,4,P|359:270|309:278,1,80,0|0,0:0|0:0,0:0:0:0:
109,362,318043,2,4,P|148:364|185:348,1,80,0|0,0:0|0:0,0:0:0:0:
58,157,318385,6,0,B|41:192|41:192|53:244,1,88.000002685547,2|0,0:0|0:0,0:0:0:0:
116,277,318643,1,0,0:0:0:0:
116,277,318728,2,0,P|157:264|208:275,1,88.000002685547,2|0,0:0|0:0,0:0:0:0:
267,315,318985,1,0,0:0:0:0:
267,315,319071,2,0,L|253:212,1,88.000002685547,2|0,0:0|0:0,0:0:0:0:
279,159,319328,1,0,0:0:0:0:
279,159,319414,2,0,L|290:63,1,88.000002685547,2|0,0:0|0:0,0:0:0:0:
352,37,319671,1,0,0:0:0:0:
352,37,319757,6,0,P|294:58|260:45,1,88.000002685547,2|0,0:0|0:0,0:0:0:0:
206,24,320014,1,0,0:0:0:0:
206,24,320100,2,0,P|161:16|106:31,1,88.000002685547,2|0,0:0|0:0,0:0:0:0:
61,72,320357,1,0,0:0:0:0:
61,72,320443,2,0,L|71:174,1,88.000002685547,2|0,0:0|0:0,0:0:0:0:
111,220,320700,1,0,0:0:0:0:
111,220,320785,2,0,B|144:230|144:230|210:215,1,88.000002685547,2|0,0:0|0:0,0:0:0:0:
258,183,321043,1,0,0:0:0:0:
258,183,321128,6,0,L|261:87,1,88.000002685547,2|0,0:0|0:0,0:0:0:0:
325,50,321385,1,0,0:0:0:0:
325,50,321471,2,0,L|335:152,1,88.000002685547,2|0,0:0|0:0,0:0:0:0:
367,202,321728,1,0,0:0:0:0:
367,202,321814,2,0,P|409:217|456:203,1,88.000002685547,2|0,0:0|0:0,0:0:0:0:
493,153,322071,1,0,0:0:0:0:
493,153,322157,2,0,L|480:255,1,88.000002685547,2|0,0:0|0:0,0:0:0:0:
433,299,322414,1,0,0:0:0:0:
433,299,322500,6,0,P|391:311|331:290,1,88.000002685547,2|0,0:0|0:0,0:0:0:0:
286,262,322757,1,0,0:0:0:0:
286,262,322843,2,0,P|233:254|186:275,1,88.000002685547,2|0,0:0|0:0,0:0:0:0:
155,315,323100,1,0,0:0:0:0:
155,315,323185,2,0,L|166:208,1,88.000002685547,2|0,0:0|0:0,0:0:0:0:
134,161,323443,1,0,0:0:0:0:
134,161,323528,2,0,L|119:73,1,88.000002685547,2|0,0:0|0:0,0:0:0:0:
201,37,323785,1,0,0:0:0:0:
201,37,323871,6,0,L|190:98,3,44.0000013427735,2|0|8|0,0:0|0:0|0:0|0:0,0:0:0:0:
260,172,324214,2,0,L|251:128,3,44.0000013427735,2|0|8|0,0:0|0:0|0:0|0:0,0:0:0:0:
376,205,324557,2,0,L|324:190,3,44.0000013427735,2|0|8|0,0:0|0:0|0:0|0:0,0:0:0:0:
470,140,324900,2,0,L|412:156,3,44.0000013427735,2|0|8|0,0:0|0:0|0:0|0:0,0:0:0:0:
442,281,325243,6,0,L|451:218,3,44.0000013427735,2|0|8|0,0:0|0:0|0:0|0:0,0:0:0:0:
360,346,325585,2,0,L|352:302,3,44.0000013427735,2|0|8|0,0:0|0:0|0:0|0:0,0:0:0:0:
296,200,325928,2,0,L|290:244,3,44.0000013427735,2|0|8|0,0:0|0:0|0:0|0:0,0:0:0:0:
210,321,326271,2,0,L|202:277,3,44.0000013427735,2|0|8|0,0:0|0:0|0:0|0:0,0:0:0:0:
91,226,326614,6,0,L|146:237,3,44.0000013427735,2|0|8|0,0:0|0:0|0:0|0:0,0:0:0:0:
66,114,326957,2,0,L|68:170,3,44.0000013427735,2|0|8|0,0:0|0:0|0:0|0:0,0:0:0:0:
182,79,327300,2,0,L|130:89,3,44.0000013427735,2|0|8|0,0:0|0:0|0:0|0:0,0:0:0:0:
239,177,327643,2,0,L|245:117,3,44.0000013427735,2|0|8|0,0:0|0:0|0:0|0:0,0:0:0:0:
341,227,327985,6,0,L|291:232,3,44.0000013427735,2|0|8|0,0:0|0:0|0:0|0:0,0:0:0:0:
456,274,328328,2,0,L|406:269,3,44.0000013427735,2|0|8|0,0:0|0:0|0:0|0:0,0:0:0:0:
299,313,328671,2,0,L|361:317,3,44.0000013427735,2|0|8|0,0:0|0:0|0:0|0:0,0:0:0:0:
185,280,329014,2,0,L|242:269,3,44.0000013427735,2|0|8|0,0:0|0:0|0:0|0:0,0:0:0:0:
139,343,329357,6,0,P|111:310|123:244,1,88.000002685547,2|8,0:0|0:0,0:0:0:0:
145,203,329614,1,0,0:0:0:0:
145,203,329700,2,0,P|155:146|135:112,1,88.000002685547,2|8,0:0|0:0,0:0:0:0:
89,74,329957,1,0,0:0:0:0:
89,74,330043,2,0,L|177:63,1,88.000002685547,2|8,0:0|0:0,0:0:0:0:
249,75,330300,1,0,0:0:0:0:
249,75,330385,2,0,P|238:123|258:164,1,88.000002685547,2|8,0:0|0:0,0:0:0:0:
308,206,330643,1,0,0:0:0:0:
308,206,330728,6,0,L|403:193,1,88.000002685547,2|8,0:0|0:0,0:0:0:0:
466,221,330985,1,0,0:0:0:0:
466,221,331071,2,0,P|478:272|463:309,1,88.000002685547,2|8,0:0|0:0,0:0:0:0:
411,352,331328,1,0,0:0:0:0:
411,352,331414,2,0,L|311:346,1,88.000002685547,2|8,0:0|0:0,0:0:0:0:
254,326,331671,1,0,0:0:0:0:
254,326,331757,2,0,L|156:335,1,88.000002685547,2|8,0:0|0:0,0:0:0:0:
101,309,332014,1,0,0:0:0:0:
101,309,332100,6,0,P|82:262|95:223,1,88.000002685547,2|8,0:0|0:0,0:0:0:0:
148,179,332357,1,0,0:0:0:0:
148,179,332443,2,0,P|190:191|242:172,1,88.000002685547,2|8,0:0|0:0,0:0:0:0:
289,139,332700,1,0,0:0:0:0:
289,139,332785,2,0,L|272:45,1,88.000002685547,2|8,0:0|0:0,0:0:0:0:
352,67,333043,1,0,0:0:0:0:
352,67,333128,2,0,L|367:169,1,88.000002685547,2|8,0:0|0:0,0:0:0:0:
341,222,333385,1,0,0:0:0:0:
341,222,333471,6,0,L|330:327,1,88.000002685547,2|8,0:0|0:0,0:0:0:0:
282,365,333728,1,0,0:0:0:0:
282,365,333814,2,0,P|240:373|182:355,1,88.000002685547,2|8,0:0|0:0,0:0:0:0:
135,327,334071,1,0,0:0:0:0:
135,327,334157,2,0,L|123:235,1,88.000002685547,2|8,0:0|0:0,0:0:0:0:
153,171,334414,1,0,0:0:0:0:
153,171,334500,2,0,L|163:62,1,88.000002685547,2|8,0:0|0:0,0:0:0:0:
100,40,334757,1,0,0:0:0:0:
100,40,334843,6,0,L|48:50,3,44.0000013427735,2|2|8|0,3:2|0:0|0:0|0:0,0:0:0:0:
204,83,335185,2,0,B|161:83,3,44.0000013427735,2|2|8|0,3:2|0:0|0:0|0:0,0:0:0:0:
294,150,335528,2,0,L|237:140,3,44.0000013427735,2|2|8|0,3:2|0:0|0:0|0:0,0:0:0:0:
358,235,335871,2,0,L|304:215,3,44.0000013427735,2|2|8|0,3:2|0:0|0:0|0:0,0:0:0:0:
437,311,336214,6,0,L|427:261,3,44.0000013427735,2|2|8|0,3:2|0:0|0:0|0:0,0:0:0:0:
306,324,336557,2,0,L|348:335,3,44.0000013427735,2|2|8|0,3:2|0:0|0:0|0:0,0:0:0:0:
221,245,336900,2,0,L|238:300,3,44.0000013427735,2|2|8|0,3:2|0:0|0:0|0:0,0:0:0:0:
126,327,337243,2,0,L|175:340,3,44.0000013427735,2|2|8|0,3:2|0:0|0:0|0:0,0:0:0:0:
85,224,337585,6,0,P|72:251|79:280,3,44.0000013427735,2|2|8|0,3:2|0:0|0:0|0:0,0:0:0:0:
131,128,337928,2,0,P|142:146|143:168,3,44.0000013427735,2|2|8|0,3:2|0:0|0:0|0:0,0:0:0:0:
91,26,338271,2,0,P|79:44|78:66,3,44.0000013427735,2|2|8|0,3:2|0:0|0:0|0:0,0:0:0:0:
239,109,338614,2,0,P|219:95|194:92,3,44.0000013427735,2|2|8|0,3:2|0:0|0:0|0:0,0:0:0:0:
300,158,338957,6,0,L|348:152,3,44.0000013427735,2|2|8|0,3:2|0:0|0:0|0:0,0:0:0:0:
312,80,339300,2,0,L|380:73,3,44.0000013427735,2|2|8|0,3:2|0:0|0:0|0:0,0:0:0:0:
244,35,339643,2,0,L|201:39,3,44.0000013427735,2|2|8|0,3:2|0:0|0:0|0:0,0:0:0:0:
121,49,340307,6,0,P|111:76|117:105,1,60.0000022888184,0|0,0:0|0:0,0:0:0:0:
176,230,340478,2,0,P|179:192|161:165,1,60.0000022888184,0|0,3:2|0:0,0:0:0:0:
29,319,340649,2,0,L|158:305,1,120.000004577637,8|2,0:2|0:0,0:0:0:0:
183,313,340906,1,2,0:0:0:0:
216,327,340992,1,2,0:0:0:0:
436,247,341163,1,8,0:2:0:0:
303,24,341335,1,2,0:0:0:0:
285,55,341421,1,2,0:0:0:0:
281,90,341506,1,2,0:0:0:0:
287,125,341592,1,2,0:0:0:0:
307,154,341678,6,0,L|379:146,1,60.0000022888184,0|0,3:2|0:0,0:0:0:0:
216,214,341849,2,0,L|147:202,1,60.0000022888184,0|0,3:2|0:0,0:0:0:0:
293,320,342021,1,8,0:2:0:0:
473,254,342192,1,2,0:0:0:0:
443,233,342278,1,2,0:0:0:0:
407,227,342363,1,2,0:0:0:0:
375,244,342449,1,2,0:0:0:0:
356,274,342535,1,8,0:2:0:0:
486,161,342706,2,0,L|471:95,1,60.0000022888184,2|2,0:0|0:0,0:0:0:0:
352,83,342878,2,0,L|371:14,1,60.0000022888184,2|2,0:0|0:0,0:0:0:0:
266,153,343049,5,0,3:2:0:0:
304,367,343221,1,0,3:2:0:0:
81,241,343392,2,0,P|137:224|193:271,1,120.000004577637,8|2,0:2|0:0,0:0:0:0:
200,288,343649,1,2,0:0:0:0:
204,323,343735,1,2,0:0:0:0:
28,187,343906,1,8,0:2:0:0:
175,78,344078,1,2,0:0:0:0:
206,95,344163,1,2,0:0:0:0:
240,104,344249,2,0,L|303:94,1,60.0000022888184,2|2,0:0|0:0,0:0:0:0:
424,31,344421,6,0,P|386:39|366:57,1,60.0000022888184,0|0,3:2|0:0,0:0:0:0:
463,181,344592,2,0,P|479:150|478:114,1,60.0000022888184,0|0,3:2|0:0,0:0:0:0:
316,186,344763,2,0,L|336:313,1,120.000004577637,8|2,0:2|0:0,0:0:0:0:
354,335,345021,1,2,0:0:0:0:
371,365,345106,1,2,0:0:0:0:
403,118,345278,6,0,P|375:117|350:134,1,40,8|0,0:2|0:0,0:0:0:0:
194,221,345449,6,0,L|268:228,1,47.9999985351563,0|0,3:2|0:0,0:0:0:0:
97,106,345621,6,0,P|94:136|117:168,1,55.9999982910157,8|0,0:0|0:0,0:0:0:0:
188,278,345792,6,0,P|200:246|183:206,1,60.0000022888184,0|0,3:2|0:0,0:0:0:0:
95,356,345963,2,0,P|81:333|88:287,1,60.0000022888184,0|0,3:2|0:0,0:0:0:0:
105,158,346135,1,8,0:2:0:0:
317,104,346306,1,2,0:0:0:0:
289,127,346392,1,2,0:0:0:0:
255,141,346478,2,0,P|216:142|192:132,1,60.0000022888184,2|2,0:0|0:0,0:0:0:0:
357,224,346649,1,8,0:2:0:0:
223,350,346821,1,2,0:0:0:0:
216,314,346906,1,2,0:0:0:0:
212,278,346992,1,2,0:0:0:0:
206,242,347078,1,2,0:0:0:0:
201,206,347163,6,0,P|166:192|136:194,1,60.0000022888184,0|0,3:2|0:0,0:0:0:0:
24,239,347335,2,0,P|56:244|91:230,1,60.0000022888184,0|0,3:2|0:0,0:0:0:0:
221,121,347506,2,0,P|191:62|134:98,1,120.000004577637,8|2,0:2|0:0,0:0:0:0:
120,95,347763,1,2,0:0:0:0:
102,126,347849,1,2,0:0:0:0:
307,228,348021,1,8,0:2:0:0:
400,105,348192,2,0,L|387:30,2,60.0000022888184,2|2|2,0:0|0:0|0:0,0:0:0:0:
452,314,348535,5,0,3:2:0:0:
484,103,348706,1,0,3:2:0:0:
372,335,348878,2,0,P|309:349|244:324,1,120.000004577637,8|2,0:2|0:0,0:0:0:0:
229,310,349135,1,2,0:0:0:0:
201,287,349221,1,2,0:0:0:0:
291,73,349392,1,8,0:2:0:0:
107,41,349563,2,0,L|171:55,1,60.0000022888184,2|2,0:0|0:0,0:0:0:0:
23,131,349735,2,0,L|100:116,1,60.0000022888184,2|2,0:0|0:0,0:0:0:0:
214,213,349907,6,0,P|220:183|208:155,1,40,0|0,3:2|0:0,0:0:0:0:
93,246,350078,6,0,L|147:235,1,44.0000013427735,0|0,3:2|0:0,0:0:0:0:
217,330,350249,6,0,P|203:308|204:270,1,47.9999985351563,8|0,0:2|0:0,0:0:0:0:
342,334,350421,6,0,P|317:348|287:353,1,51.999997619629,0|0,3:2|0:0,0:0:0:0:
398,210,350592,6,0,L|392:275,1,55.9999982910157,0|0,3:2|0:0,0:0:0:0:
344,137,350764,6,0,L|331:74,1,60.0000022888184,8|0,0:2|0:0,0:0:0:0:
484,129,350935,6,0,P|450:124|416:144,1,64,0|0,3:2|0:0,0:0:0:0:
250,204,351107,6,0,P|280:218|323:207,1,68.0000012969971,8|0,0:2|0:0,0:0:0:0:
159,93,351278,6,0,P|148:129|164:163,1,60.0000022888184,0|0,3:2|0:0,0:0:0:0:
163,294,351449,2,0,L|175:217,1,60.0000022888184,0|0,3:2|0:0,0:0:0:0:
88,350,351621,1,8,0:2:0:0:
332,283,351792,1,2,0:2:0:0:
296,290,351878,1,2,0:2:0:0:
261,297,351963,1,2,0:2:0:0:
471,364,352135,1,8,0:2:0:0:
420,204,352306,2,0,P|405:241|413:276,1,60.0000022888184,2|2,0:2|0:2,0:0:0:0:
465,106,352478,2,0,P|483:136|485:175,1,60.0000022888184,2|2,0:2|0:2,0:0:0:0:
333,70,352649,6,0,L|408:75,1,60.0000022888184,0|0,3:2|0:0,0:0:0:0:
262,132,352821,2,0,L|169:118,1,60.0000022888184,0|0,3:2|0:0,0:0:0:0:
62,53,352992,2,0,P|122:37|180:66,1,120.000004577637,8|2,0:2|0:0,0:0:0:0:
190,90,353249,1,2,0:0:0:0:
202,123,353335,1,2,0:0:0:0:
80,342,353506,1,8,0:2:0:0:
38,138,353678,1,2,0:0:0:0:
30,172,353763,1,2,0:0:0:0:
25,207,353849,1,2,0:0:0:0:
230,243,354021,6,0,P|202:231|159:235,1,60.0000022888184,0|0,3:2|0:0,0:0:0:0:
279,317,354192,2,0,P|315:321|346:310,1,60.0000022888184,0|0,3:2|0:0,0:0:0:0:
364,115,354363,2,0,L|379:244,1,120.000004577637,8|2,0:2|0:0,0:0:0:0:
394,266,354621,1,2,0:0:0:0:
411,297,354706,1,2,0:0:0:0:
455,40,354878,2,0,B|414:29|414:29|317:50,1,120.000004577637,8|2,0:2|0:0,0:0:0:0:
306,62,355135,1,2,0:0:0:0:
271,73,355221,1,2,0:0:0:0:
68,60,355392,5,0,3:2:0:0:
255,164,355563,1,0,3:2:0:0:
73,350,355735,2,0,P|57:301|85:223,1,120.000004577637,8|2,0:2|0:0,0:0:0:0:
97,209,355992,1,2,0:0:0:0:
124,185,356078,1,2,0:0:0:0:
329,335,356249,6,0,L|322:292,1,40,8|0,0:2|0:0,0:0:0:0:
387,182,356421,6,0,P|390:210|380:237,1,47.9999985351563,0|0,3:2|0:0,0:0:0:0:
308,115,356592,6,0,L|311:50,1,55.9999982910157,8|0,0:2|0:0,0:0:0:0:
258,222,356763,6,0,P|229:235|196:227,1,55.9999982910157,0|0,3:2|0:0,0:0:0:0:
71,196,356935,2,0,P|103:183|139:190,1,55.9999982910157,0|0,3:2|0:0,0:0:0:0:
23,307,357106,1,8,0:2:0:0:
207,162,357278,1,2,0:0:0:0:
219,131,357363,1,2,0:0:0:0:
215,97,357449,1,2,0:0:0:0:
296,311,357621,1,8,0:2:0:0:
469,240,357792,1,2,0:2:0:0:
438,225,357878,1,2,0:2:0:0:
404,221,357963,1,2,0:2:0:0:
371,228,358049,1,2,0:2:0:0:
340,242,358135,6,0,L|323:168,1,55.9999982910157,0|0,3:2|0:0,0:0:0:0:
363,36,358306,2,0,L|379:115,1,55.9999982910157,0|0,3:2|0:0,0:0:0:0:
251,34,358478,1,8,0:2:0:0:
87,147,358649,1,2,0:0:0:0:
118,159,358735,1,2,0:0:0:0:
150,166,358821,2,0,L|205:160,1,55.9999982910157,2|2,0:0|0:0,0:0:0:0:
340,242,358992,1,8,0:2:0:0:
209,353,359163,1,2,0:0:0:0:
198,321,359249,1,2,0:0:0:0:
198,287,359335,1,2,0:0:0:0:
369,349,359506,6,0,L|291:342,1,55.9999982910157,0|0,3:2|0:0,0:0:0:0:
142,278,359678,2,0,L|215:289,1,55.9999982910157,0|0,3:2|0:0,0:0:0:0:
60,344,359849,1,8,0:2:0:0:
85,139,360021,2,0,P|99:171|98:205,2,55.9999982910157,2|2|2,0:0|0:0|0:0,0:0:0:0:
269,308,360363,1,8,0:2:0:0:
220,113,360535,1,2,0:0:0:0:
204,143,360621,1,2,0:0:0:0:
202,176,360706,1,2,0:0:0:0:
218,205,360792,1,2,0:0:0:0:
244,225,360878,6,0,P|276:216|317:221,1,55.9999982910157,0|0,3:2|0:0,0:0:0:0:
156,287,361049,2,0,P|126:289|90:274,1,55.9999982910157,0|0,3:2|0:0,0:0:0:0:
241,355,361221,1,8,0:2:0:0:
382,284,361392,1,2,0:0:0:0:
404,258,361478,1,2,0:0:0:0:
407,224,361563,1,2,0:0:0:0:
274,28,361735,2,0,L|295:160,1,111.999996582031,8|2,0:2|0:0,0:0:0:0:
84,267,362078,5,0,3:2:0:0:
120,240,362163,1,0,3:2:0:0:
162,228,362249,2,0,P|201:222|236:244,1,55.9999982910157,0|0,3:2|0:0,0:0:0:0:
337,318,362421,2,0,P|309:324|283:317,1,55.9999982910157,0|0,3:2|0:0,0:0:0:0:
441,247,362592,2,0,L|451:160,1,55.9999982910157,8|0,0:2|0:0,0:0:0:0:
404,126,362763,2,0,L|391:71,2,55.9999982910157,2|2|2,0:0|0:0|0:0,0:0:0:0:
283,317,363106,1,8,0:2:0:0:
153,136,363278,1,2,0:0:0:0:
161,168,363363,1,2,0:0:0:0:
154,201,363449,1,2,0:0:0:0:
129,223,363535,1,2,0:0:0:0:
96,235,363621,6,0,P|74:264|77:301,1,55.9999982910157,0|0,3:2|0:0,0:0:0:0:
240,257,363792,2,0,P|242:227|228:203,1,55.9999982910157,0|0,3:2|0:0,0:0:0:0:
156,350,363963,1,8,0:2:0:0:
446,285,364135,1,2,0:0:0:0:
420,262,364221,1,2,0:0:0:0:
388,250,364306,1,2,0:0:0:0:
354,252,364392,1,2,0:0:0:0:
324,268,364478,2,0,L|316:203,1,55.9999982910157,8|0,0:2|0:0,0:0:0:0:
277,143,364649,1,2,0:0:0:0:
280,109,364735,1,2,0:0:0:0:
286,75,364821,1,2,0:0:0:0:
42,198,364992,6,0,P|79:212|117:204,1,55.9999982910157,0|0,3:2|0:0,0:0:0:0:
194,117,365163,2,0,P|164:114|138:131,1,55.9999982910157,0|0,3:2|0:0,0:0:0:0:
269,218,365335,1,8,0:2:0:0:
371,61,365506,1,2,0:0:0:0:
364,94,365592,1,2,0:0:0:0:
356,126,365678,1,2,0:0:0:0:
464,353,365849,1,8,0:2:0:0:
389,234,366021,2,0,P|391:271|408:304,1,55.9999982910157,2|2,0:0|0:0,0:0:0:0:
437,151,366192,2,0,P|463:145|500:158,1,55.9999982910157,2|2,0:0|0:0,0:0:0:0:
313,208,366363,6,0,P|281:209|250:193,1,55.9999982910157,0|0,3:2|0:0,0:0:0:0:
166,65,366535,2,0,L|186:133,1,55.9999982910157,0|0,3:2|0:0,0:0:0:0:
150,321,366706,2,0,L|171:199,1,111.999996582031,8|2,0:2|0:0,0:0:0:0:
138,225,366963,1,2,0:0:0:0:
108,241,367049,1,2,0:0:0:0:
315,300,367221,6,0,L|262:294,1,40,8|0,0:2|0:0,0:0:0:0:
377,189,367392,6,0,L|388:247,1,47.9999985351563,0|0,3:2|0:0,0:0:0:0:
288,94,367564,6,0,P|287:63|302:32,1,55.9999982910157,8|0,0:2|0:0,0:0:0:0:
254,186,367735,6,0,L|184:193,1,60.0000022888184,0|0,3:2|0:0,0:0:0:0:
36,142,367906,2,0,P|73:138|105:158,1,60.0000022888184,0|0,3:2|0:0,0:0:0:0:
196,270,368078,1,8,0:2:0:0:
41,336,368249,1,2,0:0:0:0:
32,301,368335,1,2,0:0:0:0:
45,267,368421,1,2,0:0:0:0:
238,354,368592,1,8,0:2:0:0:
372,226,368763,2,0,L|359:154,2,60.0000022888184,2|2|2,0:0|0:0|0:0,0:0:0:0:
184,100,369106,6,0,P|215:97|258:118,1,60.0000022888184,0|0,3:2|0:0,0:0:0:0:
102,204,369278,2,0,L|96:126,1,60.0000022888184,0|0,3:2|0:0,0:0:0:0:
179,297,369449,1,8,0:2:0:0:
372,226,369621,1,2,0:0:0:0:
338,213,369706,1,2,0:0:0:0:
302,218,369792,1,2,0:0:0:0:
94,345,369963,1,8,0:2:0:0:
284,284,370135,1,2,0:0:0:0:
305,254,370221,1,2,0:0:0:0:
302,218,370306,1,2,0:0:0:0:
285,186,370392,1,2,0:0:0:0:
260,159,370478,6,0,P|251:127|263:82,1,60.0000022888184,0|0,3:2|0:0,0:0:0:0:
385,103,370649,2,0,P|355:124|326:126,1,60.0000022888184,0|0,3:2|0:0,0:0:0:0:
105,46,370821,2,0,P|174:23|222:51,1,120.000004577637,8|2,0:2|0:0,0:0:0:0:
234,71,371078,1,2,0:0:0:0:
254,100,371163,1,2,0:0:0:0:
37,231,371335,1,8,0:2:0:0:
154,348,371506,1,2,0:0:0:0:
171,316,371592,1,2,0:0:0:0:
169,279,371678,1,2,0:0:0:0:
152,247,371763,1,2,0:0:0:0:
125,222,371849,5,0,3:2:0:0:
356,335,372021,1,0,3:2:0:0:
231,24,372192,1,8,0:2:0:0:
169,279,372363,1,0,3:2:0:0:
399,73,372535,5,0,3:2:0:0:
121,142,372706,1,8,0:2:0:0:
258,339,372878,1,0,3:2:0:0:
137,49,373049,1,8,0:2:0:0:
32,302,373221,6,0,L|100:313,1,60.0000022888184,0|0,3:2|0:0,0:0:0:0:
225,271,373392,2,0,P|189:268|160:288,1,60.0000022888184,0|0,3:2|0:0,0:0:0:0:
337,348,373563,1,8,0:2:0:0:
324,167,373735,1,2,0:0:0:0:
308,199,373821,1,2,0:0:0:0:
315,234,373906,1,2,0:0:0:0:
452,53,374078,1,8,0:2:0:0:
324,167,374249,1,2,0:0:0:0:
290,181,374335,1,2,0:0:0:0:
255,171,374421,1,2,0:0:0:0:
231,144,374506,1,2,0:0:0:0:
231,107,374592,6,0,L|245:38,1,60.0000022888184,0|0,3:2|0:0,0:0:0:0:
162,197,374763,2,0,L|148:128,1,60.0000022888184,0|0,3:2|0:0,0:0:0:0:
229,279,374935,1,8,0:2:0:0:
472,262,375106,1,2,0:0:0:0:
445,237,375192,1,2,0:0:0:0:
409,233,375278,2,0,L|345:242,1,60.0000022888184,2|2,0:0|0:0,0:0:0:0:
283,216,375449,1,8,0:2:0:0:
376,74,375621,2,0,L|363:148,1,60.0000022888184,2|2,0:0|0:0,0:0:0:0:
274,27,375792,2,0,L|286:104,1,60.0000022888184,2|2,0:0|0:0,0:0:0:0:
168,167,375963,6,0,P|194:151|238:151,1,60.0000022888184,0|0,3:2|0:0,0:0:0:0:
101,243,376135,2,0,P|71:236|41:207,1,60.0000022888184,0|0,3:2|0:0,0:0:0:0:
170,328,376306,1,8,0:2:0:0:
346,278,376478,1,2,0:0:0:0:
363,247,376563,1,2,0:0:0:0:
364,210,376649,2,0,L|354:133,1,60.0000022888184,2|2,0:0|0:0,0:0:0:0:
301,95,376821,1,8,0:2:0:0:
473,44,376992,1,2,0:0:0:0:
464,79,377078,1,2,0:0:0:0:
455,113,377163,1,2,0:0:0:0:
447,148,377249,1,2,0:0:0:0:
438,183,377335,6,0,P|467:192|508:186,1,60.0000022888184,0|0,3:2|0:0,0:0:0:0:
346,278,377506,2,0,P|375:279|404:271,1,60.0000022888184,0|0,3:2|0:0,0:0:0:0:
251,332,377678,2,0,P|205:346|119:326,1,120.000004577637,8|2,0:2|0:0,0:0:0:0:
105,314,377935,1,2,0:0:0:0:
80,287,378021,2,0,L|73:194,1,60.0000022888184,2|2,0:0|0:0,0:0:0:0:
120,164,378192,5,8,0:2:0:0:
347,83,378363,1,0,3:2:0:0:
127,177,378535,1,8,0:2:0:0:
364,82,378706,6,0,P|368:119|346:154,1,60.0000022888184,0|0,3:2|0:0,0:0:0:0:
235,231,378878,2,0,L|304:219,1,60.0000022888184,0|0,3:2|0:0,0:0:0:0:
147,300,379049,1,8,0:2:0:0:
109,109,379221,1,2,0:0:0:0:
116,143,379306,1,2,0:0:0:0:
127,177,379392,1,2,0:0:0:0:
297,24,379563,1,8,0:2:0:0:
368,148,379735,2,0,L|354:67,1,60.0000022888184,2|2,0:0|0:0,0:0:0:0:
413,225,379906,2,0,P|414:265|400:290,1,60.0000022888184,2|2,0:0|0:0,0:0:0:0:
267,312,380078,6,0,P|306:307|339:326,1,60.0000022888184,0|0,3:2|0:0,0:0:0:0:
185,354,380249,2,0,L|111:345,1,60.0000022888184,0|0,3:2|0:0,0:0:0:0:
141,178,380421,2,0,P|180:224|119:260,1,120.000004577637,8|2,0:2|0:0,0:0:0:0:
112,269,380678,1,2,0:0:0:0:
76,268,380763,1,2,0:0:0:0:
76,80,380935,1,8,0:2:0:0:
272,208,381106,1,2,0:0:0:0:
288,175,381192,1,2,0:0:0:0:
285,138,381278,1,2,0:0:0:0:
273,104,381363,1,2,0:0:0:0:
243,83,381449,5,0,3:2:0:0:
204,282,381621,1,0,3:2:0:0:
494,112,381792,2,0,P|436:95|382:130,1,120.000004577637,8|2,0:2|0:0,0:0:0:0:
365,152,382049,1,2,0:0:0:0:
352,186,382135,1,2,0:0:0:0:
448,308,382306,1,8,0:2:0:0:
287,366,382478,1,2,0:0:0:0:
295,331,382563,1,2,0:0:0:0:
306,296,382649,1,2,0:0:0:0:
316,261,382735,5,2,0:0:0:0:
350,228,384192,6,0,P|311:222|276:244,1,55.9999982910157,0|0,3:2|0:0,0:0:0:0:
175,318,384363,2,0,P|203:324|229:317,1,55.9999982910157,0|0,3:2|0:0,0:0:0:0:
79,266,384535,2,0,P|69:232|77:202,1,55.9999982910157,8|0,0:2|0:0,0:0:0:0:
107,128,384706,2,0,P|115:111|107:63,2,55.9999982910157,2|2|2,0:0|0:0|0:0,0:0:0:0:
229,317,385049,1,8,0:2:0:0:
359,136,385221,1,2,0:0:0:0:
351,168,385306,1,2,0:0:0:0:
358,201,385392,1,2,0:0:0:0:
383,223,385478,1,2,0:0:0:0:
416,235,385563,6,0,P|438:264|435:301,1,55.9999982910157,0|0,3:2|0:0,0:0:0:0:
274,252,385735,2,0,P|272:222|286:198,1,55.9999982910157,0|0,3:2|0:0,0:0:0:0:
356,350,385906,1,8,0:2:0:0:
66,285,386078,1,2,0:0:0:0:
92,262,386163,1,2,0:0:0:0:
124,250,386249,1,2,0:0:0:0:
158,252,386335,1,2,0:0:0:0:
188,268,386421,2,0,L|196:203,1,55.9999982910157,8|0,0:2|0:0,0:0:0:0:
235,143,386592,1,2,0:0:0:0:
232,109,386678,1,2,0:0:0:0:
226,75,386763,1,2,0:0:0:0:
470,198,386935,6,0,P|433:212|395:204,1,55.9999982910157,0|0,3:2|0:0,0:0:0:0:
318,117,387106,2,0,P|348:114|374:131,1,55.9999982910157,0|0,3:2|0:0,0:0:0:0:
243,218,387278,1,8,0:2:0:0:
141,61,387449,1,2,0:0:0:0:
148,94,387535,1,2,0:0:0:0:
156,126,387621,1,2,0:0:0:0:
48,353,387792,1,8,0:2:0:0:
123,234,387963,2,0,P|121:271|104:304,1,55.9999982910157,2|2,0:0|0:0,0:0:0:0:
75,151,388135,2,0,P|49:145|12:158,1,55.9999982910157,2|2,0:0|0:0,0:0:0:0:
199,208,388306,6,0,P|231:209|262:193,1,55.9999982910157,0|0,3:2|0:0,0:0:0:0:
346,65,388478,2,0,L|326:133,1,55.9999982910157,0|0,3:2|0:0,0:0:0:0:
367,330,388649,2,0,L|346:208,1,111.999996582031,8|2,0:2|0:0,0:0:0:0:
365,182,388906,1,2,0:0:0:0:
396,164,388992,1,2,0:0:0:0:
197,300,389164,6,0,L|249:293,1,40,8|0,0:2|0:0,0:0:0:0:
135,189,389335,6,0,L|123:248,1,47.9999985351563,0|0,3:2|0:0,0:0:0:0:
223,97,389507,6,0,P|225:63|206:33,1,51.999997619629,8|0,0:0|0:0,0:0:0:0:
258,186,389678,6,0,L|328:193,1,60.0000022888184,0|0,3:2|0:0,0:0:0:0:
476,142,389849,2,0,P|439:138|407:158,1,60.0000022888184,0|0,3:2|0:0,0:0:0:0:
316,270,390021,1,8,0:2:0:0:
471,336,390192,1,2,0:0:0:0:
480,301,390278,1,2,0:0:0:0:
467,267,390363,1,2,0:0:0:0:
274,354,390535,1,8,0:2:0:0:
140,226,390706,2,0,L|153:154,2,60.0000022888184,2|2|2,0:0|0:0|0:0,0:0:0:0:
328,100,391049,6,0,P|297:97|254:118,1,60.0000022888184,0|0,3:2|0:0,0:0:0:0:
410,204,391221,2,0,L|416:126,1,60.0000022888184,0|0,3:2|0:0,0:0:0:0:
333,297,391392,1,8,0:2:0:0:
140,226,391563,1,2,0:0:0:0:
174,213,391649,1,2,0:0:0:0:
210,218,391735,1,2,0:0:0:0:
418,345,391906,1,8,0:2:0:0:
228,284,392078,1,2,0:0:0:0:
207,254,392163,1,2,0:0:0:0:
210,218,392249,1,2,0:0:0:0:
227,186,392335,1,2,0:0:0:0:
252,159,392421,6,0,P|261:127|249:82,1,60.0000022888184,0|0,3:2|0:0,0:0:0:0:
127,103,392592,2,0,P|157:124|186:126,1,60.0000022888184,0|0,3:2|0:0,0:0:0:0:
407,46,392763,2,0,P|338:23|290:51,1,120.000004577637,8|2,0:2|0:0,0:0:0:0:
278,71,393021,1,2,0:0:0:0:
258,100,393106,1,2,0:0:0:0:
475,231,393278,1,8,0:2:0:0:
358,348,393449,1,2,0:0:0:0:
341,316,393535,1,2,0:0:0:0:
343,279,393621,1,2,0:0:0:0:
360,247,393706,1,2,0:0:0:0:
387,222,393792,5,0,3:2:0:0:
156,335,393963,1,0,3:2:0:0:
281,24,394135,1,8,0:2:0:0:
343,279,394306,5,0,3:2:0:0:
113,73,394478,1,0,3:2:0:0:
391,142,394649,1,8,0:2:0:0:
254,339,394821,5,0,3:2:0:0:
375,49,394992,1,8,0:2:0:0:
480,302,395163,6,0,L|412:313,1,60.0000022888184,0|0,3:2|0:0,0:0:0:0:
287,271,395335,2,0,P|323:268|352:288,1,60.0000022888184,0|0,3:2|0:0,0:0:0:0:
175,348,395506,1,8,0:2:0:0:
188,167,395678,1,2,0:2:0:0:
204,199,395763,1,2,0:2:0:0:
197,234,395849,1,2,0:2:0:0:
60,53,396021,1,8,0:2:0:0:
188,167,396192,1,2,0:2:0:0:
222,181,396278,1,2,0:2:0:0:
257,171,396363,1,2,0:2:0:0:
281,144,396449,1,2,0:2:0:0:
281,107,396535,6,0,L|267:38,1,60.0000022888184,0|0,3:2|0:0,0:0:0:0:
350,197,396706,2,0,L|364:128,1,60.0000022888184,0|0,3:2|0:0,0:0:0:0:
283,279,396878,1,8,0:2:0:0:
40,262,397049,1,2,0:0:0:0:
67,237,397135,1,2,0:0:0:0:
103,233,397221,2,0,L|167:242,1,60.0000022888184,2|2,0:0|0:0,0:0:0:0:
229,216,397392,1,8,0:2:0:0:
136,74,397563,2,0,L|149:148,1,60.0000022888184,2|2,0:0|0:0,0:0:0:0:
238,27,397735,2,0,L|226:104,1,60.0000022888184,2|2,0:0|0:0,0:0:0:0:
344,167,397906,6,0,P|318:151|274:151,1,60.0000022888184,0|0,3:2|0:0,0:0:0:0:
411,243,398078,2,0,P|441:236|471:207,1,60.0000022888184,0|0,3:2|0:0,0:0:0:0:
342,328,398249,1,8,0:2:0:0:
166,278,398421,1,2,0:0:0:0:
149,247,398506,1,2,0:0:0:0:
148,210,398592,2,0,L|158:133,1,60.0000022888184,2|2,0:0|0:0,0:0:0:0:
211,95,398763,1,8,0:2:0:0:
39,44,398935,1,2,0:0:0:0:
48,79,399021,1,2,0:0:0:0:
57,113,399106,1,2,0:0:0:0:
65,148,399192,1,2,0:0:0:0:
74,183,399278,6,0,L|4:186,1,55.9999982910157,0|0,3:2|0:0,0:0:0:0:
166,278,399449,2,0,L|109:293,1,55.9999982910157,0|0,3:2|0:0,0:0:0:0:
276,332,399621,2,0,L|406:339,1,111.999996582031,8|2,0:2|0:0,0:0:0:0:
419,325,399878,1,2,0:0:0:0:
407,293,399963,2,0,P|403:265|413:226,1,55.9999982910157,2|2,0:0|0:0,0:0:0:0:
455,180,400135,5,8,0:2:0:0:
198,104,400306,1,0,3:2:0:0:
402,41,400478,1,8,0:2:0:0:
125,146,400649,6,0,P|115:117|120:88,1,60.0000022888184,0|0,3:2|0:0,0:0:0:0:
103,238,400821,2,0,L|43:248,1,60.0000022888184,0|0,3:2|0:0,0:0:0:0:
200,322,400992,1,8,0:2:0:0:
343,130,401163,1,2,0:0:0:0:
336,164,401249,1,2,0:0:0:0:
325,198,401335,1,2,0:0:0:0:
215,24,401506,1,8,0:2:0:0:
144,148,401678,2,0,L|158:67,1,60.0000022888184,2|2,0:2|0:2,0:0:0:0:
99,225,401849,2,0,P|98:265|112:290,1,60.0000022888184,2|2,0:2|0:2,0:0:0:0:
245,312,402021,6,0,P|206:307|173:326,1,55.9999982910157,0|0,3:2|0:0,0:0:0:0:
327,354,402192,2,0,L|401:345,1,55.9999982910157,0|0,3:2|0:0,0:0:0:0:
340,158,402363,2,0,P|332:224|393:260,1,111.999996582031,8|2,0:2|0:0,0:0:0:0:
400,269,402621,1,2,0:0:0:0:
436,268,402706,1,2,0:0:0:0:
436,80,402878,1,8,0:2:0:0:
240,208,403049,1,2,0:0:0:0:
224,175,403135,1,2,0:0:0:0:
227,138,403221,1,2,0:0:0:0:
239,104,403306,1,2,0:0:0:0:
269,83,403392,5,0,3:2:0:0:
308,282,403563,1,0,3:2:0:0:
18,112,403735,2,0,P|76:95|130:130,1,120.000004577637,8|2,0:2|0:0,0:0:0:0:
147,152,403992,1,2,0:0:0:0:
160,186,404078,1,2,0:0:0:0:
21,336,404249,1,8,0:2:0:0:
225,366,404421,1,2,0:0:0:0:
217,331,404506,1,2,0:0:0:0:
207,296,404592,1,2,0:0:0:0:
334,190,404764,6,0,P|298:199|265:193,1,55.9999982910157,0|0,3:2|0:0,0:0:0:0:
405,138,404935,2,0,L|482:156,1,55.9999982910157,0|0,3:2|0:0,0:0:0:0:
422,340,405106,2,0,L|406:211,1,111.999996582031,8|2,0:2|0:0,0:0:0:0:
390,257,405363,1,2,0:0:0:0:
372,285,405449,1,2,0:0:0:0:
261,46,405621,2,0,L|279:164,1,111.999996582031,8|2,0:2|0:0,0:0:0:0:
479,55,405963,5,0,3:2:0:0:
439,75,406049,1,0,3:2:0:0:
396,69,406135,2,0,L|411:143,1,55.9999982910157,0|0,3:2|0:0,0:0:0:0:
340,235,406306,2,0,L|355:170,1,55.9999982910157,0|0,3:2|0:0,0:0:0:0:
487,324,406478,2,0,L|358:310,1,120.000004577637,8|2,0:2|0:0,0:0:0:0:
333,318,406735,1,2,0:0:0:0:
300,332,406821,1,2,0:0:0:0:
80,252,406992,1,8,0:2:0:0:
213,29,407163,1,2,0:0:0:0:
231,60,407249,1,2,0:0:0:0:
235,95,407335,1,2,0:0:0:0:
229,130,407421,1,2,0:0:0:0:
209,159,407507,6,0,P|176:167|133:151,1,55.9999982910157,0|0,3:2|0:0,0:0:0:0:
300,219,407678,2,0,P|332:207|370:212,1,55.9999982910157,0|0,3:2|0:0,0:0:0:0:
223,325,407849,1,8,0:2:0:0:
43,259,408021,1,2,0:0:0:0:
73,238,408106,1,2,0:0:0:0:
109,232,408192,1,2,0:0:0:0:
141,249,408278,1,2,0:0:0:0:
160,279,408363,1,8,0:2:0:0:
30,166,408535,2,0,L|45:100,1,55.9999982910157,2|2,0:0|0:0,0:0:0:0:
164,88,408706,2,0,L|145:19,1,55.9999982910157,2|2,0:0|0:0,0:0:0:0:
250,158,408878,5,0,3:2:0:0:
212,372,409049,1,0,3:2:0:0:
435,246,409221,2,0,P|379:229|323:276,1,111.999996582031,8|2,0:2|0:0,0:0:0:0:
316,293,409478,1,2,0:0:0:0:
312,328,409563,1,2,0:0:0:0:
488,192,409735,1,8,0:2:0:0:
341,83,409906,1,2,0:0:0:0:
310,100,409992,1,2,0:0:0:0:
276,109,410078,2,0,L|213:99,1,55.9999982910157,2|2,0:0|0:0,0:0:0:0:
92,36,410249,6,0,P|130:44|150:62,1,55.9999982910157,0|0,3:2|0:0,0:0:0:0:
53,186,410421,2,0,P|37:155|38:119,1,55.9999982910157,0|0,3:2|0:0,0:0:0:0:
200,191,410592,2,0,L|180:318,1,111.999996582031,8|2,0:2|0:0,0:0:0:0:
162,340,410849,1,2,0:0:0:0:
145,370,410935,1,2,0:0:0:0:
113,123,411107,6,0,L|164:135,1,40,8|0,0:2|0:0,0:0:0:0:
319,227,411278,6,0,L|245:234,1,47.9999985351563,0|0,3:2|0:0,0:0:0:0:
428,103,411449,6,0,L|408:165,1,55.9999982910157,8|0,0:2|0:0,0:0:0:0:
396,313,411621,6,0,P|399:280|380:234,1,60.0000022888184,0|0,3:2|0:0,0:0:0:0:
485,235,411792,2,0,P|498:198|492:166,1,60.0000022888184,0|0,3:2|0:0,0:0:0:0:
409,25,411963,1,8,0:2:0:0:
199,109,412135,1,2,0:0:0:0:
227,132,412221,1,2,0:0:0:0:
261,146,412306,2,0,P|300:147|324:137,1,60.0000022888184,2|2,0:0|0:0,0:0:0:0:
159,229,412478,1,8,0:2:0:0:
293,355,412649,1,2,0:0:0:0:
300,319,412735,1,2,0:0:0:0:
304,283,412821,1,2,0:0:0:0:
310,247,412906,1,2,0:0:0:0:
315,211,412992,6,0,P|350:197|380:199,1,60.0000022888184,0|0,3:2|0:0,0:0:0:0:
492,244,413163,2,0,P|460:249|425:235,1,60.0000022888184,0|0,3:2|0:0,0:0:0:0:
281,122,413335,2,0,P|325:67|382:103,1,120.000004577637,8|2,0:2|0:0,0:0:0:0:
396,100,413592,1,2,0:0:0:0:
414,131,413678,1,2,0:0:0:0:
209,233,413849,1,8,0:2:0:0:
116,110,414021,2,0,L|129:35,2,60.0000022888184,2|2|2,0:0|0:0|0:0,0:0:0:0:
19,316,414363,5,0,3:2:0:0:
32,108,414535,1,0,3:2:0:0:
144,340,414706,2,0,L|272:329,1,120.000004577637,8|2,0:2|0:0,0:0:0:0:
298,322,414963,1,2,0:0:0:0:
330,307,415049,1,2,0:0:0:0:
214,78,415221,1,8,0:2:0:0:
409,46,415392,2,0,L|345:60,1,60.0000022888184,2|2,0:0|0:0,0:0:0:0:
493,136,415563,2,0,L|416:121,1,60.0000022888184,2|2,0:0|0:0,0:0:0:0:
302,218,415735,6,0,P|296:188|310:153,1,40,0|0,3:2|0:0,0:0:0:0:
423,251,415907,6,0,L|371:239,1,44.0000013427735,0|0,3:2|0:0,0:0:0:0:
299,335,416078,6,0,P|313:313|312:275,1,47.9999985351563,8|0,0:2|0:0,0:0:0:0:
174,339,416249,6,0,P|199:353|229:358,1,51.999997619629,0|0,3:2|0:0,0:0:0:0:
118,215,416421,6,0,L|124:280,1,55.9999982910157,0|0,3:2|0:0,0:0:0:0:
173,142,416592,6,0,L|184:83,1,60.0000022888184,8|0,0:2|0:0,0:0:0:0:
35,129,416764,6,0,P|68:125|102:147,1,64,0|0,3:2|0:0,0:0:0:0:
272,209,416935,6,0,P|236:223|193:215,1,68.0000012969971,8|0,0:2|0:0,0:0:0:0:
344,95,417107,6,0,P|355:131|335:161,1,60.0000022888184,0|0,3:2|0:0,0:0:0:0:
353,299,417278,2,0,L|341:222,1,60.0000022888184,0|0,3:2|0:0,0:0:0:0:
428,355,417449,1,8,0:2:0:0:
184,288,417621,1,2,0:0:0:0:
220,295,417706,1,2,0:0:0:0:
255,302,417792,1,2,0:0:0:0:
45,369,417963,1,8,0:2:0:0:
96,209,418135,2,0,P|111:246|103:281,1,60.0000022888184,2|2,0:0|0:0,0:0:0:0:
51,111,418306,2,0,P|33:141|31:180,1,60.0000022888184,2|2,0:0|0:0,0:0:0:0:
183,75,418478,6,0,L|108:80,1,60.0000022888184,0|0,3:2|0:0,0:0:0:0:
254,137,418649,2,0,L|347:123,1,60.0000022888184,0|0,3:2|0:0,0:0:0:0:
454,58,418821,2,0,P|394:42|336:71,1,120.000004577637,8|2,0:2|0:0,0:0:0:0:
326,95,419078,1,2,0:0:0:0:
314,128,419163,1,2,0:0:0:0:
436,347,419335,1,8,0:2:0:0:
478,143,419506,1,2,0:0:0:0:
486,177,419592,1,2,0:0:0:0:
491,212,419678,1,2,0:0:0:0:
286,248,419849,6,0,P|314:236|357:240,1,60.0000022888184,0|0,3:2|0:0,0:0:0:0:
237,322,420021,2,0,P|201:326|170:315,1,60.0000022888184,0|0,3:2|0:0,0:0:0:0:
152,120,420192,2,0,L|137:249,1,120.000004577637,8|2,0:2|0:0,0:0:0:0:
122,271,420449,1,2,0:0:0:0:
105,302,420535,1,2,0:0:0:0:
61,45,420706,2,0,P|134:30|199:55,1,120.000004577637,8|2,0:2|0:0,0:0:0:0:
206,62,420963,1,2,0:0:0:0:
233,85,421049,1,2,0:0:0:0:
445,51,421221,5,0,3:2:0:0:
261,169,421392,1,0,3:2:0:0:
443,355,421563,2,0,B|456:313|456:313|439:226,1,120.000004577637,8|2,0:2|0:0,0:0:0:0:
426,212,421821,1,2,0:0:0:0:
410,186,421906,1,2,0:0:0:0:
187,340,422078,6,0,L|194:297,1,40,8|0,0:2|0:0,0:0:0:0:
129,187,422249,6,0,P|126:215|136:242,1,47.9999985351563,0|0,3:2|0:0,0:0:0:0:
208,120,422421,6,0,L|205:55,1,55.9999982910157,8|0,0:2|0:0,0:0:0:0:
258,227,422592,6,0,P|287:240|320:232,1,55.9999982910157,0|0,3:2|0:0,0:0:0:0:
445,201,422763,2,0,P|413:188|377:195,1,55.9999982910157,0|0,3:2|0:0,0:0:0:0:
493,312,422935,1,8,0:2:0:0:
309,167,423106,1,2,0:0:0:0:
297,136,423192,1,2,0:0:0:0:
301,102,423278,1,2,0:0:0:0:
220,316,423449,1,8,0:2:0:0:
47,245,423621,1,2,0:0:0:0:
78,230,423706,1,2,0:0:0:0:
112,226,423792,1,2,0:0:0:0:
145,233,423878,1,2,0:0:0:0:
176,247,423963,6,0,L|193:173,1,55.9999982910157,0|0,3:2|0:0,0:0:0:0:
153,41,424135,2,0,L|137:120,1,55.9999982910157,0|0,3:2|0:0,0:0:0:0:
265,39,424306,1,8,0:2:0:0:
429,152,424478,1,2,0:0:0:0:
398,164,424563,1,2,0:0:0:0:
366,171,424649,2,0,L|311:165,1,55.9999982910157,2|2,0:0|0:0,0:0:0:0:
176,247,424821,1,8,0:2:0:0:
307,358,424992,1,2,0:0:0:0:
318,326,425078,1,2,0:0:0:0:
318,292,425163,1,2,0:0:0:0:
147,354,425335,6,0,L|225:347,1,55.9999982910157,0|0,3:2|0:0,0:0:0:0:
374,283,425506,2,0,L|301:294,1,55.9999982910157,0|0,3:2|0:0,0:0:0:0:
456,349,425678,1,8,0:2:0:0:
431,144,425849,2,0,P|417:176|418:210,2,55.9999982910157,2|2|2,0:0|0:0|0:0,0:0:0:0:
247,313,426192,1,8,0:2:0:0:
296,118,426363,1,2,0:0:0:0:
312,148,426449,1,2,0:0:0:0:
314,181,426535,1,2,0:0:0:0:
298,210,426621,1,2,0:0:0:0:
272,230,426706,6,0,P|240:221|199:226,1,55.9999982910157,0|0,3:2|0:0,0:0:0:0:
360,292,426878,2,0,P|390:294|426:279,1,55.9999982910157,0|0,3:2|0:0,0:0:0:0:
275,360,427049,1,8,0:2:0:0:
134,289,427221,1,2,0:0:0:0:
112,263,427306,1,2,0:0:0:0:
109,229,427392,1,2,0:0:0:0:
242,33,427563,2,0,B|204:102|262:91|221:165,1,111.999996582031,8|2,0:2|0:0,0:0:0:0:
96,313,427906,5,0,3:2:0:0:
134,289,427992,1,0,3:2:0:0:
176,287,428078,2,0,L|256:297,1,60.0000022888184,0|0,3:2|0:0,0:0:0:0:
339,237,428470,2,0,L|197:218,1,120.000004577637,2|0,0:0|0:0,0:0:0:0:
220,221,429155,2,0,P|209:191|219:158,2,60.0000022888184,2|0|0,0:0|0:0|0:0,0:0:0:0:
271,102,429670,2,0,L|263:42,2,60.0000022888184,0|2|0,0:0|0:0|0:0,0:0:0:0:
356,178,430184,2,0,L|361:109,1,60.0000022888184,0|0,0:0|0:0,0:0:0:0:
288,265,430527,1,2,0:0:0:0:
288,265,430870,6,0,P|258:272|225:269,1,60.0000022888184,0|0,0:0|0:0,0:0:0:0:
130,232,431212,1,2,0:0:0:0:
176,161,431384,2,0,L|167:85,1,60.0000022888184,0|0,0:0|0:0,0:0:0:0:
236,27,431727,1,0,0:0:0:0:
348,89,431898,2,0,P|320:97|278:86,2,60.0000022888184,2|0|0,0:0|0:0|0:0,0:0:0:0:
258,213,432413,2,0,L|244:147,2,60.0000022888184,0|2|0,0:0|0:0|0:0,0:0:0:0:
337,289,432927,2,0,L|345:213,1,60.0000022888184,0|0,0:0|0:0,0:0:0:0:
264,335,433270,2,0,B|205:356|216:322|158:333,1,90.0000034332277,2|0,0:0|0:0,0:0:0:0:
142,355,433612,6,0,L|131:280,1,60.0000022888184,0|0,0:0|0:0,0:0:0:0:
84,180,433955,1,2,0:0:0:0:
136,122,434127,2,0,L|149:46,1,60.0000022888184,0|0,0:0|0:0,0:0:0:0:
52,100,434470,1,0,0:0:0:0:
175,211,434641,6,0,L|247:205,2,60.0000022888184,2|0|0,0:0|0:0|0:0,0:0:0:0:
359,266,435155,2,0,L|285:272,1,60.0000022888184,0|2,0:0|0:0,0:0:0:0:
238,324,435498,1,0,0:0:0:0:
430,289,435670,2,0,P|434:254|412:218,2,60.0000022888184,0|0|2,0:0|0:0|0:0,0:0:0:0:
175,211,436355,5,0,0:0:0:0:
256,59,436698,1,2,0:0:0:0:
315,173,436870,2,0,P|331:139|321:103,2,60.0000022888184,0|0|0,0:0|0:0|0:0,0:0:0:0:
185,216,437384,2,0,L|254:224,1,60.0000022888184,2|0,0:0|0:0,0:0:0:0:
311,280,437727,1,0,0:0:0:0:
398,140,437898,2,0,P|385:174|392:206,2,60.0000022888184,0|2|0,0:0|0:0|0:0,0:0:0:0:
419,322,438412,2,0,L|411:314|426:238,1,60.0000022888184,0|0,0:0|0:0,0:0:0:0:
477,203,438755,1,2,0:0:0:0:
419,322,438927,1,0,0:0:0:0:
263,249,439098,6,0,P|301:246|333:261,1,60.0000022888184,0|0,0:0|0:0,0:0:0:0:
196,297,439441,2,0,L|123:299,2,60.0000022888184,2|0|0,0:0|0:0|0:0,0:0:0:0:
71,244,439955,1,0,0:0:0:0:
26,355,440127,2,0,L|13:296,1,60.0000022888184,2|0,0:0|0:0,0:0:0:0:
135,195,440469,1,0,0:0:0:0:
103,66,440641,2,0,L|81:138,1,60.0000022888184,0|2,0:0|0:0,0:0:0:0:
209,226,440984,5,0,0:0:0:0:
262,161,441155,2,0,L|251:78,2,60.0000022888184,0|0|2,0:0|0:0|0:0,0:0:0:0:
256,159,441841,5,0,0:0:0:0:
458,343,442184,1,2,0:0:0:0:
394,277,442355,2,0,L|400:208,2,60.0000022888184,0|0|0,0:0|0:0|0:0,0:0:0:0:
326,188,442870,2,0,L|306:106,1,60.0000022888184,2|0,0:0|0:0,0:0:0:0:
264,309,443212,6,0,L|279:241,2,60.0000022888184,0|0|2,0:0|0:0|0:0,0:0:0:0:
216,203,443727,1,0,0:0:0:0:
150,281,443898,2,0,L|140:202,1,60.0000022888184,0|0,0:0|0:0,0:0:0:0:
97,159,444241,1,2,0:0:0:0:
91,153,444584,6,0,L|96:87,1,60.0000022888184,0|0,0:0|0:0,0:0:0:0:
164,217,444927,2,0,P|201:222|232:214,1,60.0000022888184,2|0,0:0|0:0,0:0:0:0:
336,140,445270,2,0,P|299:138|262:159,2,60.0000022888184,0|0|2,0:0|0:0|0:0,0:0:0:0:
408,194,445784,2,0,P|442:193|476:172,2,60.0000022888184,0|0|0,0:0|0:0|0:0,0:0:0:0:
342,304,446298,2,0,L|328:222,2,60.0000022888184,2|0|0,0:0|0:0|0:0,0:0:0:0:
416,352,446812,1,0,0:0:0:0:
253,248,446984,1,2,0:0:0:0:
44,327,447327,5,0,0:0:0:0:
163,100,447670,2,0,L|174:168,1,60.0000022888184,2|0,0:0|0:0,0:0:0:0:
127,223,448013,2,0,P|108:264|114:294,2,60.0000022888184,0|0|2,0:0|0:0|0:0,0:0:0:0:
244,318,448527,2,0,L|179:330,2,60.0000022888184,0|0|0,0:0|0:0|0:0,0:0:0:0:
356,351,449041,1,2,0:0:0:0:
412,286,449212,1,0,0:0:0:0:
331,190,449384,6,0,L|338:261,1,60.0000022888184,0|0,0:0|0:0,0:0:0:0:
457,77,449727,2,0,P|460:123|427:173,1,90.0000034332277,2|0,0:0|0:0,0:0:0:0:
405,184,450070,5,2,0:0:0:0:
256,192,450155,12,0,455555,0:0:0:0:
