osu file format v14

[General]
AudioFilename: audio.mp3
AudioLeadIn: 0
PreviewTime: 214558
Countdown: 0
SampleSet: Soft
StackLeniency: 0.7
Mode: 0
LetterboxInBreaks: 0
WidescreenStoryboard: 0

[Editor]
Bookmarks: 21763,22605,43336,54122,64909,97268,105527,121369,129628,130807,151201,159796,161987,172774,182718,191145,194347,215920,237493,264459,280639,312998
DistanceSpacing: 0.4
BeatDivisor: 8
GridSize: 32
TimelineZoom: 3.199999

[Metadata]
Title:Escape With the Clouds (V.I.P)
TitleUnicode:Escape With the Clouds (V.I.P)
Artist:Boxplot
ArtistUnicode:Boxplot
Creator:Spy_RO
Version:Freedom
Source:
Tags:871 dnb drum and bass & marathon paramore hayley williams liquicity liquid tones ep edm english electronic spyro
BeatmapID:2778653
BeatmapSetID:1340790

[Difficulty]
HPDrainRate:5
CircleSize:4.2
OverallDifficulty:9
ApproachRate:9.6
SliderMultiplier:1.8
SliderTickRate:0.5

[Events]
//Background and Video events
0,0,"newbg.jpg",0,0
//Break Periods
2,259252,261240
//Storyboard Layer 0 (Background)
//Storyboard Layer 1 (Fail)
//Storyboard Layer 2 (Pass)
//Storyboard Layer 3 (Foreground)
//Storyboard Layer 4 (Overlay)
//Storyboard Sound Samples

[TimingPoints]
176,337.078651685393,4,2,1,25,1,0
176,-166.666666666667,4,2,1,25,0,0
5569,-200,4,2,1,25,0,0
10962,-222.222222222222,4,2,1,25,0,0
16355,-250,4,2,1,25,0,0
20400,-250,4,2,1,40,0,0
21749,-166.666666666667,4,2,1,40,0,0
21833,-166.666666666667,4,2,1,5,0,0
21917,-125,4,2,1,40,0,0
22001,-125,4,2,1,5,0,0
22086,-100,4,2,1,40,0,0
22423,-125,4,2,1,40,0,0
22675,-125,4,2,1,5,0,0
22760,-100,4,2,1,40,0,0
23097,-166.666666666667,4,2,1,40,0,0
23181,-166.666666666667,4,2,1,5,0,0
23265,-125,4,2,1,40,0,0
23350,-125,4,2,1,5,0,0
23434,-100,4,2,1,40,0,0
24024,-100,4,2,1,5,0,0
24108,-100,4,2,1,40,0,0
24529,-100,4,2,1,5,0,0
24614,-100,4,2,1,40,0,0
24698,-100,4,2,1,5,0,0
24782,-100,4,2,1,40,0,0
25119,-166.666666666667,4,2,1,40,0,0
25288,-125,4,2,1,40,0,0
25372,-125,4,2,1,5,0,0
25456,-100,4,2,1,40,0,0
25878,-100,4,2,1,5,0,0
25962,-222.222222222221,4,2,1,40,0,0
26046,-222.222222222221,4,2,1,5,0,0
26131,-83.3333333333333,4,2,1,40,0,0
26636,-83.3333333333333,4,2,1,40,0,0
26720,-83.3333333333333,4,2,1,5,0,0
26805,-83.3333333333333,4,2,1,40,0,0
27142,-133.333333333333,4,2,1,40,0,0
27226,-133.333333333333,4,2,1,5,0,0
27310,-133.333333333333,4,2,1,40,0,0
27395,-133.333333333333,4,2,1,5,0,0
27479,-1000,4,2,1,40,0,0
27563,-1000,4,2,1,5,0,0
27647,-1000,4,2,1,40,0,0
27816,-100,4,2,1,40,0,0
27984,-100,4,2,1,40,0,0
28069,-100,4,2,1,5,0,0
28153,-1000,4,2,1,40,0,0
28237,-1000,4,2,1,5,0,0
28322,-1000,4,2,1,40,0,0
28490,-100,4,2,1,40,0,0
28574,-100,4,2,1,5,0,0
28659,-100,4,2,1,40,0,0
28743,-100,4,2,1,5,0,0
28827,-1000,4,2,1,40,0,0
28911,-1000,4,2,1,5,0,0
28996,-1000,4,2,1,40,0,0
29164,-100,4,2,1,40,0,0
29249,-100,4,2,1,5,0,0
29333,-100,4,2,1,40,0,0
29417,-100,4,2,1,5,0,0
29501,-1000,4,2,1,40,0,0
29586,-1000,4,2,1,5,0,0
29670,-1000,4,2,1,40,0,0
29838,-66.6666666666667,4,2,1,40,0,0
29923,-66.6666666666667,4,2,1,5,0,0
30007,-66.6666666666667,4,2,1,40,0,0
30091,-66.6666666666667,4,2,1,5,0,0
30175,-1000,4,2,1,40,0,0
30260,-1000,4,2,1,5,0,0
30344,-1000,4,2,1,40,0,0
30513,-100,4,2,1,40,0,0
30681,-100,4,2,1,40,0,0
30765,-100,4,2,1,5,0,0
30850,-1000,4,2,1,40,0,0
30934,-1000,4,2,1,5,0,0
31018,-1000,4,2,1,40,0,0
31187,-100,4,2,1,40,0,0
31271,-100,4,2,1,5,0,0
31355,-100,4,2,1,40,0,0
31440,-100,4,2,1,5,0,0
31524,-1000,4,2,1,40,0,0
31608,-1000,4,2,1,5,0,0
31692,-1000,4,2,1,40,0,0
32029,-100,4,2,1,40,0,0
32114,-100,4,2,1,5,0,0
32198,-66.6666666666667,4,2,1,40,0,0
32535,-40,4,2,1,40,0,0
32872,-133.333333333333,4,2,1,40,0,0
33462,-133.333333333333,4,2,1,5,0,0
33546,-133.333333333333,4,2,1,40,0,0
33883,-40,4,2,1,40,0,0
34220,-100,4,2,1,40,0,0
34726,-133.333333333333,4,2,1,40,0,0
34810,-133.333333333333,4,2,1,5,0,0
34895,-100,4,2,1,40,0,0
35232,-40,4,2,1,40,0,0
35569,-133.333333333333,4,2,1,40,0,0
36074,-133.333333333333,4,2,1,40,0,0
36159,-133.333333333333,4,2,1,5,0,0
36243,-133.333333333333,4,2,1,40,0,0
36580,-40,4,2,1,40,0,0
36917,-133.333333333333,4,2,1,40,0,0
37591,-50,4,2,1,40,0,0
37844,-50,4,2,1,5,0,0
37928,-66.6666666666667,4,2,1,40,0,0
38013,-66.6666666666667,4,2,1,5,0,0
38097,-66.6666666666667,4,2,1,40,0,0
38181,-66.6666666666667,4,2,1,5,0,0
38265,-66.6666666666667,4,2,1,40,0,0
38350,-66.6666666666667,4,2,1,5,0,0
38434,-66.6666666666667,4,2,1,40,0,0
38518,-66.6666666666667,4,2,1,5,0,0
38602,-66.6666666666667,4,2,1,40,0,0
38940,-50,4,2,1,40,0,0
39277,-100,4,2,1,40,0,0
39361,-100,4,2,1,5,0,0
39445,-100,4,2,1,40,0,0
39529,-100,4,2,1,5,0,0
39614,-66.6666666666667,4,2,1,40,0,0
39698,-66.6666666666667,4,2,1,5,0,0
39782,-66.6666666666667,4,2,1,40,0,0
39867,-66.6666666666667,4,2,1,5,0,0
39951,-66.6666666666667,4,2,1,40,0,0
40288,-50,4,2,1,40,0,0
40625,-66.6666666666667,4,2,1,40,0,0
40709,-66.6666666666667,4,2,1,5,0,0
40793,-66.6666666666667,4,2,1,40,0,0
40878,-66.6666666666667,4,2,1,5,0,0
40962,-66.6666666666667,4,2,1,40,0,0
41046,-66.6666666666667,4,2,1,5,0,0
41131,-66.6666666666667,4,2,1,40,0,0
41215,-66.6666666666667,4,2,1,5,0,0
41299,-66.6666666666667,4,2,1,40,0,0
41636,-50,4,2,1,40,0,0
41973,-50,4,2,1,40,0,0
42058,-50,4,2,1,5,0,0
42142,-50,4,2,1,40,0,0
42226,-50,4,2,1,5,0,0
42310,-133.333333333333,4,2,1,40,0,0
42816,-100,4,2,1,40,0,0
42900,-100,4,2,1,5,0,0
42984,-66.6666666666667,4,2,1,40,0,0
43069,-66.6666666666667,4,2,1,5,0,0
43153,-66.6666666666667,4,2,1,40,0,0
43237,-66.6666666666667,4,2,1,5,0,0
43322,-333.333333333333,4,2,1,25,0,0
43659,-1000,4,2,1,25,0,0
44670,-333.333333333333,4,2,1,25,0,0
45007,-1000,4,2,1,25,0,0
46018,-333.333333333333,4,2,1,25,0,0
46355,-1000,4,2,1,25,0,0
47367,-333.333333333333,4,2,1,25,0,0
47704,-1000,4,2,1,25,0,0
54108,-333.333333333333,4,2,1,25,0,0
55456,-200,4,2,1,25,0,0
55793,-133.333333333333,4,2,1,25,0,0
55878,-133.333333333333,4,2,2,5,0,0
59249,-133.333333333333,4,2,1,5,0,0
59333,-133.333333333333,4,2,1,25,0,0
59501,-333.333333333333,4,2,1,35,0,0
60175,-250,4,2,1,35,0,0
60597,-250,4,2,1,5,0,0
60681,-250,4,2,1,35,0,0
60850,-200,4,2,1,35,0,0
61945,-200,4,2,1,5,0,0
62029,-200,4,2,1,35,0,0
62198,-166.666666666667,4,2,1,35,0,0
63293,-166.666666666667,4,2,1,5,0,0
63378,-166.666666666667,4,2,1,35,0,0
63546,-142.857142857143,4,2,1,35,0,0
63883,-100,4,2,1,35,0,0
64136,-100,4,2,1,5,0,0
64220,-200,4,2,1,35,0,0
64473,-200,4,2,1,5,0,0
64558,-250,4,2,1,35,0,0
64810,-250,4,2,1,5,0,0
64895,-500,4,2,1,40,0,0
66243,-333.333333333333,4,2,1,40,0,0
67591,-222.222222222222,4,2,1,40,0,0
68940,-166.666666666667,4,2,1,40,0,0
69614,-100,4,2,1,40,0,0
69951,-125,4,2,1,40,0,0
70204,-125,4,2,1,5,0,0
70288,-166.666666666667,4,2,1,40,0,0
71636,-142.857142857143,4,2,1,40,0,0
72984,-125,4,2,1,40,0,0
75007,-100,4,2,1,40,0,0
75344,-125,4,2,1,40,0,0
75597,-125,4,2,1,5,0,0
75681,-142.857142857143,4,2,1,40,0,0
76102,-142.857142857143,4,2,1,5,0,0
76187,-333.333333333333,4,2,1,40,0,0
76271,-333.333333333333,4,2,1,5,0,0
76355,-333.333333333333,4,2,1,40,0,0
76440,-333.333333333333,4,2,1,5,0,0
76524,-142.857142857143,4,2,1,40,0,0
76777,-142.857142857143,4,2,1,5,0,0
76861,-250,4,2,1,40,0,0
76945,-250,4,2,1,5,0,0
77029,-250,4,2,1,40,0,0
77114,-250,4,2,1,5,0,0
77198,-142.857142857143,4,2,1,40,0,0
77451,-142.857142857143,4,2,1,5,0,0
77535,-200,4,2,1,40,0,0
77619,-200,4,2,1,5,0,0
77704,-200,4,2,1,40,0,0
77788,-200,4,2,1,5,0,0
77872,-142.857142857143,4,2,1,40,0,0
78125,-142.857142857143,4,2,1,5,0,0
78209,-166.666666666667,4,2,1,40,0,0
78293,-166.666666666667,4,2,1,5,0,0
78378,-166.666666666667,4,2,1,40,0,0
78462,-166.666666666667,4,2,1,5,0,0
78546,-142.857142857143,4,2,1,40,0,0
78799,-142.857142857143,4,2,1,5,0,0
78883,-142.857142857143,4,2,1,40,0,0
78968,-142.857142857143,4,2,1,5,0,0
79052,-142.857142857143,4,2,1,40,0,0
79136,-142.857142857143,4,2,1,5,0,0
79220,-142.857142857143,4,2,1,40,0,0
79473,-142.857142857143,4,2,1,5,0,0
79558,-125,4,2,1,40,0,0
79642,-125,4,2,1,5,0,0
79726,-125,4,2,1,40,0,0
79810,-125,4,2,1,5,0,0
79895,-142.857142857143,4,2,1,40,0,0
80147,-142.857142857143,4,2,1,5,0,0
80232,-142.857142857143,4,2,1,40,0,0
80400,-83.3333333333334,4,2,1,40,0,0
80737,-166.666666666667,4,2,1,40,0,0
80990,-166.666666666667,4,2,1,5,0,0
81074,-166.666666666667,4,2,1,40,0,0
82254,-100,4,2,1,40,0,0
82423,-125,4,2,1,40,0,0
83434,-100,4,2,1,40,0,0
83602,-71.4285714285714,4,2,1,40,0,0
83771,-125,4,2,1,25,0,0
83855,-125,4,2,1,5,0,0
83940,-125,4,2,1,35,0,0
84024,-125,4,2,1,5,0,0
84108,-100,4,2,1,45,0,0
84192,-100,4,2,1,5,0,0
84277,-100,4,2,1,55,0,0
84361,-100,4,2,1,5,0,0
84445,-83.3333333333333,4,2,1,65,0,0
84529,-83.3333333333333,4,2,1,5,0,0
84614,-83.3333333333333,4,2,1,70,0,0
84698,-83.3333333333333,4,2,1,5,0,0
84782,-71.4285714285714,4,2,1,75,0,0
84867,-71.4285714285714,4,2,1,5,0,0
84951,-71.4285714285714,4,2,1,75,0,0
85035,-71.4285714285714,4,2,1,5,0,0
85119,-71.4285714285714,4,2,1,40,0,0
85456,-55.5555555555556,4,2,1,40,0,0
85709,-66.6666666666667,4,2,1,5,0,0
85793,-100,4,2,1,40,0,0
86046,-100,4,2,1,5,0,0
86131,-250,4,2,1,40,0,0
86468,-50,4,2,1,75,0,1
86552,-50,4,2,1,5,0,1
86636,-50,4,2,1,75,0,1
86720,-50,4,2,1,5,0,1
86805,-40,4,2,1,75,0,1
87058,-50,4,2,1,75,0,1
87732,-50,4,2,1,5,0,1
87816,-66.6666666666667,4,2,1,75,0,1
87900,-66.6666666666667,4,2,1,5,0,1
87984,-66.6666666666667,4,2,1,75,0,1
88069,-66.6666666666667,4,2,1,5,0,1
88153,-40,4,2,1,75,0,1
88406,-50,4,2,1,75,0,1
89080,-50,4,2,1,5,0,1
89164,-100,4,2,1,75,0,1
89249,-100,4,2,1,5,0,1
89333,-50,4,2,1,75,0,1
89417,-50,4,2,1,5,0,1
89501,-40,4,2,1,75,0,1
89754,-50,4,2,1,75,0,1
90428,-50,4,2,1,5,0,1
90513,-83.3333333333333,4,2,1,75,0,1
90597,-83.3333333333333,4,2,1,5,0,1
90681,-83.3333333333333,4,2,1,75,0,1
90765,-83.3333333333333,4,2,1,5,0,1
90850,-40,4,2,1,75,0,1
90934,-40,4,2,1,5,0,1
91018,-50,4,2,1,75,0,1
91187,-83.3333333333333,4,2,1,75,0,1
91271,-83.3333333333333,4,2,1,5,0,1
91355,-83.3333333333333,4,2,1,75,0,1
91440,-83.3333333333333,4,2,1,5,0,1
91524,-40,4,2,1,75,0,1
91861,-50,4,2,1,75,0,1
91945,-50,4,2,1,5,0,1
92029,-50,4,2,1,75,0,1
92114,-50,4,2,1,5,0,1
92198,-40,4,2,1,75,0,1
92451,-50,4,2,1,75,0,1
93125,-50,4,2,1,5,0,1
93209,-50,4,2,1,75,0,1
93293,-50,4,2,1,5,0,1
93378,-50,4,2,1,75,0,1
93462,-50,4,2,1,5,0,1
93546,-40,4,2,1,75,0,1
93799,-50,4,2,1,75,0,1
94473,-50,4,2,1,5,0,1
94558,-66.6666666666667,4,2,1,75,0,1
94642,-66.6666666666667,4,2,1,5,0,1
94726,-66.6666666666667,4,2,1,75,0,1
94810,-66.6666666666667,4,2,1,5,0,1
94895,-40,4,2,1,75,0,1
95147,-50,4,2,1,75,0,1
95822,-50,4,2,1,5,0,1
95906,-66.6666666666667,4,2,1,75,0,1
95990,-66.6666666666667,4,2,1,5,0,1
96074,-66.6666666666667,4,2,1,75,0,1
96159,-66.6666666666667,4,2,1,5,0,1
96243,-40,4,2,1,75,0,1
96327,-40,4,2,1,5,0,1
96411,-40,4,2,1,75,0,1
96580,-83.3333333333333,4,2,1,75,0,1
96664,-83.3333333333333,4,2,1,5,0,1
96749,-83.3333333333333,4,2,1,75,0,1
96833,-83.3333333333333,4,2,1,5,0,1
96917,-40,4,2,1,75,0,1
97254,-66.6666666666667,4,2,1,75,0,1
97338,-66.6666666666667,4,2,1,5,0,1
97423,-66.6666666666667,4,2,1,75,0,1
97507,-66.6666666666667,4,2,1,5,0,1
97591,-40,4,2,1,75,0,1
97928,-66.6666666666667,4,2,1,75,0,1
98013,-66.6666666666667,4,2,1,5,0,1
98097,-66.6666666666667,4,2,1,75,0,1
98181,-66.6666666666667,4,2,1,5,0,1
98265,-50,4,2,1,75,0,1
98602,-100,4,2,1,75,0,1
98687,-100,4,2,1,5,0,1
98771,-100,4,2,1,75,0,1
98855,-100,4,2,1,5,0,1
98940,-40,4,2,1,75,0,1
99277,-100,4,2,1,75,0,1
99445,-100,4,2,1,75,0,1
99529,-100,4,2,1,5,0,1
99614,-50,4,2,1,75,0,1
99867,-40,4,2,1,5,0,1
99951,-66.6666666666667,4,2,1,75,0,1
100035,-66.6666666666667,4,2,1,5,0,1
100119,-66.6666666666667,4,2,1,75,0,1
100204,-66.6666666666667,4,2,1,5,0,1
100288,-40,4,2,1,75,0,1
100625,-100,4,2,1,75,0,1
100709,-100,4,2,1,5,0,1
100793,-100,4,2,1,75,0,1
100878,-100,4,2,1,5,0,1
100962,-50,4,2,1,75,0,1
101299,-80,4,2,1,75,0,1
101383,-80,4,2,1,5,0,1
101468,-80,4,2,1,75,0,1
101552,-80,4,2,1,5,0,1
101636,-40,4,2,1,75,0,1
101720,-66.6666666666667,4,2,1,5,0,1
101805,-66.6666666666667,4,2,1,75,0,1
101973,-66.6666666666667,4,2,1,75,0,1
102058,-66.6666666666667,4,2,1,5,0,1
102142,-66.6666666666667,4,2,1,75,0,1
102226,-66.6666666666667,4,2,1,5,0,1
102310,-40,4,2,1,75,0,1
102563,-40,4,2,1,5,0,1
102647,-1000,4,2,1,55,0,0
102900,-1000,4,2,1,5,0,0
102984,-66.6666666666667,4,2,1,55,0,0
103069,-66.6666666666667,4,2,1,5,0,0
103153,-1000,4,2,1,55,0,0
103406,-1000,4,2,1,5,0,0
103490,-66.6666666666667,4,2,1,55,0,0
103659,-1000,4,2,1,55,0,0
103911,-1000,4,2,1,5,0,0
103996,-1000,4,2,1,55,0,0
104249,-1000,4,2,1,5,0,0
104333,-66.6666666666667,4,2,1,55,0,0
104417,-66.6666666666667,4,2,1,5,0,0
104501,-1000,4,2,1,55,0,0
104754,-1000,4,2,1,5,0,0
104838,-1000,4,2,1,55,0,0
105260,-1000,4,2,1,5,0,0
105344,-66.6666666666667,4,2,1,55,0,0
105428,-66.6666666666667,4,2,1,5,0,0
105513,-66.6666666666667,4,2,1,55,0,0
105597,-66.6666666666667,4,2,1,5,0,0
105681,-66.6666666666667,4,2,1,55,0,0
105765,-66.6666666666667,4,2,1,5,0,0
105850,-66.6666666666667,4,2,1,55,0,0
105934,-66.6666666666667,4,2,1,5,0,0
106018,-66.6666666666667,4,2,1,55,0,0
106102,-66.6666666666667,4,2,1,5,0,0
106187,-100,4,2,1,55,0,0
106271,-100,4,2,1,5,0,0
106355,-222.222222222221,4,2,1,55,0,0
106524,-1000,4,2,1,55,0,0
106608,-1000,4,2,1,5,0,0
106692,-66.6666666666667,4,2,1,55,0,0
106861,-1000,4,2,1,55,0,0
106945,-1000,4,2,1,5,0,0
107029,-250,4,2,1,55,0,0
107114,-250,4,2,1,5,0,0
107198,-142.857142857143,4,2,1,55,0,0
107282,-142.857142857143,4,2,1,5,0,0
107367,-100,4,2,1,55,0,0
107451,-100,4,2,1,5,0,0
107535,-76.9230769230769,4,2,1,55,0,0
107619,-76.9230769230769,4,2,1,5,0,0
107704,-62.5,4,2,1,55,0,0
107788,-62.5,4,2,1,5,0,0
107872,-52.6315789473684,4,2,1,55,0,0
108041,-100,4,2,1,55,0,0
108125,-100,4,2,1,5,0,0
108209,-100,4,2,1,55,0,0
108293,-100,4,2,1,5,0,0
108378,-50,4,2,1,75,0,1
108462,-50,4,2,1,5,0,1
108546,-50,4,2,1,75,0,1
108631,-50,4,2,1,5,0,1
108715,-50,4,2,1,75,0,1
108799,-50,4,2,1,5,0,1
108883,-50,4,2,1,75,0,1
108968,-50,4,2,1,5,0,1
109052,-100,4,2,1,75,0,1
109136,-100,4,2,1,5,0,1
109220,-100,4,2,1,75,0,1
109305,-100,4,2,1,5,0,1
109389,-50,4,2,1,75,0,1
109473,-50,4,2,1,5,0,1
109558,-50,4,2,1,75,0,1
109642,-50,4,2,1,5,0,1
109726,-37.037037037037,4,2,1,75,0,1
110063,-100,4,2,1,75,0,1
110147,-100,4,2,1,5,0,1
110232,-50,4,2,1,75,0,1
110316,-50,4,2,1,5,0,1
110400,-100,4,2,1,75,0,1
110484,-100,4,2,1,5,0,1
110569,-100,4,2,1,75,0,1
110653,-100,4,2,1,5,0,1
110737,-50,4,2,1,75,0,1
110822,-50,4,2,1,5,0,1
110906,-50,4,2,1,75,0,1
110990,-50,4,2,1,5,0,1
111074,-50,4,2,1,75,0,1
111159,-50,4,2,1,5,0,1
111243,-50,4,2,1,75,0,1
111327,-50,4,2,1,5,0,1
111411,-100,4,2,1,75,0,1
111496,-100,4,2,1,5,0,1
111580,-100,4,2,1,75,0,1
111664,-100,4,2,1,5,0,1
111749,-50,4,2,1,75,0,1
111833,-50,4,2,1,5,0,1
111917,-50,4,2,1,75,0,1
112001,-50,4,2,1,5,0,1
112086,-100,4,2,1,75,0,1
112170,-100,4,2,1,5,0,1
112254,-100,4,2,1,75,0,1
112338,-100,4,2,1,5,0,1
112423,-37.037037037037,4,2,1,75,0,1
112675,-37.037037037037,4,2,1,5,0,1
112760,-100,4,2,1,75,0,1
112844,-100,4,2,1,5,0,1
112928,-50,4,2,1,75,0,1
113013,-50,4,2,1,5,0,1
113097,-100,4,2,1,75,0,1
113181,-100,4,2,1,5,0,1
113265,-100,4,2,1,75,0,1
113350,-100,4,2,1,5,0,1
113434,-50,4,2,1,75,0,1
113518,-50,4,2,1,5,0,1
113602,-50,4,2,1,75,0,1
113687,-50,4,2,1,5,0,1
113771,-50,4,2,1,75,0,1
113855,-50,4,2,1,5,0,1
113940,-50,4,2,1,75,0,1
114024,-50,4,2,1,5,0,1
114108,-100,4,2,1,75,0,1
114192,-100,4,2,1,5,0,1
114277,-100,4,2,1,75,0,1
114361,-100,4,2,1,5,0,1
114445,-50,4,2,1,75,0,1
114529,-50,4,2,1,5,0,1
114614,-50,4,2,1,75,0,1
114698,-50,4,2,1,5,0,1
114782,-100,4,2,1,75,0,1
114867,-100,4,2,1,5,0,1
114951,-100,4,2,1,75,0,1
115035,-100,4,2,1,5,0,1
115119,-37.037037037037,4,2,1,75,0,1
115372,-37.037037037037,4,2,1,5,0,1
115456,-50,4,2,1,75,0,1
115541,-50,4,2,1,5,0,1
115625,-66.6666666666667,4,2,1,75,0,1
115709,-66.6666666666667,4,2,1,5,0,1
115793,-100,4,2,1,75,0,1
115878,-100,4,2,1,5,0,1
115962,-100,4,2,1,75,0,1
116046,-100,4,2,1,5,0,1
116131,-50,4,2,1,75,0,1
116215,-50,4,2,1,5,0,1
116299,-50,4,2,1,75,0,1
116383,-50,4,2,1,5,0,1
116468,-50,4,2,1,75,0,1
116552,-50,4,2,1,5,0,1
116636,-50,4,2,1,75,0,1
116720,-50,4,2,1,5,0,1
116805,-100,4,2,1,75,0,1
116889,-100,4,2,1,5,0,1
116973,-100,4,2,1,75,0,1
117058,-100,4,2,1,5,0,1
117142,-50,4,2,1,75,0,1
117226,-50,4,2,1,5,0,1
117310,-50,4,2,1,75,0,1
117395,-50,4,2,1,5,0,1
117479,-100,4,2,1,75,0,1
117563,-100,4,2,1,5,0,1
117647,-100,4,2,1,75,0,1
117732,-100,4,2,1,5,0,1
117816,-37.037037037037,4,2,1,75,0,1
118069,-37.037037037037,4,2,1,5,0,1
118153,-50,4,2,1,75,0,1
118237,-50,4,2,1,5,0,1
118322,-50,4,2,1,75,0,1
118406,-50,4,2,1,5,0,1
118490,-100,4,2,1,75,0,1
118574,-100,4,2,1,5,0,1
118659,-50,4,2,1,75,0,1
118743,-50,4,2,1,5,0,1
118827,-50,4,2,1,75,0,1
118911,-50,4,2,1,5,0,1
118996,-50,4,2,1,75,0,1
119080,-50,4,2,1,5,0,1
119164,-1000,4,2,1,75,0,1
119417,-1000,4,2,1,5,0,1
119501,-50,4,2,1,75,0,1
119586,-50,4,2,1,5,0,1
119670,-50,4,2,1,75,0,1
119754,-50,4,2,1,5,0,1
119838,-50,4,2,1,75,0,1
119923,-50,4,2,1,5,0,1
120007,-50,4,2,1,75,0,1
120091,-50,4,2,1,5,0,1
120175,-100,4,2,1,75,0,1
120260,-100,4,2,1,5,0,1
120344,-100,4,2,1,75,0,1
120428,-100,4,2,1,5,0,1
120513,-33.3333333333333,4,2,1,75,0,1
121018,-100,4,2,1,75,0,1
121102,-100,4,2,1,5,0,1
121187,-66.6666666666667,4,2,1,75,0,1
121271,-66.6666666666667,4,2,1,5,0,1
121355,-100,4,2,1,75,0,1
121440,-100,4,2,1,5,0,1
121524,-50,4,2,1,75,0,1
121608,-50,4,2,1,5,0,1
121692,-50,4,2,1,75,0,1
121777,-50,4,2,1,5,0,1
121861,-1000,4,2,1,75,0,1
122114,-1000,4,2,1,5,0,1
122198,-1000,4,2,1,75,0,1
122367,-100,4,2,1,75,0,1
122451,-100,4,2,1,5,0,1
122535,-50,4,2,1,75,0,1
122619,-50,4,2,1,5,0,1
122704,-50,4,2,1,75,0,1
122788,-50,4,2,1,5,0,1
122872,-66.6666666666667,4,2,1,75,0,1
122956,-66.6666666666667,4,2,1,5,0,1
123041,-100,4,2,1,75,0,1
123125,-100,4,2,1,5,0,1
123209,-37.037037037037,4,2,1,75,0,1
123462,-37.037037037037,4,2,1,5,0,1
123546,-50,4,2,1,75,0,1
123715,-100,4,2,1,75,0,1
123799,-100,4,2,1,5,0,1
123883,-66.6666666666667,4,2,1,75,0,1
123968,-66.6666666666667,4,2,1,5,0,1
124052,-50,4,2,1,75,0,1
124220,-1000,4,2,1,55,0,0
124473,-1000,4,2,1,5,0,0
124558,-50,4,2,1,55,0,0
124642,-50,4,2,1,5,0,0
124726,-1000,4,2,1,55,0,0
125484,-1000,4,2,1,5,0,0
125569,-40,4,2,1,55,0,0
125822,-40,4,2,1,5,0,0
125906,-50,4,2,1,55,0,0
125990,-50,4,2,1,5,0,0
126074,-1000,4,2,1,55,0,0
126327,-1000,4,2,1,5,0,0
126411,-1000,4,2,1,55,0,0
126833,-1000,4,2,1,5,0,0
126917,-66.6666666666667,4,2,1,55,0,0
127001,-66.6666666666667,4,2,1,5,0,0
127086,-66.6666666666667,4,2,1,55,0,0
127170,-66.6666666666667,4,2,1,5,0,0
127254,-66.6666666666667,4,2,1,55,0,0
127338,-66.6666666666667,4,2,1,5,0,0
127423,-66.6666666666667,4,2,1,55,0,0
127507,-66.6666666666667,4,2,1,5,0,0
127591,-1000,4,2,1,55,0,0
127675,-1000,4,2,1,5,0,0
127760,-1000,4,2,1,55,0,0
127844,-1000,4,2,1,5,0,0
127928,-50,4,2,1,55,0,0
128013,-50,4,2,1,5,0,0
128097,-50,4,2,1,55,0,0
128181,-50,4,2,1,5,0,0
128265,-50,4,2,3,55,0,0
128602,-50,4,2,2,55,0,0
128940,-50,4,2,3,55,0,0
129277,-50,4,2,2,55,0,0
129614,-80,4,2,1,55,0,1
129698,-80,4,2,1,5,0,1
129782,-80,4,2,1,55,0,1
129867,-80,4,2,1,5,0,1
129951,-40,4,2,1,75,0,1
130288,-100,4,2,1,75,0,1
130372,-100,4,2,1,5,0,1
130456,-100,4,2,1,75,0,1
130541,-100,4,2,1,5,0,1
130625,-66.6666666666667,4,2,1,75,0,1
130962,-80,4,2,1,75,0,1
131299,-40,4,2,1,75,0,1
131636,-100,4,2,1,75,0,1
131720,-100,4,2,1,5,0,1
131805,-100,4,2,1,75,0,1
131889,-100,4,2,1,5,0,1
131973,-44.4444444444445,4,2,1,75,0,1
132226,-44.4444444444445,4,2,1,5,0,1
132310,-80,4,2,1,75,0,1
132395,-80,4,2,1,5,0,1
132479,-80,4,2,1,75,0,1
132563,-80,4,2,1,5,0,1
132647,-40,4,2,1,75,0,1
132984,-100,4,2,1,75,0,1
133069,-100,4,2,1,5,0,1
133153,-100,4,2,1,75,0,1
133237,-100,4,2,1,5,0,1
133322,-66.6666666666667,4,2,1,75,0,1
133406,-66.6666666666667,4,2,1,5,0,1
133490,-66.6666666666667,4,2,1,75,0,1
133574,-66.6666666666667,4,2,1,5,0,1
133659,-80,4,2,1,75,0,1
133743,-80,4,2,1,5,0,1
133827,-80,4,2,1,75,0,1
133911,-80,4,2,1,5,0,1
133996,-40,4,2,1,75,0,1
134333,-100,4,2,1,75,0,1
134417,-100,4,2,1,5,0,1
134501,-100,4,2,1,75,0,1
134586,-100,4,2,1,5,0,1
134670,-1000,4,2,1,75,0,1
134923,-1000,4,2,1,5,0,1
135007,-100,4,2,1,75,0,1
135091,-100,4,2,1,5,0,1
135175,-100,4,2,1,75,0,1
135260,-100,4,2,1,5,0,1
135344,-50,4,2,1,75,0,1
135681,-125,4,2,1,75,0,1
135765,-125,4,2,1,5,0,1
135850,-125,4,2,1,75,0,1
135934,-125,4,2,1,5,0,1
136018,-80,4,2,1,75,0,1
136355,-100,4,2,1,75,0,1
136692,-50,4,2,1,75,0,1
137029,-125,4,2,1,75,0,1
137114,-125,4,2,1,5,0,1
137198,-125,4,2,1,75,0,1
137282,-125,4,2,1,5,0,1
137367,-50,4,2,1,75,0,1
137704,-100,4,2,1,75,0,1
137788,-100,4,2,1,5,0,1
137872,-100,4,2,1,75,0,1
137956,-100,4,2,1,5,0,1
138041,-50,4,2,1,75,0,1
138378,-125,4,2,1,75,0,1
138462,-125,4,2,1,5,0,1
138546,-125,4,2,1,75,0,1
138631,-125,4,2,1,5,0,1
138715,-125,4,2,1,75,0,1
138799,-125,4,2,1,5,0,1
138883,-1000,4,2,1,75,0,1
139136,-1000,4,2,1,5,0,1
139220,-333.333333333334,4,2,1,75,0,1
139389,-166.666666666666,4,2,1,75,0,1
139558,-111.111111111111,4,2,1,75,0,1
139726,-83.3333333333333,4,2,1,75,0,1
139895,-66.6666666666667,4,2,1,75,0,1
140063,-1000,4,2,1,75,0,1
140400,-125,4,2,1,75,0,1
140484,-125,4,2,1,5,0,1
140569,-125,4,2,1,75,0,1
140653,-125,4,2,1,5,0,1
140737,-66.6666666666667,4,2,1,75,0,1
141074,-166.666666666667,4,2,1,75,0,1
141159,-166.666666666667,4,2,1,5,0,1
141243,-166.666666666667,4,2,1,75,0,1
141327,-166.666666666667,4,2,1,5,0,1
141411,-100,4,2,1,75,0,1
141749,-125,4,2,1,75,0,1
142086,-55.5555555555556,4,2,1,75,0,1
142423,-166.666666666667,4,2,1,75,0,1
142507,-166.666666666667,4,2,1,5,0,1
142591,-166.666666666667,4,2,1,75,0,1
142675,-166.666666666667,4,2,1,5,0,1
142760,-57.1428571428571,4,2,1,75,0,1
143013,-57.1428571428571,4,2,1,5,0,1
143097,-125,4,2,1,75,0,1
143181,-125,4,2,1,5,0,1
143265,-125,4,2,1,75,0,1
143350,-125,4,2,1,5,0,1
143434,-66.6666666666667,4,2,1,75,0,1
143771,-166.666666666667,4,2,1,75,0,1
143855,-166.666666666667,4,2,1,5,0,1
143940,-166.666666666667,4,2,1,75,0,1
144024,-166.666666666667,4,2,1,5,0,1
144108,-100,4,2,1,75,0,1
144445,-125,4,2,1,75,0,1
144782,-66.6666666666667,4,2,1,75,0,1
145119,-166.666666666667,4,2,1,75,0,1
145204,-166.666666666667,4,2,1,5,0,1
145288,-166.666666666667,4,2,1,75,0,1
145372,-166.666666666667,4,2,1,5,0,1
145456,-1000,4,2,1,75,0,1
145709,-1000,4,2,1,5,0,1
145793,-100,4,2,1,75,0,1
145878,-100,4,2,1,5,0,1
145962,-100,4,2,1,75,0,1
146046,-100,4,2,1,5,0,1
146131,-50,4,2,1,75,0,1
146468,-125,4,2,1,75,0,1
146552,-125,4,2,1,5,0,1
146636,-125,4,2,1,75,0,1
146720,-125,4,2,1,5,0,1
146805,-80,4,2,1,75,0,1
147142,-100,4,2,1,75,0,1
147479,-50,4,2,1,75,0,1
147816,-125,4,2,1,75,0,1
147900,-125,4,2,1,5,0,1
147984,-125,4,2,1,75,0,1
148069,-125,4,2,1,5,0,1
148153,-1000,4,2,1,75,0,1
148406,-1000,4,2,1,5,0,1
148490,-125,4,2,1,75,0,1
148574,-125,4,2,1,5,0,1
148659,-125,4,2,1,75,0,1
148743,-125,4,2,1,5,0,1
148827,-66.6666666666667,4,2,1,75,0,1
149164,-111.111111111111,4,2,1,75,0,1
149249,-111.111111111111,4,2,1,5,0,1
149333,-83.3333333333333,4,2,1,75,0,1
149417,-83.3333333333333,4,2,1,5,0,1
149501,-66.6666666666667,4,2,1,75,0,1
149586,-66.6666666666667,4,2,1,5,0,1
149670,-66.6666666666667,4,2,1,75,0,0
150007,-66.6666666666667,4,2,1,40,0,0
150091,-66.6666666666667,4,2,1,5,0,0
150175,-66.6666666666667,4,2,1,40,0,0
150260,-66.6666666666667,4,2,1,5,0,0
150344,-83.3333333333333,4,2,1,40,0,0
150513,-83.3333333333333,4,2,1,40,0,0
150597,-83.3333333333333,4,2,1,5,0,0
150681,-83.3333333333333,4,2,1,40,0,0
150765,-83.3333333333333,4,2,1,5,0,0
150850,-1000,4,2,1,40,0,0
151102,-1000,4,2,1,5,0,0
151187,-100,4,2,1,75,0,1
152198,-100,4,2,1,75,0,1
153546,-1000,4,2,1,75,0,1
153799,-1000,4,2,1,5,0,1
153883,-100,4,2,1,75,0,1
156664,-100,4,2,1,5,0,1
156749,-100,4,2,1,75,0,1
156833,-100,4,2,1,5,0,1
156917,-50,4,2,1,75,0,1
157254,-100,4,2,1,75,0,1
157591,-66.6666666666667,4,2,1,75,0,1
157675,-66.6666666666667,4,2,1,5,0,1
157760,-66.6666666666667,4,2,1,75,0,1
157844,-66.6666666666667,4,2,1,5,0,1
157928,-100,4,2,1,75,0,1
158265,-50,4,2,1,75,0,1
158940,-66.6666666666667,4,2,1,75,0,1
159024,-66.6666666666667,4,2,1,5,0,1
159108,-100,4,2,1,75,0,1
159192,-100,4,2,1,5,0,1
159277,-66.6666666666667,4,2,1,75,0,1
159614,-50,4,2,1,75,0,1
159782,-50,4,2,1,75,0,1
159951,-50,4,2,1,75,0,1
160119,-50,4,2,1,75,0,1
160288,-50,4,2,1,75,0,1
160625,-100,4,2,1,75,0,1
160793,-50,4,2,1,75,0,1
164333,-1000,4,2,1,75,0,1
164586,-1000,4,2,1,5,0,1
164670,-1000,4,2,1,75,0,1
167367,-66.6666666666667,4,2,1,75,0,1
169726,-1000,4,2,1,75,0,1
169979,-1000,4,2,1,5,0,1
170063,-66.6666666666667,4,2,1,75,0,1
170653,-133.333333333333,4,2,1,75,0,1
170737,-100,4,2,1,75,0,1
170906,-66.6666666666667,4,2,1,75,0,1
171074,-50,4,2,1,75,0,0
171411,-1000,4,2,1,55,0,0
171749,-133.333333333333,4,2,1,55,0,0
172086,-133.333333333333,4,2,1,55,0,0
172254,-133.333333333333,4,2,1,55,0,0
172760,-312.5,4,2,1,55,0,0
172844,-312.5,4,2,2,5,0,0
178153,-312.5,4,2,1,25,0,0
178322,-1000,4,2,1,40,0,0
178574,-1000,4,2,1,5,0,0
178659,-100,4,2,1,40,0,0
178743,-100,4,2,1,5,0,0
178827,-166.666666666667,4,2,1,40,0,0
178911,-166.666666666667,4,2,1,5,0,0
178996,-1000,4,2,1,40,0,0
179249,-1000,4,2,1,5,0,0
179333,-100,4,2,1,40,0,0
179417,-100,4,2,1,5,0,0
179501,-166.666666666667,4,2,1,40,0,0
179586,-166.666666666667,4,2,1,5,0,0
179670,-1000,4,2,1,40,0,0
179923,-1000,4,2,1,5,0,0
180007,-100,4,2,1,40,0,0
180091,-100,4,2,1,5,0,0
180175,-166.666666666667,4,2,1,40,0,0
180260,-166.666666666667,4,2,1,5,0,0
180344,-1000,4,2,1,40,0,0
180597,-1000,4,2,1,5,0,0
180681,-100,4,2,1,40,0,0
180765,-100,4,2,1,5,0,0
180850,-166.666666666667,4,2,1,40,0,0
180934,-166.666666666667,4,2,1,5,0,0
181018,-1000,4,2,1,40,0,0
181271,-1000,4,2,1,5,0,0
181355,-100,4,2,1,40,0,0
181440,-100,4,2,1,5,0,0
181524,-166.666666666667,4,2,1,40,0,0
181608,-166.666666666667,4,2,1,5,0,0
181692,-1000,4,2,1,40,0,0
181945,-1000,4,2,1,5,0,0
182029,-100,4,2,1,40,0,0
182114,-100,4,2,1,5,0,0
182198,-166.666666666667,4,2,1,40,0,0
182282,-166.666666666667,4,2,1,5,0,0
182367,-1000,4,2,1,40,0,0
182619,-1000,4,2,1,5,0,0
182704,-100,4,2,1,40,0,0
182788,-100,4,2,1,5,0,0
182872,-166.666666666667,4,2,1,40,0,0
182956,-166.666666666667,4,2,1,5,0,0
183041,-1000,4,2,1,40,0,0
183293,-1000,4,2,1,5,0,0
183378,-100,4,2,1,40,0,0
183462,-100,4,2,1,5,0,0
183546,-400,4,2,1,25,0,0
183631,-400,4,2,2,5,0,0
188771,-400,4,2,1,25,0,0
188940,-250,4,2,1,25,0,0
189361,-250,4,2,1,5,0,0
189445,-1000,4,2,1,25,0,0
189698,-1000,4,2,1,5,0,0
189782,-166.666666666667,4,2,1,25,0,0
189867,-166.666666666667,4,2,1,5,0,0
189951,-333.333333333334,4,2,1,25,0,0
190035,-333.333333333334,4,2,1,5,0,0
190119,-333.333333333334,4,2,1,25,0,0
190204,-333.333333333334,4,2,1,5,0,0
190288,-250.000000000001,4,2,1,25,0,0
190709,-250.000000000001,4,2,1,5,0,0
190793,-1000,4,2,1,25,0,0
191046,-1000,4,2,1,5,0,0
191131,-166.666666666667,4,2,1,25,0,0
191215,-166.666666666667,4,2,1,5,0,0
191299,-400,4,2,1,25,0,0
191383,-400,4,2,1,5,0,0
191468,-400,4,2,1,25,0,0
191552,-400,4,2,1,5,0,0
191636,-333.333333333333,4,2,1,25,0,0
192058,-333.333333333333,4,2,1,5,0,0
192142,-400,4,2,1,25,0,0
192395,-400,4,2,1,5,0,0
192479,-400,4,2,1,25,0,0
192732,-400,4,2,2,5,0,0
194080,-400,4,2,1,5,0,0
194164,-400,4,2,1,25,0,0
194249,-133.333333333333,4,2,1,40,0,0
195007,-333.333333333333,4,2,1,40,0,0
195597,-333.333333333333,4,2,1,5,0,0
195681,-133.333333333333,4,2,1,40,0,0
196355,-333.333333333333,4,2,1,40,0,0
196945,-333.333333333333,4,2,1,5,0,0
197029,-133.333333333333,4,2,1,40,0,0
197704,-333.333333333333,4,2,1,40,0,0
198293,-333.333333333333,4,2,1,5,0,0
198378,-133.333333333333,4,2,1,40,0,0
199305,-133.333333333333,4,2,1,5,0,0
199389,-100,4,2,1,40,0,0
199642,-100,4,2,1,5,0,0
199726,-100,4,2,1,40,0,0
199810,-100,4,2,1,5,0,0
199895,-100,4,2,1,40,0,0
200737,-133.333333333333,4,2,1,40,0,0
200990,-133.333333333333,4,2,1,5,0,0
201074,-100,4,2,1,40,0,0
201159,-100,4,2,1,5,0,0
201243,-100,4,2,1,40,0,0
202338,-100,4,2,1,5,0,0
202423,-100,4,2,1,40,0,0
202507,-100,4,2,1,5,0,0
202591,-100,4,2,1,40,0,0
203687,-100,4,2,1,5,0,0
203771,-100,4,2,1,40,0,0
203855,-100,4,2,1,5,0,0
203940,-100,4,2,1,40,0,0
205035,-100,4,2,1,5,0,0
205119,-100,4,2,1,40,0,0
205793,-133.333333333333,4,2,1,40,0,0
206046,-133.333333333333,4,2,1,5,0,0
206131,-133.333333333333,4,2,1,40,0,0
206468,-83.3333333333333,4,2,1,40,0,0
207395,-133.333333333333,4,2,1,5,0,0
207479,-133.333333333333,4,2,1,40,0,0
207816,-1000,4,2,1,40,0,0
208153,-250,4,2,1,40,0,0
208490,-142.857142857143,4,2,1,40,0,0
209080,-142.857142857143,4,2,1,5,0,0
209164,-76.9230769230769,4,2,1,40,0,0
209501,-142.857142857143,4,2,1,40,0,0
209838,-100,4,2,1,40,0,0
210175,-76.9230769230769,4,2,1,40,0,0
211018,-76.9230769230769,4,2,1,40,0,0
211187,-133.333333333333,4,2,1,40,0,0
211524,-100,4,2,1,40,0,0
211692,-76.9230769230769,4,2,1,40,0,0
211861,-62.5,4,2,1,40,0,0
213293,-62.5,4,2,1,5,0,0
213378,-62.5,4,2,1,40,0,0
213462,-62.5,4,2,1,5,0,0
213546,-58.8235294117647,4,2,1,40,0,0
213631,-58.8235294117647,4,2,1,5,0,0
213715,-58.8235294117647,4,2,1,40,0,0
213799,-58.8235294117647,4,2,1,5,0,0
213883,-55.5555555555556,4,2,1,40,0,0
213968,-55.5555555555556,4,2,1,5,0,0
214052,-55.5555555555556,4,2,1,40,0,0
214136,-55.5555555555556,4,2,1,5,0,0
214220,-52.6315789473684,4,2,1,40,0,0
214305,-52.6315789473684,4,2,1,5,0,0
214389,-52.6315789473684,4,2,1,40,0,0
214473,-52.6315789473684,4,2,1,5,0,0
214558,-52.6315789473684,4,2,1,40,0,0
214895,-100,4,2,1,40,0,0
215147,-100,4,2,1,5,0,0
215232,-66.6666666666667,4,2,1,40,0,0
215484,-66.6666666666667,4,2,1,5,0,0
215569,-142.857142857143,4,2,1,40,0,0
215822,-142.857142857143,4,2,1,5,0,0
215906,-66.6666666666667,4,2,1,75,0,1
215990,-66.6666666666667,4,2,1,5,0,1
216074,-66.6666666666667,4,2,1,75,0,1
216159,-66.6666666666667,4,2,1,5,0,1
216243,-35.7142857142857,4,2,1,75,0,1
216749,-125,4,2,1,75,0,1
216833,-125,4,2,1,5,0,1
216917,-1000,4,2,1,75,0,1
217170,-1000,4,2,1,5,0,1
217254,-40,4,2,1,75,0,1
217591,-100,4,2,1,75,0,1
217675,-100,4,2,1,5,0,1
217760,-40,4,2,1,75,0,1
218097,-100,4,2,1,75,0,1
218181,-100,4,2,1,5,0,1
218265,-1000,4,2,1,75,0,1
218518,-1000,4,2,1,5,0,1
218602,-80,4,2,1,75,0,1
220288,-40,4,2,1,75,0,1
220625,-100,4,2,1,75,0,1
220709,-100,4,2,1,5,0,1
220793,-100,4,2,1,75,0,1
220878,-100,4,2,1,5,0,1
220962,-40,4,2,1,75,0,1
221215,-40,4,2,1,5,0,1
221299,-100,4,2,1,75,0,1
221383,-100,4,2,1,5,0,1
221468,-100,4,2,1,75,0,1
221552,-100,4,2,1,5,0,1
221636,-40,4,2,1,75,0,1
222142,-125,4,2,1,75,0,1
222226,-125,4,2,1,5,0,1
222310,-1000,4,2,1,75,0,1
222563,-1000,4,2,1,5,0,1
222647,-40,4,2,1,75,0,1
222984,-125,4,2,1,75,0,1
223069,-125,4,2,1,5,0,1
223153,-40,4,2,1,75,0,1
223490,-125,4,2,1,75,0,1
223574,-125,4,2,1,5,0,1
223659,-1000,4,2,1,75,0,1
223911,-1000,4,2,1,5,0,1
223996,-80,4,2,1,75,0,1
224080,-80,4,2,1,5,0,1
224164,-80,4,2,1,75,0,1
224249,-80,4,2,1,5,0,1
224333,-40,4,2,1,75,0,1
224586,-40,4,2,1,5,0,1
224670,-125,4,2,1,75,0,1
224754,-125,4,2,1,5,0,1
224838,-125,4,2,1,75,0,1
224923,-125,4,2,1,5,0,1
225007,-40,4,2,1,75,0,1
225260,-40,4,2,1,5,0,1
225344,-80,4,2,1,75,0,1
225428,-80,4,2,1,5,0,1
225513,-80,4,2,1,75,0,1
225597,-80,4,2,1,5,0,1
225681,-80,4,2,1,75,0,1
225765,-80,4,2,1,5,0,1
225850,-80,4,2,1,75,0,1
225934,-80,4,2,1,5,0,1
226018,-80,4,2,1,75,0,1
226102,-80,4,2,1,5,0,1
226187,-80,4,2,1,75,0,1
226271,-80,4,2,1,5,0,1
226355,-40,4,2,1,75,0,1
226692,-80,4,2,1,75,0,1
226777,-80,4,2,1,5,0,1
226861,-80,4,2,1,75,0,1
226945,-80,4,2,1,5,0,1
227029,-40,4,2,1,75,0,1
227535,-125,4,2,1,75,0,1
227619,-125,4,2,1,5,0,1
227704,-1000,4,2,1,75,0,1
227956,-1000,4,2,1,5,0,1
228041,-40,4,2,1,75,0,1
228378,-125,4,2,1,75,0,1
228462,-125,4,2,1,5,0,1
228546,-40,4,2,1,75,0,1
228883,-125,4,2,1,75,0,1
228968,-125,4,2,1,5,0,1
229052,-1000,4,2,1,75,0,1
229305,-1000,4,2,1,5,0,1
229389,-80,4,2,1,75,0,1
231074,-40,4,2,1,75,0,1
231411,-80,4,2,1,75,0,1
231496,-80,4,2,1,5,0,1
231580,-80,4,2,1,75,0,1
231664,-80,4,2,1,5,0,1
231749,-50,4,2,1,75,0,1
232001,-50,4,2,1,5,0,1
232086,-1000,4,2,1,55,0,0
232338,-1000,4,2,1,5,0,0
232423,-66.6666666666667,4,2,1,55,0,0
232507,-66.6666666666667,4,2,1,5,0,0
232591,-66.6666666666667,4,2,1,55,0,0
232675,-66.6666666666667,4,2,1,5,0,0
232760,-66.6666666666667,4,2,1,55,0,0
233350,-66.6666666666667,4,2,1,5,0,0
233434,-1000,4,2,1,55,0,0
233687,-1000,4,2,1,5,0,0
233771,-66.6666666666667,4,2,1,55,0,0
233855,-66.6666666666667,4,2,1,5,0,0
233940,-66.6666666666667,4,2,1,55,0,0
234024,-66.6666666666667,4,2,1,5,0,0
234108,-66.6666666666667,4,2,1,55,0,0
234698,-66.6666666666667,4,2,1,5,0,0
234782,-66.6666666666667,4,2,1,55,0,0
234867,-66.6666666666667,4,2,1,5,0,0
234951,-80,4,2,1,55,0,0
235035,-80,4,2,1,5,0,0
235119,-100,4,2,1,55,0,0
235204,-100,4,2,1,5,0,0
235288,-1000,4,2,1,55,0,0
235541,-1000,4,2,1,5,0,0
235625,-80,4,2,1,55,0,0
235709,-80,4,2,1,5,0,0
235793,-80,4,2,1,55,0,0
235878,-80,4,2,1,5,0,0
235962,-80,4,2,1,55,0,0
236046,-80,4,2,1,5,0,0
236131,-80,4,2,1,55,0,0
236299,-1000,4,2,1,55,0,0
236383,-1000,4,2,1,5,0,0
236468,-250,4,2,1,55,0,0
236552,-250,4,2,1,5,0,0
236636,-142.857142857143,4,2,1,55,0,0
236720,-142.857142857143,4,2,1,5,0,0
236805,-90.9090909090909,4,2,1,55,0,0
236889,-90.9090909090909,4,2,1,5,0,0
236973,-71.4285714285714,4,2,1,55,0,0
237058,-71.4285714285714,4,2,1,5,0,0
237142,-58.8235294117647,4,2,1,55,0,0
237226,-58.8235294117647,4,2,1,5,0,0
237310,-58.8235294117647,4,2,1,55,0,0
237479,-100,4,2,1,55,0,0
237563,-100,4,2,1,5,0,0
237647,-100,4,2,1,55,0,0
237732,-100,4,2,1,5,0,0
237816,-50,4,2,1,75,0,1
237900,-50,4,2,1,5,0,1
237984,-50,4,2,1,75,0,1
238069,-50,4,2,1,5,0,1
238153,-50,4,2,1,75,0,1
238237,-50,4,2,1,5,0,1
238322,-50,4,2,1,75,0,1
238406,-50,4,2,1,5,0,1
238490,-37.037037037037,4,2,1,75,0,1
238827,-50,4,2,1,75,0,1
238911,-50,4,2,1,5,0,1
238996,-50,4,2,1,75,0,1
239080,-50,4,2,1,5,0,1
239164,-33.3333333333333,4,2,1,75,0,1
239501,-66.6666666666667,4,2,1,75,0,1
239586,-66.6666666666667,4,2,1,5,0,1
239670,-100,4,2,1,75,0,1
239754,-100,4,2,1,5,0,1
239838,-37.037037037037,4,2,1,75,0,1
240091,-37.037037037037,4,2,1,5,0,1
240175,-50,4,2,1,75,0,1
240344,-50,4,2,1,75,0,1
240513,-50,4,2,1,75,0,1
240681,-50,4,2,1,75,0,1
240850,-37.037037037037,4,2,1,75,0,1
241524,-100,4,2,1,75,0,1
241692,-100,4,2,1,75,0,1
241861,-33.3333333333333,4,2,1,75,0,1
242367,-100,4,2,1,75,0,1
242451,-100,4,2,1,5,0,1
242535,-37.037037037037,4,2,1,75,0,1
242872,-50,4,2,1,75,0,1
242956,-50,4,2,1,5,0,1
243041,-50,4,2,1,75,0,1
243125,-50,4,2,1,5,0,1
243209,-33.3333333333333,4,2,1,75,0,1
243546,-66.6666666666667,4,2,1,75,0,1
243631,-66.6666666666667,4,2,1,5,0,1
243715,-66.6666666666667,4,2,1,75,0,1
243799,-66.6666666666667,4,2,1,5,0,1
243883,-37.037037037037,4,2,1,75,0,1
244220,-50,4,2,1,75,0,1
244305,-50,4,2,1,5,0,1
244389,-50,4,2,1,75,0,1
244473,-50,4,2,1,5,0,1
244558,-50,4,2,1,75,0,1
245063,-66.6666666666667,4,2,1,75,0,1
245232,-33.3333333333333,4,2,1,75,0,1
245569,-50,4,2,1,75,0,1
245653,-50,4,2,1,5,0,1
245737,-50,4,2,1,75,0,1
245822,-50,4,2,1,5,0,1
245906,-50,4,2,1,75,0,1
245990,-50,4,2,1,5,0,1
246074,-50,4,2,1,75,0,1
246159,-50,4,2,1,5,0,1
246243,-66.6666666666667,4,2,1,75,0,1
246327,-66.6666666666667,4,2,1,5,0,1
246411,-66.6666666666667,4,2,1,75,0,1
246496,-66.6666666666667,4,2,1,5,0,1
246580,-41.6666666666667,4,2,1,75,0,1
246664,-41.6666666666667,4,2,1,5,0,1
246749,-41.6666666666667,4,2,1,75,0,1
246833,-41.6666666666667,4,2,1,5,0,1
246917,-66.6666666666667,4,2,1,75,0,1
247001,-66.6666666666667,4,2,1,5,0,1
247086,-66.6666666666667,4,2,1,75,0,1
247170,-66.6666666666667,4,2,1,5,0,1
247254,-50,4,2,1,75,0,1
247338,-50,4,2,1,5,0,1
247423,-50,4,2,1,75,0,1
247507,-50,4,2,1,5,0,1
247591,-50,4,2,1,75,0,1
247760,-100,4,2,1,75,0,1
247844,-100,4,2,1,5,0,1
247928,-33.3333333333333,4,2,1,75,0,1
248097,-66.6666666666667,4,2,1,75,0,1
248265,-50,4,2,1,75,0,1
248350,-50,4,2,1,5,0,1
248434,-50,4,2,1,75,0,1
248518,-50,4,2,1,5,0,1
248602,-50,4,2,1,75,0,1
248687,-50,4,2,1,5,0,1
248771,-66.6666666666667,4,2,1,75,0,1
248855,-66.6666666666667,4,2,1,5,0,1
248940,-100,4,2,1,75,0,1
249024,-100,4,2,1,5,0,1
249108,-100,4,2,1,75,0,1
249192,-100,4,2,1,5,0,1
249277,-33.3333333333333,4,2,1,75,0,1
249614,-50,4,2,1,75,0,1
249698,-50,4,2,1,5,0,1
249782,-50,4,2,1,75,0,1
249867,-50,4,2,1,5,0,1
249951,-33.3333333333333,4,2,1,75,0,1
250119,-33.3333333333333,4,2,1,75,0,1
250288,-50,4,2,1,75,0,1
250372,-50,4,2,1,5,0,1
250456,-50,4,2,1,75,0,1
250541,-50,4,2,1,5,0,1
250625,-33.3333333333333,4,2,1,75,0,1
250878,-33.3333333333333,4,2,1,5,0,1
250962,-66.6666666666667,4,2,1,75,0,1
251131,-66.6666666666667,4,2,1,75,0,1
251299,-50,4,2,1,75,0,1
251468,-50,4,2,1,75,0,1
251636,-41.6666666666667,4,2,1,75,0,1
252310,-66.6666666666667,4,2,1,75,0,1
252647,-33.3333333333333,4,2,1,75,0,1
252984,-66.6666666666667,4,2,1,75,0,1
253237,-66.6666666666667,4,2,1,5,0,1
253322,-33.3333333333333,4,2,1,75,0,1
253659,-1000,4,2,1,55,0,0
253911,-1000,4,2,1,5,0,0
253996,-50,4,2,1,55,0,0
254080,-50,4,2,1,5,0,0
254164,-1000,4,2,1,55,0,0
254417,-1000,4,2,1,5,0,0
254501,-1000,4,2,1,55,0,0
254923,-1000,4,2,1,5,0,0
255007,-50,4,2,1,55,0,0
255091,-50,4,2,1,5,0,0
255175,-50,4,2,1,55,0,0
255260,-50,4,2,1,5,0,0
255344,-50,4,2,1,55,0,0
256018,-1000,4,2,1,55,0,0
256271,-1000,4,2,1,5,0,0
256355,-50,4,2,1,55,0,0
256440,-50,4,2,1,5,0,0
256524,-100,4,2,1,55,0,0
256608,-100,4,2,1,5,0,0
256692,-50,4,2,1,55,0,0
256777,-50,4,2,1,5,0,0
256861,-100,4,2,1,55,0,0
256945,-100,4,2,1,5,0,0
257029,-50,4,2,1,55,0,0
257367,-41.6666666666667,4,2,1,55,0,0
257451,-41.6666666666667,4,2,1,5,0,0
257535,-41.6666666666667,4,2,1,55,0,0
257619,-41.6666666666667,4,2,1,5,0,0
257704,-41.6666666666667,4,2,3,55,0,0
258041,-41.6666666666667,4,2,2,55,0,0
258378,-41.6666666666667,4,2,3,55,0,0
258715,-100,4,2,2,55,0,0
258883,-100,4,2,1,55,0,0
261749,-100,4,2,1,25,0,0
263771,-100,4,2,3,55,0,0
264108,-100,4,2,2,55,0,0
264445,-80,4,2,1,75,0,1
264529,-80,4,2,1,5,0,1
264614,-80,4,2,1,75,0,1
264698,-80,4,2,1,5,0,1
264782,-50,4,2,1,75,0,1
265035,-50,4,2,1,5,0,1
265119,-80,4,2,1,75,0,1
265204,-80,4,2,1,5,0,1
265288,-80,4,2,1,75,0,1
265372,-80,4,2,1,5,0,1
265456,-40,4,2,1,75,0,1
265541,-40,4,2,1,5,0,1
265625,-80,4,2,1,75,0,1
265878,-80,4,2,1,5,0,1
265962,-80,4,2,1,75,0,1
266046,-80,4,2,1,5,0,1
266131,-50,4,2,1,75,0,1
266383,-50,4,2,1,5,0,1
266468,-50,4,2,1,75,0,1
266552,-50,4,2,1,5,0,1
266636,-50,4,2,1,75,0,1
266720,-50,4,2,1,5,0,1
266805,-40,4,2,1,75,0,1
266889,-40,4,2,1,5,0,1
266973,-80,4,2,1,75,0,1
267226,-80,4,2,1,5,0,1
267310,-80,4,2,1,75,0,1
267395,-80,4,2,1,5,0,1
267479,-50,4,2,1,75,0,1
267732,-50,4,2,1,5,0,1
267816,-50,4,2,1,75,0,1
267900,-50,4,2,1,5,0,1
267984,-50,4,2,1,75,0,1
268069,-50,4,2,1,5,0,1
268153,-40,4,2,1,75,0,1
268237,-40,4,2,1,5,0,1
268322,-80,4,2,1,75,0,1
268574,-80,4,2,1,5,0,1
268659,-80,4,2,1,75,0,1
268743,-80,4,2,1,5,0,1
268827,-40,4,2,1,75,0,1
269080,-40,4,2,1,5,0,1
269164,-80,4,2,1,75,0,1
269249,-80,4,2,1,5,0,1
269333,-80,4,2,1,75,0,1
269417,-80,4,2,1,5,0,1
269501,-44.4444444444445,4,2,1,75,0,1
269754,-44.4444444444445,4,2,1,5,0,1
269838,-100,4,2,1,75,0,1
269923,-100,4,2,1,5,0,1
270007,-100,4,2,1,75,0,1
270091,-100,4,2,1,5,0,1
270175,-50,4,2,1,75,0,1
270428,-50,4,2,1,5,0,1
270513,-100,4,2,1,75,0,1
270597,-100,4,2,1,5,0,1
270681,-100,4,2,1,75,0,1
270765,-100,4,2,1,5,0,1
270850,-40,4,2,1,75,0,1
270934,-40,4,2,1,5,0,1
271018,-80,4,2,1,75,0,1
271271,-80,4,2,1,5,0,1
271355,-80,4,2,1,75,0,1
271440,-80,4,2,1,22,0,1
271524,-50,4,2,1,75,0,1
271777,-50,4,2,1,5,0,1
271861,-100,4,2,1,75,0,1
271945,-100,4,2,1,5,0,1
272029,-100,4,2,1,75,0,1
272114,-100,4,2,1,5,0,1
272198,-40,4,2,1,75,0,1
272282,-40,4,2,1,5,0,1
272367,-80,4,2,1,75,0,1
272619,-80,4,2,1,5,0,1
272704,-80,4,2,1,75,0,1
272788,-80,4,2,1,5,0,1
272872,-50,4,2,1,75,0,1
273125,-50,4,2,1,5,0,1
273209,-100,4,2,1,75,0,1
273293,-100,4,2,1,5,0,1
273378,-100,4,2,1,75,0,1
273462,-100,4,2,1,5,0,1
273546,-40,4,2,1,75,0,1
273631,-40,4,2,1,5,0,1
273715,-80,4,2,1,75,0,1
273968,-80,4,2,1,5,0,1
274052,-80,4,2,1,75,0,1
274136,-80,4,2,1,5,0,1
274220,-50,4,2,1,75,0,1
274473,-50,4,2,1,5,0,1
274558,-100,4,2,1,75,0,1
274642,-100,4,2,1,5,0,1
274726,-100,4,2,1,75,0,1
274810,-100,4,2,1,5,0,1
274895,-40,4,2,1,75,0,1
275147,-40,4,2,1,5,0,1
275232,-100,4,2,1,75,0,1
275316,-100,4,2,1,5,0,1
275400,-100,4,2,1,75,0,1
275484,-100,4,2,1,5,0,1
275569,-50,4,2,1,75,0,1
275822,-50,4,2,1,5,0,1
275906,-100,4,2,1,75,0,1
275990,-100,4,2,1,5,0,1
276074,-100,4,2,1,75,0,1
276159,-100,4,2,1,5,0,1
276243,-40,4,2,1,75,0,1
276327,-40,4,2,1,5,0,1
276411,-80,4,2,1,75,0,1
276664,-80,4,2,1,5,0,1
276749,-80,4,2,1,75,0,1
276833,-80,4,2,1,5,0,1
276917,-50,4,2,1,75,0,1
277170,-50,4,2,1,5,0,1
277254,-100,4,2,1,75,0,1
277338,-100,4,2,1,5,0,1
277423,-100,4,2,1,75,0,1
277507,-100,4,2,1,5,0,1
277591,-40,4,2,1,75,0,1
277675,-40,4,2,1,5,0,1
277760,-80,4,2,1,75,0,1
278013,-80,4,2,1,5,0,1
278097,-80,4,2,1,75,0,1
278181,-80,4,2,1,5,0,1
278265,-50,4,2,1,75,0,1
278518,-50,4,2,1,5,0,1
278602,-100,4,2,1,75,0,1
278687,-100,4,2,1,5,0,1
278771,-100,4,2,1,75,0,1
278855,-100,4,2,1,5,0,1
278940,-133.333333333333,4,2,1,75,0,1
279024,-133.333333333333,4,2,1,5,0,1
279108,-200,4,2,1,75,0,1
279192,-200,4,2,1,5,0,1
279277,-333.333333333333,4,2,1,55,0,0
279529,-333.333333333333,4,2,1,5,0,0
279614,-166.666666666667,4,2,1,55,0,0
279698,-166.666666666667,4,2,1,5,0,0
279782,-111.111111111111,4,2,1,55,0,0
279867,-111.111111111111,4,2,1,5,0,0
279951,-66.6666666666667,4,2,1,55,0,0
280035,-66.6666666666667,4,2,1,5,0,0
280119,-83.3333333333333,4,2,1,55,0,0
280204,-83.3333333333333,4,2,1,5,0,0
280288,-111.111111111111,4,2,1,55,0,0
280372,-111.111111111111,4,2,1,5,0,0
280456,-166.666666666667,4,2,1,55,0,0
280541,-166.666666666667,4,2,1,5,0,0
280625,-50,4,2,1,75,0,1
280962,-50,4,2,1,75,0,1
281299,-50,4,2,1,75,0,1
281636,-33.3333333333333,4,2,1,75,0,1
281889,-33.3333333333333,4,2,1,5,0,1
281973,-50,4,2,1,75,0,1
282984,-33.3333333333333,4,2,1,75,0,1
283237,-33.3333333333333,4,2,1,5,0,1
283322,-50,4,2,1,75,0,1
284333,-33.3333333333333,4,2,1,75,0,1
284586,-33.3333333333333,4,2,1,5,0,1
284670,-40,4,2,1,75,0,1
285344,-66.6666666666667,4,2,1,75,0,1
285681,-1000,4,2,1,75,0,1
285934,-1000,4,2,1,5,0,1
286018,-50,4,2,1,75,0,1
286355,-50,4,2,1,75,0,1
286692,-50,4,2,1,75,0,1
287029,-33.3333333333333,4,2,1,75,0,1
287282,-50,4,2,1,5,0,1
287367,-50,4,2,1,75,0,1
287704,-50,4,2,1,75,0,1
288041,-66.6666666666667,4,2,1,75,0,1
288378,-1000,4,2,1,75,0,1
288631,-1000,4,2,1,5,0,1
288715,-50,4,2,1,75,0,1
289389,-50,4,2,1,75,0,1
289558,-100,4,2,1,75,0,1
289726,-33.3333333333333,4,2,1,75,0,1
289979,-33.3333333333333,4,2,1,5,0,1
290063,-66.6666666666667,4,2,1,75,0,1
290400,-33.3333333333333,4,2,1,75,0,1
290737,-66.6666666666667,4,2,1,75,0,1
290906,-100,4,2,1,75,0,1
293097,-66.6666666666667,4,2,1,75,0,1
293771,-1000,4,2,1,75,0,1
294024,-1000,4,2,1,5,0,1
294108,-45.4545454545455,4,2,1,75,0,1
294782,-66.6666666666667,4,2,1,75,0,1
295119,-33.3333333333333,4,2,1,75,0,1
295372,-33.3333333333333,4,2,1,5,0,1
295456,-33.3333333333333,4,2,1,75,0,1
295625,-50,4,2,1,75,0,1
295793,-33.3333333333333,4,2,1,75,0,1
296046,-33.3333333333333,4,2,1,5,0,1
296131,-41.6666666666667,4,2,1,75,0,1
296468,-1000,4,2,1,75,0,1
296805,-66.6666666666667,4,2,1,75,0,1
299164,-1000,4,2,1,75,0,1
299417,-1000,4,2,1,5,0,1
299501,-100,4,2,1,75,0,1
299670,-66.6666666666667,4,2,1,75,0,1
299838,-1000,4,2,1,75,0,1
300175,-50,4,2,1,75,0,1
300850,-1000,4,2,1,40,0,0
301102,-1000,4,2,1,5,0,0
301187,-133.333333333333,4,2,1,40,0,0
301777,-133.333333333333,4,2,1,5,0,0
301861,-133.333333333333,4,2,1,40,0,0
302198,-285.714285714286,4,2,1,40,0,0
302282,-285.714285714286,4,2,2,5,0,0
307423,-285.714285714286,4,2,1,5,0,0
307591,-370.37037037037,4,2,1,25,0,0
307675,-370.37037037037,4,2,2,5,0,0
312816,-370.37037037037,4,2,1,5,0,0
312984,-370.37037037037,4,2,1,25,0,0
313069,-370.37037037037,4,2,2,5,0,0

[Colours]
Combo1 : 240,211,198
Combo2 : 255,207,159
Combo3 : 204,174,200

[HitObjects]
368,85,176,5,2,0:0:0:0:
354,99,344,2,0,L|368:225,1,107.999996704102,2|2,0:0|0:0,0:0:0:0:
444,310,850,1,2,0:0:0:0:
430,296,1018,2,0,L|304:310,1,107.999996704102,2|2,0:0|0:0,0:0:0:0:
217,384,1524,1,2,0:0:0:0:
231,370,1692,2,0,L|219:262,1,107.999996704102,2|2,0:0|0:0,0:0:0:0:
139,160,2198,1,2,0:0:0:0:
153,174,2367,2,0,L|260:162,1,107.999996704102,2|2,0:0|0:0,0:0:0:0:
469,92,2872,5,2,0:0:0:0:
455,106,3040,2,0,P|401:117|347:94,1,107.999996704102,2|2,0:0|0:0,0:0:0:0:
205,14,3546,1,2,0:0:0:0:
219,28,3715,2,0,P|230:82|207:135,1,107.999996704102,2|2,0:0|0:0,0:0:0:0:
120,274,4220,1,2,0:0:0:0:
133,260,4389,2,0,P|185:248|234:267,1,107.999996704102,2|2,0:0|0:0,0:0:0:0:
382,356,4895,1,2,0:0:0:0:
368,343,5063,2,0,P|356:290|375:241,1,107.999996704102,2|2,0:0|0:0,0:0:0:0:
511,174,5569,6,0,B|478:193|439:170|461:153|419:129|381:149,1,135,2|2,0:0|0:0,0:0:0:0:
277,209,6243,5,2,0:0:0:0:
287,199,6411,2,0,L|276:100,1,90,2|2,0:0|0:0,0:0:0:0:
157,35,6917,1,2,0:0:0:0:
167,45,7085,2,0,L|155:152,1,90,2|2,0:0|0:0,0:0:0:0:
57,267,7591,1,2,0:0:0:0:
67,257,7759,2,0,L|55:149,1,90,2|2,0:0|0:0,0:0:0:0:
189,233,8265,5,2,0:0:0:0:
179,243,8433,2,0,P|168:293|189:344,1,90,2|2,0:0|0:0,0:0:0:0:
369,285,8940,1,2,0:0:0:0:
359,295,9108,2,0,P|307:305|256:283,1,90,2|2,0:0|0:0,0:0:0:0:
313,114,9614,1,2,0:0:0:0:
323,124,9782,2,0,P|333:174|311:225,1,90,2|2,0:0|0:0,0:0:0:0:
137,168,10288,1,2,0:0:0:0:
147,158,10456,2,0,P|196:147|244:168,1,90,2|2,0:0|0:0,0:0:0:0:
311,341,10962,5,2,0:0:0:0:
303,333,11131,2,0,L|311:250,1,80.9999975280763,2|2,0:0|0:0,0:0:0:0:
440,141,11636,1,2,0:0:0:0:
448,149,11805,2,0,L|437:238,1,80.9999975280763,2|2,0:0|0:0,0:0:0:0:
317,118,12310,1,2,0:0:0:0:
309,110,12478,2,0,L|317:23,1,80.9999975280763,2|2,0:0|0:0,0:0:0:0:
180,104,12984,1,2,0:0:0:0:
172,112,13153,2,0,L|181:202,1,80.9999975280763,2|2,0:0|0:0,0:0:0:0:
261,345,13659,5,2,0:0:0:0:
253,337,13827,2,0,P|210:328|168:345,1,80.9999975280763,2|2,0:0|0:0,0:0:0:0:
294,240,14333,1,2,0:0:0:0:
302,232,14501,2,0,P|347:222|391:241,1,80.9999975280763,2|2,0:0|0:0,0:0:0:0:
212,164,15007,1,2,0:0:0:0:
204,156,15175,2,0,P|163:147|122:164,1,80.9999975280763,2|2,0:0|0:0,0:0:0:0:
314,109,15681,1,2,0:0:0:0:
322,102,15849,2,0,P|364:93|405:110,1,80.9999975280763,2|2,0:0|0:0,0:0:0:0:
340,281,16355,6,0,B|324:256|342:226|355:242|374:210|358:180,1,108,2|2,0:0|0:0,0:0:0:0:
183,200,17029,1,2,0:0:0:0:
189,206,17197,2,0,L|276:196,1,72,2|2,0:0|0:0,0:0:0:0:
390,111,17704,1,2,0:0:0:0:
384,117,17872,2,0,L|305:108,1,72,2|2,0:0|0:0,0:0:0:0:
199,27,18378,1,2,0:0:0:0:
205,33,18546,2,0,L|280:24,1,72,2|2,0:0|0:0,0:0:0:0:
158,124,19052,5,2,0:0:0:0:
147,122,19220,2,0,P|110:133|87:165,1,72,2|2,0:0|0:0,0:0:0:0:
222,202,19726,1,2,0:0:0:0:
232,197,19895,2,0,P|258:166|263:124,1,72,2|2,0:0|0:0,0:0:0:0:
174,276,20400,5,2,0:0:0:0:
178,304,20737,1,2,0:0:0:0:
183,333,21074,1,2,0:0:0:0:
285,243,21243,5,0,3:0:0:0:
104,236,21411,1,0,1:0:0:0:
69,258,21496,1,0,1:0:0:0:
55,295,21580,1,0,1:0:0:0:
56,331,21664,1,0,1:0:0:0:
67,354,21749,6,0,L|41:346,1,26.9999991760254,2|0,3:2|0:0,0:1:0:0:
1,191,21917,2,0,L|38:183,1,36,2|0,3:2|0:0,0:1:0:0:
133,129,22086,2,0,B|138:91|138:91|137:89|137:89|146:23,1,90,2|0,0:0|0:0,0:1:0:0:
138,35,22338,1,0,0:0:0:0:
133,30,22423,2,0,L|198:22,1,36,2|0,0:0|0:0,0:0:0:0:
251,83,22591,2,0,L|285:71,1,36,2|0,3:2|0:0,0:0:0:0:
404,12,22760,2,0,B|399:49|399:49|399:51|399:51|391:117,1,90,2|0,0:0|0:0,0:1:0:0:
398,107,23013,5,0,0:0:0:0:
403,113,23097,2,0,L|353:100,1,26.9999991760254,2|0,3:2|0:0,0:0:0:0:
345,185,23265,2,0,L|387:197,1,36,2|0,3:2|0:0,0:0:0:0:
501,243,23434,2,0,B|472:246|462:266|463:269|464:272|455:296|412:297,1,90,2|0,0:0|0:0,0:0:0:0:
357,347,23687,1,0,0:0:0:0:
357,347,23771,2,0,L|295:332,1,45,2|0,0:0|0:0,0:0:0:0:
235,375,23940,2,0,L|190:366,1,45,2|0,3:2|0:0,0:0:0:0:
54,259,24108,2,0,L|153:241,1,90,2|0,0:0|0:0,0:0:0:0:
148,168,24361,5,0,0:0:0:0:
148,168,24445,2,0,B|150:147|150:147|148:145|148:145|151:111,1,45,2|0,3:2|0:0,0:0:0:0:
84,61,24614,2,0,B|81:41|81:41|83:39|83:39|81:17,1,45,2|0,3:2|0:0,0:0:0:0:
244,100,24782,2,0,B|287:91|287:91|297:94|297:94|363:78,1,90,2|0,0:0|0:0,0:0:0:0:
336,80,25035,1,0,0:0:0:0:
341,76,25119,2,0,L|336:127,1,26.9999991760254,2|0,0:0|0:0,0:0:0:0:
325,220,25288,2,0,L|330:162,1,36,2|0,3:2|0:0,0:0:0:0:
502,44,25456,2,0,B|459:53|459:53|449:50|449:50|383:66,1,90,2|0,0:0|0:0,0:0:0:0:
447,138,25709,5,0,0:0:0:0:
447,138,25793,2,0,B|468:133|468:133|473:134|473:134|506:126,1,45,2|0,3:2|0:0,0:0:0:0:
493,212,25962,2,0,B|482:214|482:214|479:213|479:213|463:217,1,20.2499993820191,2|0,3:2|0:0,0:0:0:0:
395,321,26131,2,0,B|380:332|352:319|350:315|347:311|329:291|292:303,1,107.999996704102,2|0,0:0|0:0,0:0:0:0:
289,309,26383,1,0,0:0:0:0:
285,316,26468,2,0,P|264:282|273:260,1,53.9999983520508,2|0,0:0|0:0,0:0:0:0:
256,147,26636,2,0,P|277:181|268:203,1,53.9999983520508,2|0,3:2|0:0,0:0:0:0:
156,277,26805,2,0,B|105:284|105:284|102:279|102:279|12:290,1,107.999996704102,2|0,0:0|0:0,0:0:0:0:
46,292,27058,1,0,0:0:0:0:
39,300,27142,6,0,L|25:262,1,33.7500012874604,2|0,3:2|0:0,0:0:0:0:
78,158,27310,2,0,L|84:106,1,33.7500012874604,2|0,3:2|0:0,0:0:0:0:
19,11,27479,2,0,L|18:4,3,4.5,2|0|0|0,0:0|0:0|0:0|0:0,0:0:0:0:
85,108,27816,2,0,B|108:110|108:110|110:112|110:112|166:116,1,45,2|0,0:0|0:0,0:0:0:0:
213,31,27984,2,0,B|232:29|232:29|234:27|234:27|257:25,1,45,2|0,3:2|0:0,0:0:0:0:
362,89,28153,2,0,L|368:86,3,4.5,2|0|0|0,0:0|0:0|0:0|0:0,0:0:0:0:
459,25,28490,6,0,P|448:52|445:91,1,45,2|0,3:2|0:0,0:0:0:0:
380,171,28659,2,0,P|398:195|404:231,1,45,2|0,3:2|0:0,0:0:0:0:
492,288,28827,2,0,L|493:294,3,4.5,2|0|0|0,0:0|0:0|0:0|0:0,0:0:0:0:
384,312,29164,2,0,B|361:317|361:317|359:316|359:316|312:327,1,45,2|0,0:0|0:0,0:0:0:0:
244,283,29333,2,0,B|222:280|222:280|221:278|221:278|192:274,1,45,2|0,3:2|0:0,0:0:0:0:
112,361,29501,2,0,L|111:367,3,4.5,2|0|0|0,0:0|0:0|0:0|0:0,0:0:0:0:
58,278,29838,6,0,B|58:259|46:255|42:255|31:250|24:239|26:222,1,67.5000025749208,2|0,3:2|0:0,0:0:0:0:
114,159,30007,2,0,B|128:147|123:135|123:132|119:120|123:108|137:99,1,67.5000025749208,2|0,3:2|0:0,0:0:0:0:
61,20,30175,2,0,L|61:15,3,4.5,2|0|0|0,0:0|0:0|0:0|0:0,0:0:0:0:
0,96,30513,2,0,P|34:110|61:104,1,45,2|0,0:0|0:0,0:0:0:0:
200,38,30681,2,0,P|213:20|233:9,1,45,2|0,3:2|0:0,0:0:0:0:
235,133,30850,2,0,L|238:138,3,4.5,2|0|0|0,0:0|0:0|0:0|0:0,0:0:0:0:
292,225,31187,6,0,L|355:197,1,45,2|0,3:2|0:0,0:0:0:0:
421,74,31355,2,0,L|403:132,1,45,2|0,3:2|0:0,0:0:0:0:
453,233,31524,2,0,L|458:236,3,4.5,2|0|0|0,0:0|0:0|0:0|0:0,0:0:0:0:
481,362,31861,1,0,0:0:0:0:
481,362,31945,1,0,0:0:0:0:
481,362,32029,2,0,L|507:301,1,45,2|0,3:2|0:0,0:0:0:0:
257,300,32198,2,0,B|282:296|305:307|320:327|320:331|321:334|326:354|354:367|383:360,1,135.000005149842,2|0,0:0|0:0,0:0:0:0:
359,221,32451,5,0,0:0:0:0:
359,221,32535,2,0,B|321:201|286:219|261:252|261:258|260:262|252:295|206:316|161:294,1,225,2|0,3:2|0:0,0:0:0:0:
75,274,32788,5,0,0:0:0:0:
75,274,32872,2,0,B|70:240|70:240|69:239|69:239|61:182,1,67.5000025749208,2|0,0:0|0:0,0:0:0:0:
85,361,33125,1,0,0:0:0:0:
85,361,33209,1,2,0:0:0:0:
85,361,33293,1,0,0:0:0:0:
85,361,33378,2,0,L|125:369,1,33.7500012874604,0|0,3:0|0:0,0:0:0:0:
47,131,33546,2,0,B|42:97|42:97|41:96|41:96|33:39,1,67.5000025749208,2|0,0:0|0:0,0:0:0:0:
173,177,33799,5,0,0:0:0:0:
173,177,33883,2,0,B|211:196|257:175|265:142|266:137|266:132|291:99|325:80|363:100,1,225,2|0,3:2|0:0,0:0:0:0:
474,140,34136,1,0,0:0:0:0:
474,140,34220,2,0,B|472:158|480:173|480:173|451:139|407:127,1,90,2|0,0:0|0:0,0:0:0:0:
441,59,34473,1,0,0:0:0:0:
441,59,34558,1,2,0:0:0:0:
441,59,34642,1,0,0:0:0:0:
441,59,34726,2,0,L|458:7,1,33.7500012874604,0|0,3:0|0:0,0:0:0:0:
329,269,34895,2,0,B|348:225|348:225|351:223|351:223|378:157,1,90,2|0,0:0|0:0,0:0:0:0:
512,274,35147,5,0,0:0:0:0:
512,274,35232,2,0,B|486:297|486:297|420:287|420:287|409:274|409:274|410:268|410:268|397:254|397:254|329:265|329:265|308:297,1,225,2|0,3:2|0:0,0:0:0:0:
229,359,35484,1,0,0:0:0:0:
229,359,35569,2,0,B|271:363|271:363|295:331,1,67.5000025749208,2|0,0:0|0:0,0:0:0:0:
130,276,35822,1,0,0:0:0:0:
130,276,35906,1,2,0:0:0:0:
130,276,35990,1,0,0:0:0:0:
130,276,36074,2,0,L|71:262,1,33.7500012874604,0|0,3:0|0:0,0:0:0:0:
47,113,36243,2,0,B|41:77|41:77|39:76|39:76|30:18,1,67.5000025749208,2|0,0:0|0:0,0:0:0:0:
20,190,36496,5,0,0:0:0:0:
20,190,36580,2,0,B|58:213|106:193|116:158|114:154|114:149|145:106|190:105|222:130,1,225,2|0,3:2|0:0,0:0:0:0:
272,192,36833,1,0,0:0:0:0:
272,192,36917,2,0,L|306:257,1,67.5000025749208,2|0,0:0|0:0,0:0:0:0:
305,107,37170,1,0,0:0:0:0:
310,89,37254,1,2,0:0:0:0:
316,74,37338,1,0,0:0:0:0:
321,56,37423,2,0,L|333:16,1,33.7500012874604,0|0,3:0|0:0,0:0:0:0:
428,159,37591,6,0,B|460:181|525:147|525:147|480:165|470:186|452:202|454:209|455:213|444:259|378:255,1,270,2|0,0:0|0:0,0:0:0:0:
398,260,37928,6,0,B|388:249|367:250|365:252|364:254|348:254|332:238,1,67.5000025749208,2|0,3:2|0:0,0:0:0:0:
245,313,38097,2,0,B|229:323|213:320|213:318|212:316|191:312|180:320,1,67.5000025749208,2|0,3:2|0:0,0:0:0:0:
116,248,38265,6,0,B|93:222|93:222|95:164,1,67.5000025749208,2|0,0:0|0:0,0:0:0:0:
74,122,38434,2,0,B|97:148|97:148|95:206,1,67.5000025749208
26,344,38602,1,2,0:0:0:0:
28,320,38687,1,0,0:0:0:0:
30,298,38771,1,0,3:0:0:0:
25,363,38940,6,0,B|142:338|142:338|142:335|142:335|254:312,1,180,2|0,0:0|0:0,0:0:0:0:
314,368,39192,5,0,0:0:0:0:
314,368,39277,2,0,L|233:340,1,45,2|0,3:2|0:0,0:0:0:0:
209,184,39445,2,0,L|223:248,1,45,2|0,3:2|0:0,0:0:0:0:
380,258,39614,6,0,B|411:247|411:247|433:207,1,67.5000025749208,2|0,0:0|0:0,0:0:0:0:
483,165,39782,2,0,B|451:175|451:175|429:215,1,67.5000025749208
442,371,39951,1,2,0:0:0:0:
463,348,40035,1,0,0:0:0:0:
467,315,40119,1,0,3:0:0:0:
412,384,40288,6,0,P|370:290|311:211,1,180,2|0,0:0|0:0,0:0:0:0:
275,144,40541,5,0,0:0:0:0:
275,144,40625,2,0,P|307:140|335:114,1,67.5000025749208,2|0,3:2|0:0,0:0:0:0:
441,33,40793,2,0,P|409:37|381:63,1,67.5000025749208,2|0,3:2|0:0,0:0:0:0:
191,160,40962,6,0,P|159:156|131:130,1,67.5000025749208,2|0,0:2|0:0,0:0:0:0:
75,106,41130,2,0,P|107:110|135:136,1,67.5000025749208
184,311,41299,1,2,0:0:0:0:
187,284,41383,1,0,0:0:0:0:
192,257,41468,1,0,3:0:0:0:
178,337,41636,6,0,B|110:329|110:329|109:328|109:328|31:318|31:318|23:361,1,180,2|0,0:0|0:0,0:0:0:0:
32,358,41889,5,0,0:0:0:0:
38,365,41973,2,0,P|88:325|76:289,1,90,2|0,3:2|0:0,0:0:0:0:
20,166,42142,2,0,P|29:229|66:236,1,90,2|0,3:2|0:0,0:0:0:0:
125,233,42310,6,0,B|162:220|162:220|162:217|162:217|202:205,1,67.5000025749208,2|0,1:0|0:0,0:0:0:0:
209,132,42563,1,0,0:0:0:0:
269,102,42647,1,0,0:0:0:0:
330,126,42732,1,0,0:0:0:0:
356,182,42816,2,0,L|380:242,1,45,0|0,1:0|0:0,0:0:0:0:
387,68,42984,6,0,P|425:30|459:42,1,67.5000025749208,2|0,0:0|0:0,0:0:0:0:
510,62,43153,2,0,P|472:100|438:88,1,67.5000025749208
257,28,43322,6,0,L|251:-1,1,26.9999991760254,2|2,0:0|0:0,0:0:0:0:
223,146,43659,2,0,L|221:157,3,9,2|0|0|0,0:0|0:0|0:0|0:0,0:0:0:0:
132,104,44333,2,0,L|124:95,1,9,2|0,0:0|0:0,0:0:0:0:
293,22,44670,6,0,L|297:-8,1,26.9999991760254,2|2,0:0|0:0,0:0:0:0:
209,160,45007,2,0,L|207:171,3,9,2|0|0|0,0:0|0:0|0:0|0:0,0:0:0:0:
125,111,45681,2,0,L|117:103,1,9,2|0,0:0|0:0,0:0:0:0:
307,36,46018,6,0,L|322:6,1,26.9999991760254,2|2,0:0|0:0,0:0:0:0:
195,174,46355,2,0,L|193:185,3,9,2|0|0|0,0:0|0:0|0:0|0:0,0:0:0:0:
118,118,47029,2,0,L|109:110,1,9,2|0,0:0|0:0,0:0:0:0:
321,50,47367,6,0,L|347:29,1,26.9999991760254,2|2,0:0|0:0,0:0:0:0:
181,188,47704,2,0,L|179:199,3,9,2|0|0|0,0:0|0:0|0:0|0:0,0:0:0:0:
111,125,48378,2,0,L|101:118,1,9,2|0,0:0|0:0,0:0:0:0:
55,199,48715,5,2,0:0:0:0:
201,297,48883,5,2,0:0:0:0:
26,357,49052,1,2,0:0:0:0:
85,291,49220,1,2,0:0:0:0:
112,375,49389,2,0,L|116:383,3,9,0|0|0|0,2:0|2:0|2:0|2:0,2:0:0:0:
95,196,50063,5,2,0:0:0:0:
215,311,50231,5,2,0:0:0:0:
41,338,50400,1,2,0:0:0:0:
107,286,50568,1,2,0:0:0:0:
119,369,50737,2,0,L|120:380,3,9,0|0|0|0,2:0|2:0|2:0|2:0,2:0:0:0:
136,199,51411,5,2,0:0:0:0:
229,326,51579,5,2,0:0:0:0:
61,322,51748,1,2,0:0:0:0:
132,284,51916,1,2,0:0:0:0:
128,364,52085,2,0,L|128:375,3,9,0|0|0|0,2:0|2:0|2:0|2:0,2:0:0:0:
177,206,52760,5,2,0:0:0:0:
243,340,52928,5,2,0:0:0:0:
86,308,53097,1,2,0:0:0:0:
159,284,53265,1,2,0:0:0:0:
143,358,53434,2,0,L|141:368,3,9,0|0|0|0,2:0|2:0|2:0|2:0,2:0:0:0:
238,260,54108,6,0,L|272:251,1,26.9999991760254,2|0,2:0|2:0,2:0:0:0:
119,186,54445,2,0,L|109:156,1,26.9999991760254
198,104,54782,2,0,L|201:71,1,26.9999991760254
134,21,55119,1,0,0:0:0:0:
134,21,55288,1,2,0:0:0:0:
202,186,55456,2,0,L|253:170,1,45,2|0,0:0|0:0,0:0:0:0:
149,374,55793,6,0,B|134:338|93:290|82:303|45:308|-32:380|-64:282|-77:183|47:191|66:185|95:273|113:299|110:327|206:313|206:313|208:316|208:316|280:257|386:291|384:322|384:332|442:350|442:350|356:351|287:327|256:195|314:101|508:49|559:230|502:294|502:294|483:265|449:238|407:243,1,1383.75005278588
422,251,59333,5,2,0:0:0:0:
478,73,59501,2,0,L|486:35,2,26.9999991760254,2|0|0,0:0|0:0|0:0,0:0:0:0:
485,79,60007,1,2,0:0:0:0:
360,63,60175,2,0,B|317:56|317:56|314:55|314:55|270:47,1,90,2|0,0:0|0:0,0:0:0:0:
272,36,60681,5,2,0:0:0:0:
286,230,60850,2,0,L|292:290,2,45,2|0|0,0:0|0:0|0:0,0:0:0:0:
296,227,61355,1,2,0:0:0:0:
158,234,61524,2,0,L|30:251,1,112.5,2|0,0:0|0:0,0:0:0:0:
45,258,62029,5,2,0:0:0:0:
11,70,62198,2,0,L|0:7,2,53.9999983520508,2|0|0,0:0|0:0|0:0,0:0:0:0:
4,81,62704,1,2,0:0:0:0:
186,13,62872,2,0,P|251:19|280:89,1,134.999995880127,2|0,0:0|0:0,0:0:0:0:
276,90,63378,5,2,0:0:0:0:
147,182,63546,2,0,P|121:171|101:139,1,62.9999980773926,2|0,0:0|0:0,0:0:0:0:
267,337,63883,6,0,P|349:323|380:283,1,135,2|0,0:0|0:0,0:0:0:0:
306,156,64220,6,0,P|328:184|360:191,1,67.5,2|0,0:0|0:0,0:0:0:0:
447,95,64558,6,0,P|432:126|437:148,1,54,2|0,0:0|0:0,0:0:0:0:
434,224,64895,5,0,3:0:0:0:
344,55,65063,1,0,3:0:0:0:
299,148,65232,2,0,P|286:145|279:141,1,18,2|0,0:0|0:0,0:0:0:0:
351,62,65569,1,0,0:0:0:0:
205,100,65737,2,0,P|220:82|234:74,1,36,2|0,3:2|0:0,0:0:0:0:
126,18,66243,5,0,3:0:0:0:
77,153,66411,1,0,3:0:0:0:
184,227,66580,2,0,P|182:209|176:192,1,26.9999991760254,2|0,0:0|0:0,0:0:0:0:
70,146,66917,1,0,0:0:0:0:
67,266,67086,2,0,P|74:292|87:317,1,53.9999983520508,2|0,3:2|0:0,0:0:0:0:
216,374,67591,5,0,3:0:0:0:
325,227,67760,1,0,3:0:0:0:
324,367,67928,2,0,P|318:344|317:321,1,40.4999987640381,2|0,0:0|0:0,0:0:0:0:
332,220,68265,1,0,0:0:0:0:
477,317,68434,2,0,P|437:305|400:286,1,80.9999975280763,2|0,3:2|0:0,0:0:0:0:
494,77,68940,5,0,3:0:0:0:
369,122,69108,1,0,3:0:0:0:
463,223,69277,2,0,P|469:195|471:167,1,53.9999983520508,2|0,0:0|0:0,0:0:0:0:
287,60,69614,6,0,P|332:37|381:23,1,90,2|0,0:0|3:0,0:0:0:0:
186,139,69951,6,0,P|190:72|206:8,1,108,2|0,0:0|0:0,0:0:0:0:
213,18,70288,5,2,3:2:0:0:
40,25,70456,1,0,3:0:0:0:
100,123,70625,2,0,L|115:47,1,53.9999983520508,2|0,0:0|0:0,0:0:0:0:
15,115,70962,1,0,0:0:0:0:
1,129,71131,2,0,L|21:235,1,107.999996704102,2|0,3:2|0:0,0:0:0:0:
135,317,71636,5,2,3:2:0:0:
261,250,71805,1,0,3:0:0:0:
164,143,71973,2,0,L|179:223,1,62.9999980773926,2|0,0:0|0:0,0:0:0:0:
275,153,72310,1,0,0:0:0:0:
289,139,72479,2,0,L|261:-1,1,125.999996154785,2|0,3:2|0:0,0:0:0:0:
473,14,72985,5,2,3:2:0:0:
384,91,73153,1,0,3:0:0:0:
466,191,73322,2,0,L|482:110,1,72,2|0,0:0|0:0,0:0:0:0:
365,195,73659,1,0,0:0:0:0:
351,208,73827,2,0,L|382:369,1,144,2|0,3:2|0:0,0:0:0:0:
234,167,74333,5,2,3:2:0:0:
193,319,74501,1,0,3:0:0:0:
56,230,74670,2,0,L|142:212,1,72,2|0,0:0|0:0,0:0:0:0:
99,29,75007,6,0,L|148:128,1,90,2|0,0:0|3:0,0:0:0:0:
329,82,75344,6,0,L|240:158,1,108,2|0,0:0|0:0,0:0:0:0:
234,167,75681,5,2,3:2:0:0:
297,261,75850,2,0,P|328:248|407:264,1,94.499997116089,2|0,3:2|0:0,0:0:0:0:
342,339,76187,6,0,L|354:336,1,13.4999995880127,2|0,0:0|0:0,0:0:0:0:
351,344,76355,2,0,L|347:331,1,13.4999995880127,2|0,0:0|0:0,0:0:0:0:
243,342,76524,6,0,P|212:353|135:338,1,94.499997116089,2|0,3:2|0:0,0:0:0:0:
203,267,76861,6,0,L|186:264,1,18,2|0,0:0|0:0,0:0:0:0:
190,273,77029,2,0,L|196:256,1,18,2|0,3:2|0:0,0:0:0:0:
229,161,77198,6,0,P|172:148|118:164,1,94.499997116089,2|0,3:2|0:0,0:0:0:0:
53,230,77535,6,0,L|74:225,1,22.5,2|0,0:0|0:0,0:0:0:0:
66,237,77703,2,0,L|60:216,1,22.5,2|0,0:0|0:0,0:0:0:0:
118,62,77872,6,0,P|174:49|228:65,1,94.499997116089,2|0,3:2|0:0,0:0:0:0:
315,98,78209,6,0,L|289:92,1,26.9999991760254,2|0,0:0|0:0,0:0:0:0:
296,109,78377,2,0,L|304:82,1,26.9999991760254,2|0,3:2|0:0,0:0:0:0:
409,219,78546,6,0,L|429:114,1,94.499997116089,2|0,3:2|0:0,0:0:0:0:
295,226,78883,6,0,L|325:219,1,31.4999990386963,2|0,0:0|0:0,0:0:0:0:
317,239,79051,2,0,L|307:208,1,31.4999990386963,2|0,0:0|0:0,0:0:0:0:
218,286,79220,6,0,L|200:193,1,94.499997116089,2|0,3:2|0:0,0:0:0:0:
309,369,79558,6,0,L|272:361,1,36,2|0,0:0|0:0,0:0:0:0:
282,384,79726,2,0,L|293:347,1,36,2|0,3:2|0:0,0:0:0:0:
396,372,79895,6,0,L|413:279,1,94.499997116089,2|0,3:2|0:0,0:0:0:0:
420,272,80232,1,2,0:0:0:0:
512,145,80400,6,0,P|459:148|419:184,1,107.999996704102,2|0,0:0|3:0,0:0:0:0:
307,56,80737,6,0,P|287:94|296:137,1,80.9999975280763,2|0,0:0|0:0,0:0:0:0:
299,137,81074,5,2,3:2:0:0:
209,129,81243,1,0,3:0:0:0:
119,121,81411,6,0,L|120:177,1,53.9999983520508,2|0,1:0|0:0,0:0:0:0:
119,254,81664,1,0,0:0:0:0:
138,253,81748,1,0,0:0:0:0:
158,247,81832,1,0,0:0:0:0:
175,236,81917,1,0,3:0:0:0:
105,107,82086,6,0,L|106:151,1,26.9999991760254,2|0,1:0|0:0,0:0:0:0:
23,313,82254,2,0,L|24:267,1,45
91,93,82423,5,2,3:2:0:0:
218,98,82592,1,0,3:0:0:0:
345,103,82760,6,0,L|343:183,1,72,2|0,1:0|0:0,0:0:0:0:
342,254,83012,1,0,0:0:0:0:
319,248,83096,1,0,0:0:0:0:
298,236,83180,1,0,0:0:0:0:
281,218,83265,1,0,3:0:0:0:
481,214,83434,6,0,B|455:211|455:211|449:207|449:207|409:204,1,45,2|0,1:0|0:0,0:0:0:0:
261,341,83602,2,0,B|287:344|287:344|293:348|293:348|333:351,1,62.9999980773926,2|0,3:2|0:0,0:0:0:0:
399,333,83771,6,0,L|397:384,1,36,2|0,3:2|0:0,0:0:0:0:
186,328,83940,2,0,L|188:379,1,36,2|0,3:2|0:0,0:0:0:0:
413,319,84108,6,0,P|428:357|431:372,1,45,2|0,3:2|0:0,0:0:0:0:
172,314,84277,2,0,P|157:352|154:367,1,45,2|0,3:2|0:0,0:0:0:0:
441,233,84445,6,0,P|471:254|489:293,1,53.9999983520508,2|0,3:2|0:0,0:0:0:0:
144,229,84614,2,0,P|114:250|96:289,1,53.9999983520508,2|0,3:2|0:0,0:0:0:0:
453,152,84782,6,0,P|495:159|529:183,1,62.9999980773926,2|0,3:2|0:0,0:0:0:0:
138,146,84951,2,0,P|96:153|62:177,1,62.9999980773926,2|0,3:2|0:0,0:0:0:0:
406,77,85119,5,0,3:0:0:0:
406,77,85456,6,0,B|359:-7|222:37|273:169,1,242.999992584229,2|0,0:0|0:0,0:0:0:0:
317,255,85793,6,0,P|264:225|183:247,1,135,2|0,0:0|0:0,0:0:0:0:
136,292,86131,6,0,P|122:305|139:296,1,54,2|0,0:0|0:0,0:0:0:0:
55,221,86468,6,0,B|30:223|16:207|16:207|38:197|57:218,1,90,2|0,3:2|0:0,0:0:0:0:
264,147,86636,2,0,B|288:149|302:133|302:133|280:123|261:144,1,90,2|0,3:2|0:0,0:0:0:0:
124,33,86805,6,0,B|151:22|166:0|166:0|155:26|154:70|154:70|158:97|158:97|145:201,1,225,8|0,0:0|0:0,0:0:0:0:
148,204,87058,1,0,0:0:0:0:
148,204,87142,1,2,0:0:0:0:
61,121,87310,1,2,3:2:0:0:
309,262,87479,6,0,B|503:290|503:290|467:267|450:240,1,270,8|0,0:0|0:0,0:0:0:0:
289,136,87816,6,0,B|274:129|274:129|280:185,1,67.5000025749208,2|0,3:2|0:0,0:0:0:0:
270,384,87984,2,0,B|275:333|275:333|260:339,1,67.5000025749208,2|0,3:2|0:0,0:0:0:0:
19,365,88153,6,0,B|-10:315|-10:315|61:308|61:308|100:295|100:295|161:295,1,225,8|0,0:0|0:0,0:0:0:0:
185,296,88406,1,0,0:0:0:0:
185,296,88490,1,2,0:0:0:0:
149,168,88659,1,2,3:2:0:0:
264,316,88827,6,0,B|321:371|370:304|375:298|381:292|430:198|527:287,1,270,8|0,0:0|0:0,0:0:0:0:
496,355,89164,6,0,P|468:351|437:334,1,45,2|0,3:2|0:0,0:0:0:0:
302,235,89333,2,0,B|285:198|285:198|296:195|296:195|302:236,1,90,2|0,3:2|0:3,0:3:0:0:
512,106,89501,6,0,B|472:51|343:136|459:224,1,225,8|0,0:0|0:0,0:0:0:0:
486,251,89754,1,0,0:0:0:0:
486,251,89838,1,2,0:0:0:0:
391,115,90007,1,2,3:2:0:0:
241,286,90175,6,0,B|168:312|98:251|174:182|58:146|23:179,1,270,8|0,0:0|0:0,0:0:0:0:
25,317,90513,6,0,B|32:285|32:285|34:287|34:287|41:243,1,53.9999983520508,2|0,3:2|0:0,0:0:0:0:
0,28,90681,2,0,B|3:47|3:47|5:45|5:45|12:77,1,53.9999983520508,2|0,3:2|0:0,0:0:0:0:
221,203,90850,6,0,B|275:196|275:196|283:200|283:200|347:192,1,112.5,8|0,0:0|0:0,0:0:0:0:
495,233,91018,5,0,0:0:0:0:
489,286,91102,1,0,0:0:0:0:
461,331,91187,6,0,P|407:311|389:278,1,53.9999983520508,2|0,0:0|0:0,0:0:0:0:
427,118,91355,2,0,P|444:97|466:82,1,53.9999983520508,2|0,3:2|0:0,0:0:0:0:
303,337,91524,6,0,B|284:379|284:379|266:308|251:258|251:258|216:196,1,225,10|0,0:0|0:0,0:0:0:0:
26,131,91861,6,0,B|14:134|3:151|3:151|29:136|91:141,1,90,2|0,3:2|0:0,0:0:0:0:
245,39,92029,2,0,B|257:42|267:59|267:59|242:44|179:49,1,90,2|0,3:2|0:0,0:0:0:0:
106,255,92198,6,0,B|94:272|108:309|108:309|122:268|116:206|205:174,1,225,8|0,0:0|0:0,0:0:0:0:
228,172,92451,1,0,0:0:0:0:
228,172,92535,1,2,0:0:0:0:
99,40,92704,1,2,3:2:0:0:
217,271,92872,6,0,P|333:273|507:383,1,270,8|0,0:0|0:0,0:0:0:0:
498,243,93209,6,0,P|499:222|494:246,1,90,2|0,3:2|0:0,0:0:0:0:
279,357,93378,2,0,P|308:369|284:350,1,90,2|0,3:2|0:0,0:0:0:0:
333,193,93546,6,0,B|290:146|312:95|356:120|373:41|356:13|328:4|303:10|285:29,1,225,8|0,0:0|0:0,0:0:0:0:
275,36,93799,1,0,0:0:0:0:
275,36,93883,1,2,0:0:0:0:
415,144,94052,1,2,3:2:0:0:
183,361,94220,6,0,P|84:306|171:291,1,270,8|0,0:0|0:0,0:0:0:0:
269,294,94558,6,0,B|302:306|302:306|333:294,1,67.5000025749208,2|0,3:2|0:0,0:0:0:0:
333,193,94726,2,0,B|300:181|300:181|268:193,1,67.5000025749208,2|0,3:2|0:0,0:0:0:0:
430,367,94895,6,0,B|474:404|529:360|507:309|507:309|508:300|508:300|481:261|500:172,1,225,8|0,0:0|0:0,0:0:0:0:
499,187,95147,1,0,0:0:0:0:
499,187,95232,1,2,0:0:0:0:
338,296,95400,1,2,3:2:0:0:
304,105,95569,6,0,P|186:40|52:34,1,270,8|0,0:0|0:0,0:0:0:0:
10,116,95906,6,0,B|31:132|49:129|49:129|66:129|76:139,1,67.5000025749208,2|0,3:2|0:0,0:0:0:0:
344,179,96074,2,0,B|323:195|305:192|305:192|288:192|278:202,1,67.5000025749208,2|0,3:2|0:0,0:0:0:0:
66,344,96243,6,0,B|87:372|87:372|83:334|112:252,1,112.5,8|0,0:0|0:0,0:0:0:0:
182,108,96411,5,0,0:0:0:0:
164,154,96496,1,0,0:0:0:0:
165,202,96580,6,0,P|172:236|200:263,1,53.9999983520508,2|0,0:0|0:0,0:0:0:0:
230,348,96749,2,0,P|264:359|301:348,1,53.9999983520508,2|0,3:2|0:0,0:0:0:0:
508,188,96917,6,0,B|512:147|405:134|360:235|384:290|427:321,1,225,10|0,0:0|0:0,0:0:0:0:
433,372,97170,5,0,0:0:0:0:
433,372,97254,2,0,P|465:352|482:310,1,67.5000025749208,2|0,3:2|0:0,0:0:0:0:
337,142,97423,2,0,P|300:149|270:182,1,67.5000025749208,2|0,3:2|0:0,0:0:0:0:
102,347,97591,6,0,B|121:358|136:367|136:367|129:264|129:264|130:263|130:263|120:142,1,225,8|0,0:0|0:0,0:0:0:0:
114,106,97844,1,0,0:0:0:0:
114,106,97928,6,0,B|131:99|145:106|146:110|149:113|170:123|189:112,1,67.5000025749208,2|0,0:0|0:0,0:0:0:0:
346,241,98097,2,0,B|327:247|314:240|312:236|310:233|288:223|269:234,1,67.5000025749208,2|0,3:2|0:0,0:0:0:0:
290,69,98265,6,0,B|277:29|300:-38|449:-6|459:120,1,270,8|0,0:0|0:0,0:0:0:0:
463,193,98602,6,0,L|504:174,1,45,2|0,3:2|0:0,0:0:0:0:
442,322,98771,2,0,L|410:249,1,45,2|0,3:2|0:0,0:0:0:0:
258,160,98940,6,0,B|238:199|238:199|256:241|256:241|259:241|259:241|285:291|285:291|287:331|287:331|267:380,1,225,8|0,0:0|0:0,0:0:0:0:
146,384,99193,1,0,0:0:0:0:
146,384,99277,6,0,B|142:364|142:364|144:363|144:363|136:310,1,45,2|0,0:0|0:0,0:0:0:0:
152,107,99445,2,0,B|155:129|155:129|153:130|153:130|157:150,1,45,2|0,3:2|0:0,0:0:0:0:
107,242,99614,6,0,B|96:267|68:291|68:291|104:260|152:250|172:258|172:258|176:257|176:257|199:270|252:265|280:232,1,270,8|0,0:0|0:0,0:0:0:0:
330,138,99951,6,0,B|298:156|298:156|314:204,1,67.5000025749208,2|0,3:2|0:0,0:0:0:0:
345,320,100119,2,0,B|354:289|354:289|353:286|353:286|371:234,1,67.5000025749208,2|0,3:2|0:0,0:0:0:0:
504,144,100288,6,0,B|475:170|380:141|442:85|385:35|326:56,1,225,8|0,0:0|0:0,0:0:0:0:
229,76,100541,1,0,0:0:0:0:
229,76,100625,6,0,P|239:58|253:34,1,45,2|0,0:0|0:0,0:0:0:0:
352,179,100793,2,0,P|339:159|320:138,1,45,2|0,3:2|0:0,0:0:0:0:
86,301,100962,6,0,B|222:311|222:311|226:313|226:313|373:321,1,270,8|0,0:0|0:0,0:0:0:0:
426,384,101299,2,0,P|444:343|448:312,1,56.25,2|0,3:2|0:0,0:0:0:0:
512,215,101468,2,0,P|467:219|438:231,1,56.25,2|0,3:2|0:0,0:0:0:0:
242,230,101636,6,0,B|183:230|183:230|117:156,1,112.5,8|0,0:0|0:0,0:0:0:0:
275,79,101805,5,0,0:0:0:0:
327,79,101889,1,0,0:0:0:0:
366,111,101973,2,0,B|357:139|357:139|358:142|358:142|346:174,1,67.5000025749208,2|0,0:0|0:0,0:0:0:0:
267,364,102142,2,0,B|279:332|279:332|278:329|278:329|291:286,1,67.5000025749208,2|0,3:2|0:0,0:0:0:0:
150,88,102310,6,0,B|136:38|136:38|254:-2|254:-2|227:116|227:116|225:118|225:118|214:162,1,337.5,10|0,0:0|0:0,0:0:0:0:
84,237,102647,6,0,L|70:235,1,13.5,2|0,3:2|0:0,0:0:0:0:
90,238,102984,2,0,B|122:243|122:243|125:245|125:245|214:261,1,67.5000025749208,10|0,0:0|0:0,0:0:0:0:
457,56,103153,6,0,L|471:54,1,13.5,2|0,3:2|0:0,0:0:0:0:
446,110,103490,1,0,0:0:0:0:
434,168,103574,1,0,0:0:0:0:
421,223,103659,6,0,L|419:227,3,4.5,10|0|0|0,0:0|0:0|0:0|0:0,0:0:0:0:
179,344,103996,6,0,L|165:348,1,13.5,2|0,3:2|0:0,0:0:0:0:
179,344,104333,6,0,B|173:309|173:309|172:309|172:309|161:247,1,67.5000025749208,10|0,0:0|0:0,0:0:0:0:
295,34,104501,6,0,L|298:19,1,13.5,2|0,3:2|0:0,0:0:0:0:
245,45,104838,1,0,0:0:0:0:
188,54,104923,1,0,0:0:0:0:
132,67,105007,2,0,L|127:69,3,4.5,10|0|0|0,0:0|0:0|0:0|0:0,0:0:0:0:
54,82,105344,6,0,P|63:117|100:138,1,67.5000025749208,2|0,3:2|0:0,0:0:0:0:
125,207,105513,2,0,P|160:213|195:188,1,67.5000025749208,2|0,3:2|0:0,0:0:0:0:
335,131,105681,6,0,P|374:128|399:155,1,67.5000025749208,8|0,0:0|0:0,0:0:0:0:
505,219,105850,2,0,P|465:221|440:194,1,67.5000025749208,0|0,3:0|0:0,0:0:0:0:
241,68,106018,6,0,B|236:34|236:34|237:30|237:30|232:-10,1,67.5000025749208,2|0,0:0|0:0,0:0:0:0:
190,165,106187,2,0,L|161:125,1,45,2|0,3:2|0:0,0:0:0:0:
283,229,106355,6,0,L|288:195,1,20.2499993820191,8|0,0:0|0:0,0:0:0:0:
224,299,106524,2,0,L|219:293,1,4.5,0|0,3:0|0:0,0:0:0:0:
271,371,106692,1,2,0:0:0:0:
275,378,106861,6,0,L|279:372,1,4.5,2|0,0:0|0:0,0:0:0:0:
363,381,107029,2,0,P|360:360|355:352,1,18,2|0,0:0|0:0,0:0:0:0:
464,323,107198,2,0,P|448:294|438:287,1,31.4999990386963,2|0,0:0|0:0,0:0:0:0:
512,208,107367,2,0,P|471:194|461:195,1,45,2|0,0:0|0:0,0:0:0:0:
478,65,107535,2,0,P|424:78|416:89,1,58.4999973220826,2|0,0:0|0:0,0:0:0:0:
335,0,107704,2,0,P|303:39|302:69,1,72,2|0,0:0|0:0,0:0:0:0:
191,198,107872,5,0,3:0:0:0:
212,251,107956,1,0,3:0:0:0:
260,276,108041,2,0,P|291:277|315:263,1,45,2|0,3:2|0:0,0:0:0:0:
263,282,108209,2,0,P|231:280|207:294,1,45,2|0,3:2|0:0,0:0:0:0:
357,350,108378,6,0,P|393:317|382:260,1,90,10|0,0:0|0:0,0:0:0:0:
504,222,108546,2,0,P|489:175|432:161,1,90
398,35,108715,2,0,P|349:28|312:73,1,90
197,42,108883,2,0,P|170:83|196:135,1,90,2|0,3:2|0:0,0:0:0:0:
323,189,109052,6,0,B|330:195|342:189|343:188|343:185|361:176|374:190,1,45,10|0,0:0|0:0,0:0:0:0:
326,192,109220,2,0,B|318:185|306:191|305:192|305:195|287:203|274:190,1,45,2|0,0:0|0:0,0:0:0:0:
126,248,109389,6,0,P|79:245|52:170,1,90,2|0,3:2|0:0,0:0:0:0:
80,135,109558,2,0,P|127:138|154:213,1,90,0|0,3:0|0:0,0:0:0:0:
31,314,109726,6,0,B|13:347|0:372|0:372|163:351|163:351|165:352|165:352|358:326,1,364.500001390457,10|0,0:0|0:0,0:0:0:0:
316,376,110063,6,0,L|293:310,1,45
375,242,110232,2,0,B|382:199|382:199|382:195|382:195|391:143,1,90,0|0,3:0|0:0,0:0:0:0:
417,47,110400,6,0,B|436:44|436:44|438:46|438:46|476:41,1,45,10|0,0:0|0:0,0:0:0:0:
414,38,110569,2,0,B|394:40|394:40|392:38|392:38|354:43,1,45
445,211,110737,6,0,B|418:237|418:237|417:236|417:236|405:251|405:251|313:223,1,90,2|0,3:2|0:0,0:0:0:0:
260,344,110906,2,0,B|223:333|223:333|224:332|224:332|205:329|205:329|183:235,1,90,2|0,3:2|0:0,0:0:0:0:
65,245,111074,2,0,B|62:207|62:207|63:207|63:207|60:188|60:188|140:136,1,90,10|0,0:0|0:0,0:0:0:0:
72,39,111243,2,0,B|103:19|103:19|103:20|103:20|118:7|118:7|204:50,1,90
238,141,111411,6,0,P|233:169|213:187,1,45
245,147,111580,2,0,P|250:119|270:101,1,45,2|0,3:2|0:0,0:0:0:0:
375,29,111749,6,0,P|434:48|447:102,1,90,10|0,0:0|0:0,0:0:0:0:
511,112,111917,2,0,P|516:168|489:205,1,90,2|0,0:0|0:0,0:0:0:0:
384,275,112086,6,0,B|365:270|365:270|361:273|361:273|329:264,1,45,0|0,3:0|0:0,0:0:0:0:
387,283,112254,2,0,B|405:287|405:287|409:284|409:284|441:293,1,45,0|0,3:0|0:0,0:0:0:0:
449,381,112423,6,0,B|279:345|279:345|277:342|277:342|80:294,1,364.500001390457,10|0,0:0|0:0,0:0:0:0:
60,340,112760,6,0,P|70:322|107:290,1,45
32,195,112928,2,0,B|20:175|22:160|26:157|29:152|31:140|25:109|-4:83,1,90,0|0,3:0|0:0,2:0:0:0:
177,59,113097,2,0,P|193:44|194:22,1,45,8|0,0:0|0:0,0:0:0:0:
102,35,113265,2,0,P|103:13|120:0,1,45,2|0,0:0|0:0,0:0:0:0:
125,147,113434,6,0,B|133:171|160:174|165:172|169:170|196:173|206:208,1,90,2|0,3:2|0:0,0:0:0:0:
251,302,113602,2,0,B|276:304|290:281|290:276|290:271|304:248|340:254,1,90,2|0,3:2|0:0,0:0:0:0:
441,236,113771,2,0,B|454:214|439:191|434:189|430:187|415:164|435:134,1,90,10|0,0:0|0:0,0:0:0:0:
461,35,113940,2,0,B|447:13|420:17|415:21|412:24|385:28|366:-2,1,90
250,123,114108,6,0,B|260:133|267:143|267:143|283:142|313:151,1,45
319,76,114277,2,0,B|309:66|302:56|302:56|286:57|256:48,1,45,2|0,3:2|0:0,0:0:0:0:
160,0,114445,6,0,P|108:23|106:72,1,90,10|0,0:0|0:0,0:0:0:0:
33,121,114614,2,0,P|40:174|82:200,1,90,2|0,0:0|0:0,0:0:0:0:
200,269,114782,6,0,B|220:269|224:274|228:282|267:279,1,45,0|0,3:0|0:0,0:0:0:0:
200,278,114951,2,0,B|179:277|175:272|171:264|132:267,1,45,0|0,3:0|0:0,0:0:0:0:
64,366,115119,6,0,B|144:397|203:339|203:285|199:279|201:282|168:200|299:133|363:225,1,364.500001390457,10|0,0:0|0:0,0:0:0:0:
437,255,115456,6,0,B|442:270|436:286|436:286|423:263|389:243|369:240,1,90
290,110,115625,2,0,B|288:79|288:79|287:77|287:77|282:14,1,67.5000025749208,0|0,3:0|0:0,0:0:0:0:
295,323,115793,6,0,B|283:339|286:344|288:349|272:376,1,45,8|0,0:0|0:0,0:0:0:0:
298,330,115962,2,0,B|309:313|306:308|304:303|320:276,1,45,2|0,0:0|0:0,0:0:0:0:
467,212,116131,6,0,B|464:186|470:164|470:164|439:156|406:126,1,90,2|0,3:2|0:0,0:0:0:0:
351,34,116299,2,0,B|326:25|308:10|308:10|288:35|247:52,1,90,2|0,3:2|0:0,2:0:0:0:
136,30,116468,2,0,B|118:49|97:58|97:58|111:87|109:132,1,90,10|0,0:0|0:0,0:0:0:0:
74,233,116636,2,0,B|83:257|83:280|83:280|115:279|155:300,1,90,0|0,0:0|0:0,2:0:0:0:
270,206,116805,6,0,B|265:181|265:181|263:181|263:181|257:146,1,45
279,203,116973,2,0,B|274:228|274:228|272:228|272:228|266:263,1,45,2|0,3:2|0:0,0:0:0:0:
346,360,117142,6,0,P|401:355|418:308,1,90,10|0,0:0|0:0,0:0:0:0:
512,254,117310,2,0,P|518:187|483:162,1,90,2|0,0:0|0:0,0:0:0:0:
346,26,117479,6,0,L|286:42,1,45,0|0,3:0|0:0,0:0:0:0:
341,34,117647,2,0,L|399:21,1,45,0|0,3:0|0:0,0:0:0:0:
497,47,117816,6,0,B|492:95|492:95|421:149|421:149|375:143|375:143|370:137|370:137|321:143|321:143|263:211|263:211|273:283,1,364.500001390457,10|0,0:0|0:0,0:0:0:0:
329,305,118153,6,0,B|352:293|352:293|362:252|362:252|330:209,1,90
198,149,118322,2,0,B|180:142|159:155|157:160|155:163|144:177|115:177,1,90,0|0,3:0|2:0,0:0:0:0:
25,128,118490,6,0,B|25:114|23:107|19:106|14:103|10:91|16:74,1,45,8|0,0:0|0:0,0:0:0:0:
0,0,118659,2,0,B|0:25|3:38|10:40|20:45|27:67|16:98,1,90,2|0,0:0|0:0,0:3:0:0:
112,185,118827,6,0,B|119:203|112:225|102:230|95:232|92:245|92:271,1,90,2|0,3:2|0:0,0:3:0:0:
43,358,118996,2,0,P|4:329|4:272,1,90,2|0,3:2|0:0,0:0:0:0:
280,111,119164,6,0,L|293:107,1,13.5,10|0,0:0|0:0,0:0:0:0:
274,119,119501,6,0,B|252:128|252:128|210:117|210:117|199:96,1,90
85,9,119670,2,0,B|107:0|107:0|149:11|149:11|160:32,1,90,2|0,3:2|0:0,0:0:0:0:
307,207,119838,6,0,B|329:216|329:216|371:205|371:205|382:184,1,90,10|0,0:0|0:0,0:0:0:0:
462,149,120007,2,0,B|440:140|440:140|398:151|398:151|387:172,1,90,2|0,0:0|0:0,0:0:0:0:
348,336,120175,6,0,L|337:390,1,45,0|0,3:0|0:0,0:0:0:0:
340,337,120344,2,0,L|331:292,1,45,0|0,3:0|0:0,0:0:0:0:
473,329,120513,6,0,B|498:344|496:355|513:369|513:369|246:341|246:341|244:343|244:343|126:331,1,405.000015449525,10|0,0:0|0:0,0:0:0:0:
83,378,120850,1,0,0:0:0:0:
83,378,120934,1,0,0:0:0:0:
83,378,121018,2,0,B|79:354|79:354|76:354|76:354|65:300,1,45,2|0,3:2|0:0,0:0:0:0:
229,142,121187,6,0,B|223:175|223:175|220:177|220:177|213:207,1,67.5000025749208,8|0,0:0|0:0,0:0:0:0:
152,137,121355,2,0,B|146:161|146:161|143:163|143:163|136:193,1,45,2|0,0:0|0:0,0:0:0:0:
131,45,121524,6,0,L|266:31,1,90,2|0,3:2|0:0,0:0:0:0:
396,18,121692,2,0,L|261:32,1,90,2|0,3:2|0:0,0:0:0:0:
34,55,121861,6,0,L|29:43,1,13.5,10|0,0:0|0:0,0:0:0:0:
4,198,122198,1,0,0:0:0:0:
4,198,122282,1,0,0:0:0:0:
4,198,122367,2,0,L|-18:123,1,45,2|0,3:2|0:0,0:0:0:0:
129,308,122535,6,0,P|177:322|217:293,1,90,10|0,0:0|0:0,0:0:0:0:
291,251,122704,2,0,P|330:231|371:246,1,90,2|0,0:0|0:0,0:0:0:0:
494,373,122872,6,0,B|461:365|461:365|458:366|458:366|428:359,1,67.5000025749208,0|0,3:0|0:0,0:0:0:0:
512,294,123041,2,0,B|496:290|496:290|494:291|494:291|468:285,1,45,0|0,3:0|0:0,0:0:0:0:
253,66,123209,6,0,B|237:13|190:-6|190:-6|225:33|214:57|202:101|298:127|336:117|336:117|374:87|458:118,1,364.500001390457,10|0,0:0|0:0,0:0:0:0:
465,105,123546,1,2,0:0:0:0:
465,105,123631,1,0,0:0:0:0:
465,105,123715,6,0,L|550:87,1,45,2|0,3:2|0:0,0:0:0:0:
383,234,123883,2,0,P|345:236|316:179,1,67.5000025749208,8|0,0:0|0:0,0:0:0:0:
197,137,124052,5,2,0:0:0:0:
120,151,124136,1,0,0:0:0:0:
39,166,124220,6,0,L|24:170,1,13.5,2|0,3:2|0:0,0:0:0:0:
39,166,124558,6,0,B|47:210|47:210|52:212|52:212|65:284,1,90,10|0,0:0|0:0,0:0:0:0:
258,380,124726,6,0,L|260:370,1,9,2|0,3:2|0:0,0:0:0:0:
265,297,124979,1,0,0:0:0:0:
317,291,125063,1,0,0:0:0:0:
370,287,125147,1,0,0:0:0:0:
421,281,125232,2,0,L|436:280,1,13.5,10|0,0:0|0:0,0:0:0:0:
421,281,125569,6,0,B|437:210|366:163|309:196|306:201|304:208|238:221|178:156|210:78,1,337.5,2|0,3:2|0:0,0:0:0:0:
218,3,125906,6,0,L|204:113,1,90,10|0,0:0|0:0,0:0:0:0:
153,314,126074,6,0,L|149:330,1,13.5,2|0,3:2|0:0,0:0:0:0:
145,257,126411,1,0,0:0:0:0:
137,199,126496,1,0,0:0:0:0:
130,144,126580,2,0,L|128:128,1,13.5,10|0,0:0|0:0,0:0:0:0:
12,13,126917,6,0,P|24:47|66:63,1,67.5000025749208,2|0,3:2|0:0,0:0:0:0:
130,144,127086,2,0,P|165:147|198:116,1,67.5000025749208,2|0,3:2|0:0,0:0:0:0:
329,93,127254,6,0,P|349:63|338:20,1,67.5000025749208,8|0,0:0|0:0,0:0:0:0:
333,99,127423,2,0,P|312:128|323:171,1,67.5000025749208,0|0,3:0|0:0,0:0:0:0:
384,274,127591,6,0,L|387:280,3,4.5,2|0|2|0,0:0|0:0|3:2|0:0,0:0:0:0:
493,384,127928,6,0,B|478:367|454:370|450:373|448:376|411:371|399:343,1,90,8|0,0:0|0:0,0:0:0:0:
289,297,128097,2,0,B|274:314|250:311|246:307|244:305|207:310|195:338,1,90,8|0,0:0|0:0,0:0:0:0:
85,360,128265,5,8,3:0:0:0:
86,350,128350,1,8,3:0:0:0:
95,351,128434,1,8,3:0:0:0:
94,360,128518,1,8,3:0:0:0:
23,290,128602,5,8,3:0:0:0:
19,261,128687,1,8,3:0:0:0:
16,229,128771,1,8,3:0:0:0:
12,199,128855,1,8,3:0:0:0:
11,171,128940,5,8,3:0:0:0:
70,119,129024,1,8,3:0:0:0:
148,139,129108,1,8,3:0:0:0:
185,204,129192,1,8,3:0:0:0:
256,224,129277,1,8,3:0:0:0:
297,214,129361,1,8,3:0:0:0:
316,193,129445,1,8,3:0:0:0:
330,189,129529,1,8,3:0:0:0:
343,192,129614,6,0,P|387:213|405:245,1,56.25,2|0,3:2|0:0,0:0:0:0:
486,233,129782,2,0,P|477:280|450:306,1,56.25,2|0,3:2|0:0,0:0:0:0:
252,101,129951,6,0,P|328:40|448:105,1,225,8|0,0:0|0:0,0:0:0:0:
453,154,130204,1,0,0:0:0:0:
453,154,130288,6,0,B|450:132|450:132|447:125|447:125|445:105,1,45,2|0,0:0|0:0,0:0:0:0:
347,290,130456,2,0,B|345:305|345:305|342:312|342:312|339:334,1,45,0|0,3:0|0:0,0:0:0:0:
128,196,130625,6,0,B|106:190|106:190|62:200,1,67.5000025749208,10|0,0:0|0:0,0:0:0:0:
33,273,130793,2,0,B|55:279|55:279|98:268,1,67.5000025749208,2|0,0:0|0:0,0:0:0:0:
208,175,130962,6,0,P|220:127|207:93,1,56.25,2|0,3:2|0:0,0:0:0:0:
151,51,131131,2,0,P|138:98|151:132,1,56.25,2|0,3:2|0:0,0:0:0:0:
302,342,131299,6,0,P|399:259|345:184,1,225,8|0,0:0|0:0,0:0:0:0:
278,234,131552,1,0,0:0:0:0:
278,234,131636,6,0,P|299:253|317:260,1,45,2|0,0:0|0:0,0:0:0:0:
468,311,131805,2,0,L|532:302,1,45,0|0,3:0|0:0,0:0:0:0:
488,114,131973,6,0,B|342:93|342:93|341:89|341:89|130:58,1,303.750011587143,8|0,0:0|0:0,0:0:0:0:
115,14,132310,6,0,P|90:56|93:92,1,56.25,2|0,3:2|0:0,0:0:0:0:
6,130,132478,2,0,P|40:164|76:171,1,56.25,2|0,3:2|0:0,0:0:0:0:
255,296,132647,6,0,B|266:244|247:203|203:179|203:179|116:190|135:293,1,225,8|0,0:0|0:0,0:0:0:0:
120,306,132900,1,0,0:0:0:0:
120,306,132984,6,0,B|123:284|123:284|126:277|126:277|128:257,1,45,2|0,0:0|0:0,0:0:0:0:
262,340,133153,2,0,B|259:318|259:318|256:311|256:311|254:291,1,45,0|0,3:0|0:0,0:0:0:0:
464,205,133322,6,0,B|435:185|435:185|396:196,1,67.5000025749208,10|0,0:0|0:0,0:0:0:0:
391,278,133490,2,0,B|420:298|420:298|459:287,1,67.5000025749208,2|0,0:0|0:0,0:0:0:0:
480,113,133659,6,0,P|434:96|398:106,1,56.25,2|0,3:2|0:0,0:0:0:0:
362,0,133827,2,0,P|335:39|335:77,1,56.25,2|0,3:2|0:0,0:0:0:0:
176,220,133996,6,0,B|208:238|285:202|243:155|301:102|357:127,1,225,8|0,0:0|0:0,0:0:0:0:
406,197,134249,1,0,0:0:0:0:
406,197,134333,6,0,P|382:208|355:204,1,45,2|0,0:0|0:0,0:0:0:0:
172,127,134501,2,0,P|152:111|126:112,1,45,0|0,3:0|0:0,0:0:0:0:
97,332,134670,6,0,L|95:345,1,13.5,8|0,0:0|0:0,0:0:0:0:
93,324,135007,6,0,P|93:295|116:254,1,45,2|0,3:2|0:0,0:0:0:0:
29,198,135175,2,0,P|53:184|100:183,1,45,2|0,3:2|0:0,0:0:0:0:
174,87,135344,6,0,P|253:111|235:205,1,180,8|0,0:0|0:0,0:0:0:0:
219,209,135597,1,0,0:0:0:0:
219,209,135681,6,0,P|223:186|245:167,1,36,2|0,0:0|0:0,0:0:0:0:
387,200,135850,2,0,P|383:222|360:242,1,36,0|0,3:0|0:0,0:0:0:0:
227,351,136018,6,0,B|248:338|248:338|288:346,1,56.25,10|0,0:0|0:0,0:0:0:0:
386,356,136187,2,0,B|407:369|407:369|447:361,1,56.25,2|0,0:0|0:0,0:0:0:0:
512,131,136355,6,0,P|483:131|442:154,1,45,2|0,3:2|0:0,0:0:0:0:
396,50,136523,2,0,P|382:74|381:121,1,45,2|0,3:2|0:0,0:0:0:0:
294,259,136692,6,0,B|329:280|329:280|362:260|362:260|379:242|379:242|413:218|413:218|476:248,1,180,8|0,0:0|0:0,0:0:0:0:
478,266,136945,1,0,2:0:0:0:
478,266,137029,6,0,L|419:238,1,36,2|0,2:0|2:0,2:0:0:0:
297,142,137198,2,0,L|312:174,1,36,0|0,3:0|2:0,2:0:0:0:
146,319,137367,6,0,B|170:333|188:344|188:344|178:228|178:228|179:220|179:220|167:74,1,270,8|0,0:0|0:0,0:0:0:0:
166,32,137704,6,0,P|194:39|227:72,1,45,2|0,3:2|0:0,0:0:0:0:
292,8,137872,2,0,P|299:34|288:80,1,45,2|0,3:2|0:0,0:0:0:0:
379,198,138041,6,0,P|285:187|350:147,1,180,8|0,0:0|0:0,0:0:0:0:
297,142,138294,1,0,0:0:0:0:
297,141,138378,6,0,P|284:153|278:170,1,36,2|0,0:0|0:0,0:0:0:0:
170,168,138546,2,0,P|174:185|186:198,1,36,0|0,3:0|0:0,0:0:0:0:
165,292,138715,2,0,P|182:296|199:293,1,36,10|0,0:0|0:0,0:0:0:0:
295,246,138883,6,0,L|309:245,1,13.5
288,253,139220,6,0,P|277:249|266:248,1,13.4999995880127,2|0,3:2|0:0,0:0:0:0:
255,376,139389,6,0,P|246:354|244:332,1,26.9999991760254,8|0,0:0|0:0,0:0:0:0:
139,322,139558,2,0,P|157:298|180:280,1,40.4999987640381,2|0,0:0|0:0,0:0:0:0:
117,158,139726,2,0,P|153:161|185:175,1,53.9999983520508,2|0,0:0|0:0,0:0:0:0:
228,23,139895,2,0,P|245:60|251:100,1,67.5000025749208,2|0,3:2|0:0,0:0:0:0:
356,102,140063,6,0,L|351:117,1,13.5,8|0,0:0|0:0,0:0:0:0:
363,95,140400,6,0,P|383:86|421:92,1,36,2|0,3:2|0:0,0:0:0:0:
449,18,140569,2,0,P|469:25|492:56,1,36,2|0,3:2|0:0,0:0:0:0:
509,217,140737,6,0,B|477:186|454:180|454:180|419:185|356:222,1,135.000005149842,8|0,0:0|0:0,0:0:0:0:
381,226,140990,1,0,0:0:0:0:
380,226,141074,6,0,P|396:220|409:207,1,26.9999991760254,2|0,0:0|0:0,0:0:0:0:
289,167,141243,2,0,P|272:172|259:185,1,26.9999991760254,0|0,3:0|0:0,0:0:0:0:
163,347,141411,6,0,P|198:356|234:344,1,45,10|0,0:0|0:0,0:0:0:0:
220,261,141580,2,0,P|185:252|149:264,1,45,2|0,0:0|0:0,0:0:0:0:
78,290,141749,6,0,P|69:270|75:232,1,36,2|0,3:2|0:0,0:0:0:0:
1,204,141917,2,0,P|8:183|39:160,1,36,2|0,3:2|0:0,0:0:0:0:
194,72,142086,6,0,B|158:58|148:30|148:30|161:69|122:157,1,161.999995056153,8|0,2:0|2:0,2:0:0:0:
119,142,142338,1,0,2:0:0:0:
119,142,142423,6,0,P|123:122|124:102,1,26.9999991760254,2|0,2:0|2:0,2:0:0:0:
60,41,142591,2,0,P|56:61|54:80,1,26.9999991760254,0|0,3:0|2:0,2:0:0:0:
214,153,142760,6,0,B|254:178|254:178|302:171|302:171|321:152|321:152|348:143|348:143|402:147|402:147|462:231,1,236.250002253056,8|0,0:0|0:0,0:0:0:0:
443,230,143097,6,0,P|445:208|428:173,1,36,2|0,3:2|0:0,0:0:0:0:
489,125,143266,2,0,P|475:107|439:95,1,36,2|0,3:2|0:0,0:0:0:0:
359,222,143434,6,0,B|352:298|352:298|354:302|354:302|346:390,1,135.000005149842,8|0,0:0|0:0,0:0:0:0:
335,369,143687,1,0,2:0:0:0:
335,369,143771,6,0,L|337:323,1,26.9999991760254,2|0,2:0|2:0,2:0:0:0:
226,169,143940,2,0,L|227:195,1,26.9999991760254,0|0,3:0|2:0,2:0:0:0:
85,360,144108,6,0,P|58:357|20:337,1,45,10|0,0:0|0:0,0:0:0:0:
58,255,144277,2,0,P|84:257|122:277,1,45,2|0,0:0|0:0,0:0:0:0:
234,384,144445,6,0,P|249:368|257:330,1,36,2|0,3:2|0:0,0:0:0:0:
334,329,144614,2,0,P|334:307|313:274,1,36,2|0,3:2|0:0,0:0:0:0:
429,113,144782,6,0,B|397:84|291:146|368:230,1,135.000005149842,8|0,0:0|0:0,0:0:0:0:
422,227,145035,1,0,2:0:0:0:
422,227,145119,6,0,L|427:177,1,26.9999991760254,2|0,2:0|2:0,2:0:0:0:
286,72,145288,2,0,L|283:46,1,26.9999991760254,0|0,3:0|2:0,2:0:0:0:
232,229,145456,6,0,L|230:244,1,13.5,8|0,0:0|0:0,0:0:0:0:
239,222,145793,6,0,P|230:194|196:161,1,45,2|0,3:2|0:0,0:0:0:0:
196,78,145961,2,0,P|168:71|123:84,1,45,2|0,3:2|0:0,0:0:0:0:
0,199,146131,6,0,B|58:201|58:201|78:176|78:176|89:167|89:167|108:145|108:145|174:149,1,180,8|0,0:0|0:0,0:0:0:0:
170,162,146384,1,0,2:0:0:0:
170,162,146468,6,0,L|124:159,1,36,2|0,2:0|2:0,2:0:0:0:
15,281,146636,2,0,L|60:283,1,36,0|0,3:0|2:0,2:0:0:0:
211,351,146805,6,0,P|249:354|277:334,1,56.25,10|0,0:0|0:0,0:0:0:0:
313,266,146973,2,0,P|351:262|379:282,1,56.25,2|0,0:0|0:0,0:0:0:0:
465,351,147142,6,0,P|469:322|453:278,1,45,2|0,3:2|0:0,0:0:0:0:
512,210,147310,2,0,P|490:192|444:184,1,45,2|0,3:2|0:0,0:0:0:0:
350,88,147479,6,0,B|328:109|339:166|386:155|414:213|382:252,1,180,8|0,0:0|0:0,0:0:0:0:
366,269,147732,1,0,0:0:0:0:
366,269,147816,6,0,P|363:245|380:221,1,36,2|0,0:0|0:0,0:0:0:0:
444,68,147984,2,0,P|446:91|429:115,1,36,0|0,3:0|0:0,0:0:0:0:
224,205,148153,6,0,L|209:203,1,13.5,8|0,0:0|0:0,0:0:0:0:
231,212,148490,6,0,P|245:207|263:189,1,36,2|0,3:2|0:0,0:0:0:0:
228,103,148658,2,0,P|233:78|222:38,1,36,2|0,3:2|0:0,0:0:0:0:
39,131,148827,6,0,P|52:173|148:165,1,135.000005149842,8|0,0:0|0:0,0:0:0:0:
146,165,149080,1,0,0:0:0:0:
146,165,149164,6,0,P|122:162|98:179,1,40.4999987640381,2|0,0:0|0:0,0:0:0:0:
44,255,149333,6,0,P|35:276|45:304,1,53.9999983520508,2|0,3:2|0:0,0:0:0:0:
136,362,149501,6,0,P|166:364|197:343,1,67.5000025749208,10|0,0:2|0:0,0:0:0:0:
233,241,149670,1,0,0:0:0:0:
233,241,150007,6,0,P|282:237|334:256,1,67.5000025749208,2|0,0:0|0:0,0:0:0:0:
239,340,150175,2,0,P|272:344|305:340,1,67.5000025749208,2|0,0:0|0:0,0:0:0:0:
416,170,150344,6,0,L|408:241,1,53.9999983520508,2|0,0:0|0:0,0:0:0:0:
425,384,150513,2,0,L|416:328,1,53.9999983520508,2|0,0:0|0:0,0:0:0:0:
494,269,150681,6,0,L|503:213,1,53.9999983520508,2|0,0:0|0:0,0:0:0:0:
413,43,150850,6,0,L|411:27,1,13.5,2|0,0:0|0:0,0:0:0:0:
469,117,151187,5,2,3:2:0:0:
406,93,151271,1,2,0:2:0:0:
336,94,151355,1,2,3:2:0:0:
274,128,151440,1,2,0:2:0:0:
245,189,151524,5,10,0:2:0:0:
298,188,151608,1,2,0:2:0:0:
353,206,151692,1,2,0:2:0:0:
393,248,151777,1,2,0:2:0:0:
436,270,151861,5,2,0:2:0:0:
390,289,151945,1,2,0:2:0:0:
361,314,152029,1,2,3:2:0:0:
324,329,152114,1,2,0:2:0:0:
258,376,152198,5,8,0:2:0:0:
251,372,152282,1,0,0:2:0:0:
254,368,152367,1,0,0:2:0:0:
259,370,152451,1,0,0:2:0:0:
254,296,152535,5,2,3:2:0:0:
210,233,152619,1,2,0:2:0:0:
134,210,152704,1,2,3:2:0:0:
59,225,152788,1,2,0:2:0:0:
17,282,152872,5,10,0:2:0:0:
63,247,152956,1,2,0:2:0:0:
80,195,153041,1,2,0:2:0:0:
76,137,153125,1,2,0:2:0:0:
49,85,153209,5,2,0:2:0:0:
64,114,153293,1,2,0:2:0:0:
96,130,153378,1,2,3:2:0:0:
128,128,153462,1,2,0:2:0:0:
195,56,153546,6,0,L|198:43,1,13.5,10|0,0:0|0:0,0:0:0:0:
200,132,153883,5,2,3:2:0:0:
261,178,153968,1,2,0:2:0:0:
339,189,154052,1,2,3:2:0:0:
412,166,154136,1,2,0:2:0:0:
461,103,154220,5,10,0:2:0:0:
434,145,154305,1,2,0:2:0:0:
429,201,154389,1,2,0:2:0:0:
449,251,154473,1,2,0:2:0:0:
443,299,154558,5,2,0:2:0:0:
419,280,154642,1,2,0:2:0:0:
393,272,154726,1,2,3:2:0:0:
371,272,154810,1,2,0:2:0:0:
312,325,154895,5,8,0:2:0:0:
320,330,154979,1,0,0:2:0:0:
327,340,155063,1,0,0:2:0:0:
329,351,155147,1,0,0:2:0:0:
263,384,155232,5,2,3:2:0:0:
193,366,155316,1,2,0:2:0:0:
165,297,155400,1,2,3:2:0:0:
191,229,155484,1,2,0:2:0:0:
259,205,155569,5,10,0:2:0:0:
312,189,155653,1,2,0:2:0:0:
340,143,155737,1,2,0:2:0:0:
337,87,155822,1,2,0:2:0:0:
294,31,155906,5,2,0:0:0:0:
272,40,155990,1,2,0:0:0:0:
248,37,156074,1,2,3:2:0:0:
228,45,156159,1,2,0:0:0:0:
225,105,156243,5,10,0:2:0:0:
180,149,156327,1,2,0:2:0:0:
120,148,156411,1,2,0:2:0:0:
70,115,156496,1,2,0:2:0:0:
57,58,156580,6,0,B|52:34|52:34|54:34|54:34|45:-12,1,45,2|0,3:2|0:0,0:0:0:0:
126,0,156749,2,0,B|130:23|130:23|129:24|129:24|138:70,1,45,2|0,3:2|0:0,0:0:0:0:
39,208,156917,6,0,B|20:191|-12:181|-12:181|2:170|30:164,1,90,10|0,0:0|0:0,0:0:0:0:
189,269,157086,5,2,0:2:0:0:
164,317,157170,1,2,0:2:0:0:
123,335,157254,1,2,0:2:0:0:
91,336,157338,1,2,0:2:0:0:
72,328,157423,1,2,3:2:0:0:
59,328,157507,1,2,0:2:0:0:
52,332,157591,6,0,B|84:325|84:325|88:326|88:326|166:308,1,67.5000025749208,10|0,0:0|0:0,0:0:0:0:
247,364,157760,2,0,B|287:370|287:370|290:369|290:369|335:375,1,67.5000025749208,2|0,0:2|0:0,0:0:0:0:
438,296,157928,5,2,3:2:0:0:
439,222,158013,1,2,0:2:0:0:
387,163,158097,1,2,3:2:0:0:
312,148,158181,1,2,0:2:0:0:
242,172,158265,5,10,0:2:0:0:
289,156,158350,1,2,0:2:0:0:
321,114,158434,1,2,0:2:0:0:
327,69,158518,1,2,0:2:0:0:
309,22,158602,5,2,0:2:0:0:
324,46,158687,1,2,0:2:0:0:
347,64,158771,1,2,3:2:0:0:
371,70,158855,1,2,0:2:0:0:
394,66,158940,6,0,B|424:55|424:55|428:56|428:56|468:41,1,67.5000025749208,10|0,0:0|0:0,0:0:0:0:
152,166,159108,2,0,L|86:150,1,45,2|0,0:0|0:0,0:0:0:0:
90,81,159277,6,0,B|97:115|97:115|99:118|99:118|112:179,1,67.5000025749208,2|0,3:2|0:0,0:0:0:0:
53,287,159445,2,0,B|66:255|66:255|66:251|66:251|91:194,1,67.5000025749208,2|0,3:2|0:0,0:0:0:0:
94,68,159614,6,0,P|133:40|187:54,1,90,10|0,0:0|0:0,0:0:0:0:
286,1,159782,2,0,P|324:29|328:85,1,90,2|0,0:0|0:0,0:0:0:0:
409,161,159951,6,0,P|393:206|341:226,1,90,2|0,0:0|0:0,0:0:0:0:
295,296,160119,2,0,P|310:250|362:230,1,90,2|0,3:2|0:0,0:0:0:0:
512,276,160288,1,10,0:2:0:0:
245,144,160456,1,2,0:2:0:0:
313,375,160625,1,0,3:2:0:0:
313,375,160793,6,0,B|332:369|359:377|359:377|354:361|363:340|350:312|324:288,1,90,2|0,3:2|0:0,0:0:0:0:
236,95,160962,2,0,B|223:111|196:120|196:120|210:130|216:152|242:167|277:171,1,90,10|0,0:0|0:0,0:0:0:0:
468,259,161131,2,0,B|468:238|484:215|484:215|467:214|450:200|419:204|389:221,1,90,2|0,0:0|0:0,0:0:0:0:
179,245,161299,2,0,B|190:262|191:290|191:290|205:280|227:281|250:261|264:229,1,90,2|0,0:0|0:0,0:0:0:0:
415,106,161468,2,0,B|395:99|378:76|378:76|372:92|353:104|347:134|354:168,1,90,2|0,3:2|0:0,0:0:0:0:
329,220,161636,5,10,0:2:0:0:
334,228,161720,1,2,0:2:0:0:
342,223,161805,1,2,0:2:0:0:
336,215,161889,1,2,0:2:0:0:
278,157,161973,5,2,3:2:0:0:
200,141,162058,1,2,0:2:0:0:
124,163,162142,1,2,3:2:0:0:
51,133,162226,1,2,0:2:0:0:
23,65,162310,5,10,0:2:0:0:
47,108,162395,1,2,0:2:0:0:
33,146,162479,1,2,0:2:0:0:
57,191,162563,1,2,0:2:0:0:
114,245,162647,5,2,0:2:0:0:
98,270,162732,1,2,0:2:0:0:
107,293,162816,1,2,3:2:0:0:
92,320,162900,1,2,0:2:0:0:
21,374,162984,5,8,0:2:0:0:
12,365,163069,1,0,0:2:0:0:
21,358,163153,1,0,0:2:0:0:
11,350,163237,1,0,0:2:0:0:
33,279,163322,5,2,3:2:0:0:
108,257,163406,1,2,0:2:0:0:
179,288,163490,1,2,3:2:0:0:
238,341,163574,1,2,0:2:0:0:
312,337,163659,5,10,0:2:0:0:
335,295,163743,1,2,0:2:0:0:
327,261,163827,1,2,0:2:0:0:
353,225,163911,1,2,0:2:0:0:
316,147,163996,5,2,0:2:0:0:
301,122,164080,1,2,0:2:0:0:
312,97,164164,1,2,3:2:0:0:
298,76,164248,1,2,0:2:0:0:
394,17,164333,6,0,L|396:3,1,13.5,10|0,0:0|0:0,0:0:0:0:
459,104,164670,5,2,3:2:0:0:
385,92,164754,1,2,0:2:0:0:
311,82,164838,1,2,3:2:0:0:
240,72,164923,1,2,0:2:0:0:
174,35,165007,5,10,0:2:0:0:
164,69,165091,1,2,0:2:0:0:
169,103,165176,1,2,0:2:0:0:
158,136,165260,1,2,0:2:0:0:
81,153,165344,5,2,0:2:0:0:
67,162,165428,1,2,0:2:0:0:
49,158,165513,1,2,3:2:0:0:
35,166,165597,1,2,0:2:0:0:
17,250,165681,5,8,0:2:0:0:
20,242,165765,1,0,0:2:0:0:
13,239,165850,1,0,0:2:0:0:
9,245,165934,1,0,0:2:0:0:
76,314,166018,5,2,3:2:0:0:
144,349,166102,1,2,0:2:0:0:
220,353,166187,1,2,3:2:0:0:
293,330,166271,1,2,0:2:0:0:
361,315,166355,5,10,0:2:0:0:
308,308,166440,1,2,0:2:0:0:
270,270,166524,1,2,0:2:0:0:
239,229,166608,1,2,0:2:0:0:
196,215,166692,5,2,0:2:0:0:
217,200,166777,1,2,0:2:0:0:
255,204,166861,1,2,3:2:0:0:
276,185,166945,1,2,0:2:0:0:
264,122,167029,5,10,0:2:0:0:
285,61,167114,1,2,0:2:0:0:
345,38,167198,1,2,0:2:0:0:
407,53,167282,1,2,0:2:0:0:
427,108,167367,6,0,B|393:118|393:118|391:120|391:120|338:134,1,67.5000025749208,2|0,3:2|0:0,0:0:0:0:
209,44,167535,2,0,B|179:41|179:41|177:40|177:40|142:35,1,67.5000025749208,2|0,3:2|0:0,0:0:0:0:
16,154,167704,5,10,0:2:0:0:
60,161,167788,1,2,0:2:0:0:
105,141,167872,1,2,0:2:0:0:
154,148,167956,1,2,0:2:0:0:
131,246,168041,5,2,0:2:0:0:
102,241,168125,1,2,0:2:0:0:
76,253,168209,1,2,3:2:0:0:
51,248,168293,1,2,0:2:0:0:
100,344,168378,5,8,0:2:0:0:
104,339,168462,1,0,0:2:0:0:
101,334,168546,1,0,0:2:0:0:
96,338,168631,1,0,0:2:0:0:
130,267,168715,5,2,3:2:0:0:
200,235,168799,1,2,0:2:0:0:
276,242,168883,1,2,3:2:0:0:
336,287,168968,1,2,0:2:0:0:
363,357,169052,5,10,0:2:0:0:
335,319,169136,1,2,0:2:0:0:
331,270,169220,1,2,0:2:0:0:
347,225,169305,1,2,0:2:0:0:
382,194,169389,5,2,0:2:0:0:
365,213,169473,1,2,0:2:0:0:
327,220,169558,1,2,3:2:0:0:
309,211,169642,1,2,0:2:0:0:
272,127,169726,6,0,L|269:112,1,13.5,10|0,0:0|0:0,0:0:0:0:
142,60,170063,6,0,B|157:46|173:49|176:52|181:54|198:56|217:38,1,67.5000025749208,2|0,3:2|0:0,0:0:0:0:
356,15,170232,2,0,B|341:29|325:26|322:23|317:21|300:19|281:37,1,67.5000025749208,2|0,3:2|0:0,0:0:0:0:
55,138,170400,5,10,0:2:0:0:
47,131,170484,1,2,0:2:0:0:
38,136,170569,1,2,0:2:0:0:
31,130,170653,1,2,0:2:0:0:
34,242,170737,6,0,P|67:267|80:266,1,45,2|0,0:0|0:0,0:0:0:0:
143,355,170906,2,0,P|179:335|186:313,1,67.5000025749208,2|0,3:2|0:0,0:0:0:0:
304,313,171074,2,0,P|299:255|276:234,1,90,10|0,0:0|0:0,0:0:0:0:
167,187,171243,5,2,0:0:0:0:
466,343,171411,2,0,L|476:339,1,9,0|2,0:0|0:0,0:0:0:0:
376,366,171749,6,0,L|333:379,1,33.7500012874604,2|0,0:0|0:0,0:0:0:0:
477,251,171917,1,2,0:0:0:0:
481,232,172001,1,0,0:0:0:0:
485,213,172086,2,0,L|492:175,1,33.7500012874604,2|0,0:0|0:0,0:0:0:0:
407,128,172254,2,0,L|404:93,1,33.7500012874604,2|0,0:0|0:0,0:0:0:0:
304,60,172423,5,0,0:0:0:0:
269,63,172507,1,0,0:0:0:0:
234,66,172591,1,0,0:0:0:0:
198,73,172675,1,0,0:0:0:0:
168,76,172760,6,0,B|137:37|54:11|-12:49|-50:116|-41:241|82:280|162:217|162:217|222:178|256:234|259:261|236:298|141:343|111:309|90:343|90:343|130:315|192:312|210:360|257:359,1,921.6,2|2,0:0|0:0,0:0:0:0:
325,354,178322,6,0,L|325:368,1,13.5,2|0,0:0|0:0,0:0:0:0:
332,347,178659,6,0,P|334:323|345:301,1,45,2|0,0:0|0:0,0:0:0:0:
413,264,178827,2,0,P|410:240|399:219,1,26.9999991760254,2|0,0:0|0:0,0:0:0:0:
351,186,178996,6,0,L|351:172,1,13.5,2|0,0:0|0:0,0:0:0:0:
344,193,179333,6,0,P|320:190|299:179,1,45,2|0,0:0|0:0,0:0:0:0:
273,112,179501,2,0,P|249:114|228:125,1,26.9999991760254,2|0,0:0|0:0,0:0:0:0:
183,164,179670,6,0,L|169:164,1,13.5,2|0,0:0|0:0,0:0:0:0:
190,171,180007,6,0,P|199:192|201:216,1,45,2|0,0:0|0:0,0:0:0:0:
158,276,180175,2,0,P|172:294|192:308,1,26.9999991760254,2|0,0:0|0:0,0:0:0:0:
213,367,180344,6,0,L|206:380,1,13.5,2|0,0:0|0:0,0:0:0:0:
220,360,180681,6,0,L|290:366,1,45,2|0,0:0|0:0,0:0:0:0:
333,383,180850,2,0,L|359:380,1,26.9999991760254,2|0,0:0|0:0,0:0:0:0:
432,341,181018,6,0,L|438:352,1,13.5,2|0,0:0|0:0,0:0:0:0:
425,335,181355,6,0,L|431:265,1,45,2|0,0:0|0:0,0:0:0:0:
485,232,181524,2,0,L|481:185,1,26.9999991760254,2|0,0:0|0:0,0:0:0:0:
452,133,181692,6,0,L|463:126,1,13.5,2|0,0:0|0:0,0:0:0:0:
445,140,182029,6,0,L|375:134,1,45,2|0,0:0|0:0,0:0:0:0:
349,76,182198,2,0,L|304:79,1,26.9999991760254,2|0,0:0|0:0,0:0:0:0:
261,131,182367,6,0,L|254:119,1,13.5,2|0,0:0|0:0,0:0:0:0:
268,138,182704,6,0,L|198:132,1,45,2|0,0:0|0:0,0:0:0:0:
145,99,182872,2,0,L|148:143,1,26.9999991760254,2|0,0:0|0:0,0:0:0:0:
106,206,183041,6,0,L|110:218,1,13.5,2|0,0:0|0:0,0:0:0:0:
97,200,183378,6,0,P|80:174|56:158,1,45,2|0,0:0|0:0,0:0:0:0:
224,260,183546,6,0,B|284:269|316:237|320:232|324:229|370:164|487:203|526:179|526:179|449:213|393:335|396:363|396:363|386:299|371:282|302:258,1,697.5,2|2,0:0|0:0,0:0:0:0:
187,338,188940,6,0,L|83:347,1,90,2|0,0:0|0:0,0:0:0:0:
98,346,189445,6,0,L|97:362,1,13.5,2|0,0:0|0:0,0:0:0:0:
100,336,189782,6,0,L|102:295,1,26.9999991760254,2|0,0:0|0:0,0:0:0:0:
62,195,189951,6,0,L|82:208,1,13.4999995880127,2|0,0:0|0:0,0:0:0:0:
65,205,190119,2,0,L|77:182,1,13.4999995880127,2|0,0:0|0:0,0:0:0:0:
173,100,190288,6,0,L|262:92,1,90,2|0,0:0|0:0,0:0:0:0:
351,94,190793,6,0,L|351:80,1,13.5,2|0,0:0|0:0,0:0:0:0:
344,101,191131,6,0,L|342:127,1,26.9999991760254,2|0,0:0|0:0,0:0:0:0:
418,216,191299,6,0,L|401:226,1,11.25,2|0,0:0|0:0,0:0:0:0:
411,223,191468,2,0,L|405:213,1,11.25,2|0,0:0|0:0,0:0:0:0:
394,341,191636,6,0,B|368:333|368:333|326:341,1,67.4999979400635,2|0,0:0|0:0,0:0:0:0:
262,384,192142,6,0,L|220:378,1,33.75,2|0,0:0|0:0,0:0:0:0:
169,331,192479,1,2,0:0:0:0:
248,277,192647,6,0,B|249:245|249:245|260:229|260:229|261:167|261:167|253:157|253:157|252:83,1,191.25,2|0,0:0|0:0,0:0:0:0:
242,89,194164,1,0,0:0:0:0:
410,138,194333,6,0,L|506:142,2,67.5000025749208,2|0|2,3:2|0:0|0:0,0:0:0:0:
401,132,194838,1,0,3:2:0:0:
382,255,195007,2,0,B|378:293|378:293|373:293|373:293|366:356,1,94.4999971160889,2|0,0:0|0:0,0:0:0:0:
372,355,195681,6,0,L|297:346,2,67.5000025749208,2|0|2,3:2|0:0|0:0,0:0:0:0:
377,365,196187,1,0,3:2:0:0:
217,334,196355,2,0,B|181:329|181:329|171:332|171:332|115:324,1,94.4999971160889,2|0,0:0|0:0,0:0:0:0:
118,332,197029,6,0,L|105:260,2,67.5000025749208,2|0|2,3:2|0:0|0:0,0:0:0:0:
111,337,197535,1,0,3:2:0:0:
196,228,197704,2,0,B|201:190|201:190|199:185|199:185|206:127,1,94.4999971160889,2|0,0:0|0:0,0:0:0:0:
198,129,198378,6,0,L|266:120,2,67.5000025749208,2|0|2,3:2|0:0|0:0,0:0:0:0:
189,123,198883,5,0,3:0:0:0:
326,203,199052,2,0,P|391:199|412:142,1,101.250003862381,2|0,0:0|0:0,0:0:0:0:
502,96,199389,2,0,P|434:112|412:169,1,135,2|0,0:0|0:0,0:0:0:0:
476,230,199726,6,0,P|493:209|492:173,1,45,2|0,3:2|0:0,0:0:0:0:
423,26,199895,2,0,B|408:10|391:12|383:3|383:3|387:13|376:28|385:50,2,90,0|2|0,0:0|0:0|3:0,0:0:0:0:
332,109,200400,1,2,0:0:0:0:
332,109,200484,1,0,0:0:0:0:
332,109,200569,1,0,0:0:0:0:
217,32,200737,2,0,B|169:43|169:43|165:41|165:41|112:53,1,101.250003862381,2|0,0:0|0:0,0:0:0:0:
107,47,201074,6,0,L|96:93,1,45,2|0,3:2|0:0,0:0:0:0:
31,197,201243,2,0,B|31:221|45:239|50:238|56:239|72:249|70:282,2,90,0|2|0,0:0|0:0|3:0,0:0:0:0:
72,360,201749,1,2,0:0:0:0:
72,360,201833,1,0,0:0:0:0:
72,360,201917,1,0,0:0:0:0:
158,256,202086,2,0,P|224:236|287:281,1,135,2|0,0:0|0:0,0:0:0:0:
293,320,202423,6,0,L|277:256,1,45,2|0,3:2|0:0,0:0:0:0:
368,164,202591,2,0,B|391:154|406:137|406:137|412:161|431:180,2,90,0|2|0,0:0|0:0|3:0,0:0:0:0:
479,69,203097,1,2,0:0:0:0:
479,69,203181,1,0,0:0:0:0:
479,69,203265,1,0,0:0:0:0:
289,160,203434,2,0,B|249:169|226:148|223:141|222:135|191:107|132:133,1,135,2|0,0:0|0:0,0:0:0:0:
140,87,203771,6,0,L|152:144,1,45,2|0,3:2|0:0,0:0:0:0:
161,259,203940,2,0,B|157:284|157:284|148:297|148:297|143:296|143:296|134:308|134:308|129:339,2,90,0|2|0,0:0|0:0|3:0,0:0:0:0:
59,154,204445,1,2,0:0:0:0:
59,154,204529,1,0,0:0:0:0:
59,154,204614,1,0,0:0:0:0:
239,273,204782,2,0,B|260:291|290:286|300:276|302:270|305:265|350:250|369:275,1,135,2|0,0:0|0:0,0:0:0:0:
372,280,205119,6,0,B|381:235|381:235|384:232|384:232|397:161,2,90,2|0|2,3:2|0:0|0:0,0:0:0:0:
378,290,205625,5,0,3:0:0:0:
283,166,205793,2,0,L|267:60,1,101.250003862381,2|0,0:0|0:0,0:0:0:0:
197,40,206130,1,2,0:0:0:0:
197,40,206299,1,0,0:0:0:0:
371,111,206468,6,0,B|403:116|419:103|421:101|423:98|444:82|483:93,2,107.999996704102,2|0|2,3:2|0:0|0:0,0:0:0:0:
361,120,206973,1,0,3:0:0:0:
215,206,207142,2,0,B|164:214|150:179|149:173|147:166|117:131|55:152,1,161.999995056153,2|0,0:0|0:0,0:0:0:0:
14,197,207479,1,2,0:0:0:0:
14,197,207647,1,0,0:0:0:0:
0,44,207816,6,0,L|0:37,3,4.5,2|0|0|0,3:2|0:0|0:0|0:0,0:0:0:0:
105,39,208153,2,0,L|101:7,3,18,2|0|0|0,0:0|0:0|3:0|0:0,0:0:0:0:
208,31,208490,2,0,L|201:-21,3,31.4999990386963,2|0|0|0,0:0|0:0|0:0|0:0,0:0:0:0:
159,142,208827,5,2,0:0:0:0:
159,142,208911,1,0,0:0:0:0:
159,142,208996,2,0,L|125:124,1,31.4999990386963
272,199,209164,6,0,B|329:189|329:189|333:186|333:186|428:170,1,116.999994644165,2|0,3:2|0:0,0:0:0:0:
462,166,209417,5,0,0:0:0:0:
462,166,209501,2,0,L|471:114,3,31.4999990386963,2|0|0|0,0:0|0:0|3:0|0:0,0:0:0:0:
371,162,209838,2,0,L|379:108,3,45,2|0|0|0,0:0|0:0|0:0|0:0,0:0:0:0:
279,159,210175,2,0,B|281:132|281:132|283:129|283:129|285:100,3,58.4999973220826,2|0|0|0,0:0|0:0|0:0|0:0,0:0:0:0:
220,36,210513,5,2,3:2:0:0:
213,32,210597,1,0,0:0:0:0:
217,27,210681,1,0,0:0:0:0:
222,30,210766,1,0,0:0:0:0:
151,106,210850,6,0,L|74:95,1,58.4999973220826,2|0,0:0|0:0,0:0:0:0:
35,89,211018,2,0,L|112:100,1,58.4999973220826,0|0,3:0|0:0,0:0:0:0:
350,36,211187,6,0,L|394:24,3,33.7500012874604,2|0|0|0,0:0|0:0|0:0|0:0,0:0:0:0:
341,33,211524,2,0,P|316:66|319:81,1,45,2|0,0:0|0:0,0:0:0:0:
264,144,211692,2,0,P|283:180|298:184,1,58.4999973220826
343,281,211861,6,0,P|394:278|406:263,1,72,2|0,3:2|0:0,0:0:0:0:
467,250,212029,2,0,P|415:252|403:267,1,72
335,336,212198,6,0,P|376:289|374:266,1,72,2|0,0:0|0:0,0:0:0:0:
476,192,212366,2,0,P|434:238|436:261,1,72,0|0,3:2|0:0,0:0:0:0:
364,384,212535,6,0,P|360:309|338:292,1,72,2|0,0:0|0:0,0:0:0:0:
446,141,212703,2,0,P|449:215|471:232,1,72
474,355,212872,5,2,3:2:0:0:
481,358,212956,1,0,0:0:0:0:
484,351,213040,1,0,3:0:0:0:
478,348,213125,1,0,0:0:0:0:
392,318,213209,6,0,B|373:312|359:322|354:325|351:328|337:336|302:314,1,72,2|0,3:2|0:0,0:0:0:0:
174,327,213378,2,0,B|193:333|207:323|211:319|215:317|229:309|264:331,1,72,0|0,3:0|0:0,0:0:0:0:
374,177,213546,6,0,B|354:182|349:199|347:204|346:208|339:223|297:225,1,76.5000014591217,2|0,1:0|0:0,0:0:0:0:
170,341,213715,2,0,B|189:335|194:318|196:313|197:309|204:294|246:292,1,76.5000014591217,0|0,3:0|0:0,0:0:0:0:
262,63,213883,6,0,B|249:78|254:95|255:100|257:104|260:120|227:146,1,80.9999975280763,2|0,3:2|0:0,0:0:0:0:
177,352,214052,2,0,B|189:336|184:319|183:314|181:310|178:294|211:268,1,80.9999975280763,0|0,1:0|0:0,0:0:0:0:
107,29,214220,6,0,B|104:48|116:60|120:64|123:67|134:80|118:118,1,85.4999977169037,2|0,3:2|0:0,0:0:0:0:
190,352,214389,2,0,B|192:332|180:320|176:316|173:313|162:300|178:262,1,85.4999977169037,0|0,3:0|0:0,0:0:0:0:
0,38,214558,5,2,3:2:0:0:
0,38,214895,6,0,B|-9:54|-2:73|19:91|24:89|29:88|49:101|62:130|33:172,1,135,2|0,0:0|0:0,0:0:0:0:
4,243,215232,6,0,B|39:254|74:246|86:224|104:202|126:202|126:202|92:227|90:252|92:287,1,202.500007724762,2|0,0:0|0:0,0:0:0:0:
102,346,215569,6,0,P|89:369|98:341,1,94.499997116089,2|0,0:0|0:0,0:0:0:0:
191,270,215906,6,0,B|240:265|240:265|282:283,1,67.5000025749208,2|0,3:2|0:0,0:0:0:0:
469,384,216074,2,0,B|424:363|424:363|396:327,1,67.5000025749208,0|0,3:0|0:0,0:0:0:0:
328,84,216243,6,0,B|344:54|394:28|489:93|421:215|341:255,1,251.999992309571,8|0,0:0|0:0,0:0:0:0:
315,348,216496,1,0,0:0:0:0:
315,348,216580,1,0,0:0:0:0:
315,348,216664,1,0,0:0:0:0:
315,348,216749,2,0,P|327:303|327:285,1,36,0|0,3:0|0:0,0:0:0:0:
215,149,216917,6,0,L|212:135,1,13.5,10|0,0:0|0:0,0:0:0:0:
221,160,217254,6,0,B|179:217|98:196|129:127|48:110|-11:161,1,225,2|0,3:2|3:0,0:0:0:0:
20,250,217507,1,0,0:0:0:0:
20,250,217591,2,0,P|54:201|58:183,1,45,10|0,0:0|0:0,0:0:0:0:
163,47,217760,2,0,P|254:31|331:157,1,225,2|0,0:0|0:0,0:0:0:0:
331,217,218013,1,0,0:0:0:0:
331,217,218097,6,0,P|377:205|392:190,1,45,2|0,3:2|0:0,0:0:0:0:
495,113,218265,6,0,L|493:98,1,13.5,8|0,0:0|0:0,0:0:0:0:
488,120,218602,6,0,P|461:167|442:172,1,56.25,2|0,3:2|0:0,0:0:0:0:
512,259,218771,2,0,P|457:259|443:245,1,56.25,2|0,3:2|0:0,0:0:0:0:
191,299,218940,6,0,P|218:252|237:247,1,56.25,10|0,0:0|0:0,0:0:0:0:
167,160,219109,2,0,P|221:159|235:173,1,56.25,2|0,0:0|0:0,0:0:0:0:
396,363,219277,6,0,L|385:292,1,56.25,2|0,0:0|0:0,0:0:0:0:
390,52,219445,2,0,L|381:107,1,56.25,2|0,3:2|0:0,0:0:0:0:
281,370,219614,6,0,L|292:299,1,56.25,10|0,0:0|0:0,0:0:0:0:
274,50,219782,2,0,L|282:105,1,56.25,2|0,0:0|0:0,0:0:0:0:
141,302,219951,6,0,P|113:255|118:236,1,56.25,2|0,3:2|0:0,0:0:0:0:
38,204,220120,2,0,P|64:156|83:151,1,56.25,0|0,3:0|0:0,0:0:0:0:
236,224,220288,6,0,B|353:213|353:213|355:211|355:211|492:195,1,225,10|0,0:0|0:0,0:0:0:0:
478,177,220541,1,0,0:0:0:0:
478,177,220625,2,0,L|416:184,1,45,2|0,0:0|0:0,0:0:0:0:
337,293,220793,2,0,L|399:286,1,45,2|0,3:2|0:0,0:0:0:0:
228,129,220962,6,0,B|142:116|142:116|137:109|137:109|112:177|112:177|98:196|98:196|80:256|80:256|-5:235,1,337.5,8|0,0:0|0:0,0:0:0:0:
27,100,221299,6,0,L|33:163,1,45,2|0,3:2|0:0,0:0:0:0:
188,285,221468,2,0,L|192:240,1,45,0|0,3:0|0:0,0:0:0:0:
362,77,221636,6,0,B|335:60|312:24|312:24|340:218,1,225,8|2,0:0|0:0,0:0:0:0:
397,301,221889,1,0,0:0:0:0:
397,301,221973,1,0,0:0:0:0:
397,301,222057,1,0,0:0:0:0:
397,301,222142,2,0,P|385:256|385:238,1,36
484,120,222310,6,0,L|487:104,1,13.5,10|0,0:0|0:0,0:0:0:0:
477,127,222647,2,0,B|473:218|473:218|510:255|510:255|511:355,1,225,2|0,3:2|3:0,0:0:0:0:
512,364,222900,5,0,0:0:0:0:
512,364,222984,2,0,L|453:363,1,36,10|0,0:0|0:0,0:0:0:0:
255,287,223153,6,0,B|220:271|224:223|271:160|389:192|391:255,1,225,2|0,0:0|0:0,0:0:0:0:
377,313,223406,5,0,0:0:0:0:
377,313,223490,2,0,L|316:300,1,36,2|0,3:2|0:0,0:0:0:0:
167,152,223659,6,0,L|166:137,1,13.5,10|0,0:0|0:0,0:0:0:0:
174,160,223996,6,0,P|133:160|114:136,1,56.25,2|0,3:2|0:0,0:0:0:0:
42,139,224164,2,0,P|31:98|48:74,1,56.25,0|0,3:0|0:0,0:0:0:0:
138,55,224333,6,0,B|225:45|225:45|228:47|228:47|405:27|405:27|407:29|407:29|525:17,1,337.5,8|0,0:0|0:0,0:0:0:0:
486,7,224670,6,0,L|431:11,1,36,2|0,0:0|0:0,0:0:0:0:
333,147,224838,2,0,L|368:144,1,36,0|0,3:0|0:0,0:0:0:0:
500,287,225007,6,0,B|518:298|517:306|530:317|530:317|327:296|327:296|326:297|326:297|236:288,1,337.5,8|0,0:0|0:0,0:0:0:0:
159,254,225344,6,0,P|145:276|148:317,1,56.25,2|0,3:2|0:0,0:0:0:0:
236,132,225513,2,0,P|235:104|220:80,1,56.25,2|0,3:2|0:0,0:0:0:0:
152,246,225681,6,0,P|134:265|130:306,1,56.25,10|0,0:0|0:0,0:0:0:0:
243,140,225850,2,0,P|247:112|236:86,1,56.25,2|0,0:0|0:0,0:0:0:0:
137,150,226018,6,0,B|122:149|122:149|115:151|115:151|82:146,1,56.25,2|0,0:0|0:0,0:0:0:0:
254,243,226187,2,0,B|287:248|287:248|294:246|294:246|310:248,1,56.25,2|0,3:2|0:0,0:0:0:0:
386,112,226355,6,0,P|458:109|477:260,1,225,8|0,0:0|0:0,0:0:0:0:
417,264,226608,1,0,0:0:0:0:
417,264,226692,6,0,P|412:231|431:199,1,56.25,2|0,3:2|0:0,0:0:0:0:
378,105,226861,2,0,P|372:75|352:49,1,56.25,0|0,3:0|0:0,0:0:0:0:
512,12,227029,6,0,B|404:20|404:20|401:22|401:22|285:28,1,225,8|0,0:0|0:0,0:0:0:0:
177,107,227282,1,0,0:0:0:0:
177,107,227366,1,0,0:0:0:0:
177,107,227450,1,0,0:0:0:0:
177,107,227535,2,0,L|216:107,1,36,0|0,3:0|0:0,0:0:0:0:
306,233,227704,6,0,L|307:248,1,13.5,10|0,0:0|0:0,0:0:0:0:
313,225,228041,6,0,B|271:168|190:189|221:258|140:275|81:224,1,225,2|0,3:2|3:0,0:0:0:0:
55,167,228293,1,0,0:0:0:0:
55,167,228378,2,0,P|85:161|104:168,1,36,10|0,0:0|0:0,0:0:0:0:
322,338,228546,6,0,B|403:308|408:244|412:203|412:203|418:247|428:258,1,225,2|0,0:0|0:0,0:0:0:0:
480,333,228799,1,0,0:0:0:0:
480,333,228883,2,0,P|486:303|479:284,1,36,2|0,3:2|0:0,0:0:0:0:
383,119,229052,6,0,L|381:103,1,13.5,8|0,0:0|0:0,0:0:0:0:
390,126,229389,6,0,P|356:143|306:136,1,56.25,2|0,3:2|0:0,0:0:0:0:
178,40,229558,2,0,P|209:60|228:107,1,56.25,2|0,3:2|0:0,0:0:0:0:
214,242,229726,6,0,P|216:204|247:164,1,56.25,10|0,0:0|0:0,0:0:0:0:
185,33,229895,2,0,P|216:53|235:100,1,56.25,2|0,0:0|0:0,0:0:0:0:
334,335,230063,6,0,L|324:255,1,56.25,2|0,0:0|0:0,0:0:0:0:
130,118,230232,2,0,L|123:173,1,56.25,2|0,3:2|0:0,0:0:0:0:
104,333,230400,6,0,L|114:253,1,56.25,10|0,0:0|0:0,0:0:0:0:
303,124,230569,2,0,L|309:179,1,56.25,2|0,0:0|0:0,0:0:0:0:
262,384,230737,6,0,P|245:349|250:315,1,56.25,2|0,3:2|0:0,0:0:0:0:
409,234,230906,2,0,P|425:199|420:165,1,56.25,0|0,3:0|0:0,0:0:0:0:
337,37,231074,6,0,P|225:58|259:194,1,225,10|0,0:0|0:0,0:0:0:0:
309,181,231327,1,0,0:0:0:0:
309,181,231411,2,0,P|311:145|303:126,1,56.25,2|0,0:0|0:0,0:0:0:0:
114,62,231580,2,0,P|112:98|120:117,1,56.25,2|0,3:2|0:0,0:0:0:0:
244,260,231749,6,0,B|258:284|269:302|269:302|145:293|145:293|144:294|144:294|-2:282,1,270,10|0,0:0|0:0,0:0:0:0:
8,201,232086,6,0,L|8:187,1,13.5,2|0,3:2|0:0,0:0:0:0:
1,208,232423,6,0,P|55:205|90:189,1,67.5000025749208,8|0,0:0|0:0,0:0:0:0:
155,144,232591,2,0,P|187:135|221:136,1,67.5000025749208,2|0,3:2|0:0,0:0:0:0:
354,185,232760,5,0,0:0:0:0:
376,195,232844,1,0,0:0:0:0:
394,177,232928,1,0,0:0:0:0:
382,155,233013,1,0,0:0:0:0:
354,155,233097,2,0,P|391:241|362:352,1,202.500007724762,10|0,0:0|0:0,0:0:0:0:
280,319,233434,6,0,L|280:305,1,13.5,2|0,3:2|0:0,0:0:0:0:
287,326,233771,6,0,P|233:323|198:307,1,67.5000025749208,10|0,0:0|0:0,0:0:0:0:
135,266,233939,2,0,P|102:257|68:258,1,67.5000025749208,2|0,3:2|0:0,0:0:0:0:
31,106,234108,5,0,0:0:0:0:
41,84,234192,1,0,0:0:0:0:
23,66,234276,1,0,0:0:0:0:
1,78,234361,1,0,0:0:0:0:
4,105,234445,2,0,B|38:154|98:139|98:139|201:113,1,202.500007724762,10|0,0:0|0:0,0:0:0:0:
200,99,234782,6,0,L|217:168,1,67.5000025749208,2|0,3:2|0:0,0:0:0:0:
352,128,234951,2,0,L|415:103,1,56.25,0|0,3:0|0:0,0:0:0:0:
326,48,235119,2,0,L|310:-2,1,45,8|0,0:0|0:0,0:0:0:0:
368,328,235288,6,0,L|373:342,1,13.5,2|0,3:2|0:0,0:0:0:0:
372,322,235625,6,0,P|325:314|297:324,1,56.25,0|0,3:0|0:0,0:0:0:0:
182,377,235793,2,0,P|212:340|217:311,1,56.25,8|0,0:0|0:0,0:0:0:0:
258,214,235962,2,0,P|227:177|222:148,1,56.25,0|0,3:0|0:0,0:0:0:0:
262,48,236131,1,2,0:0:0:0:
262,48,236299,6,0,L|263:43,1,4.5,2|0,0:0|0:0,0:0:0:0:
154,9,236468,2,0,P|153:23|156:42,1,18,2|0,0:0|0:0,0:0:0:0:
33,56,236636,2,0,P|49:85|59:92,1,31.4999990386963,2|0,0:0|0:0,0:0:0:0:
0,195,236805,2,0,P|30:209|51:208,1,49.5000015106202,2|0,0:0|0:0,0:0:0:0:
76,353,236973,2,0,P|130:340|139:328,1,62.9999980773926,2|0,0:0|0:0,0:0:0:0:
279,384,237142,2,0,P|311:345|310:315,1,76.5000014591217,2|0,0:0|0:0,0:0:0:0:
351,203,237310,5,0,3:0:0:0:
305,168,237395,1,0,3:0:0:0:
246,161,237479,6,0,B|233:171|221:165|220:163|219:161|202:163|189:179,1,45,2|0,3:2|0:0,0:0:0:0:
234,158,237647,2,0,B|246:147|258:153|259:155|260:157|277:155|290:139,1,45
410,261,237816,6,0,B|440:251|445:228|443:227|442:222|450:194|498:187,1,90,8|0,0:0|0:0,0:0:0:0:
375,75,237984,2,0,B|375:42|355:30|353:32|348:32|324:16|332:-32,1,90
198,73,238153,2,0,B|167:61|149:77|150:79|149:84|125:102|82:78,1,90
135,248,238321,2,0,B|115:273|124:295|127:294|130:298|140:325|104:359,1,90,0|0,3:0|0:0,0:0:0:0:
345,365,238490,6,0,P|148:245|74:254,1,243.000000926971,10|0,0:0|0:0,0:0:0:0:
35,364,238743,1,0,0:0:0:0:
35,364,238827,6,0,P|82:367|114:329,1,90,2|0,3:2|0:0,0:0:0:0:
190,97,238996,2,0,B|181:73|159:75|153:66|153:66|154:77|142:93|159:119,1,90,0|0,3:0|0:0,0:0:0:0:
268,245,239164,6,0,B|321:260|375:219|389:177|388:172|388:170|392:137|432:102|491:115,1,270.000010299683,10|2,0:0|0:0,0:0:0:0:
487,124,239417,5,0,0:0:0:0:
489,133,239501,2,0,P|447:100|446:64,1,67.5000025749208
349,65,239670,2,0,P|350:37|365:13,1,45,2|0,3:2|0:0,0:0:0:0:
266,230,239838,6,0,B|231:250|231:250|174:240|174:240|155:222|155:222|153:212|153:212|129:195|129:195|16:204|16:204|3:202|3:202|39:217|28:244|56:255,1,364.500001390457,8|0,0:0|0:0,0:0:0:0:
32,323,240175,6,0,B|57:334|57:334|98:320|98:320|114:282,1,90,2|0,3:2|0:0,0:0:0:0:
254,153,240344,2,0,B|269:143|269:143|311:155|311:155|325:179,1,90,2|0,3:2|0:0,0:0:0:0:
401,212,240513,6,0,B|385:221|385:221|343:209|343:209|329:185,1,90,10|0,0:0|0:0,0:0:0:0:
190,21,240681,1,2,0:0:0:0:
190,21,240765,1,0,0:0:0:0:
190,21,240850,6,0,B|224:24|241:14|241:14|210:34|192:118,1,121.500000463486,2|0,0:0|0:0,0:0:0:0:
56,221,241018,2,0,B|30:198|10:196|10:196|47:198|111:141,1,121.500000463486,2|0,3:2|0:0,0:0:0:0:
265,134,241187,2,0,B|272:167|287:180|287:180|258:157|173:165,1,121.500000463486,10|0,0:0|0:0,0:0:0:0:
52,80,241355,2,0,B|65:48|61:29|61:29|70:64|144:108,1,121.500000463486,2|0,0:0|0:0,0:0:0:0:
157,254,241524,6,0,B|163:277|163:277|161:276|161:276|170:309,1,45,2|0,3:2|0:0,0:0:0:0:
164,255,241692,2,0,B|158:232|158:232|160:233|160:233|151:200,1,45,0|0,3:0|0:0,0:0:0:0:
375,200,241861,6,0,B|405:170|442:190|448:195|505:172|505:172|301:245|263:317,1,405.000015449525,10|0,0:0|0:0,0:0:0:0:
180,357,242198,1,2,0:0:0:0:
180,357,242282,1,0,0:0:0:0:
180,357,242367,2,0,L|166:293,1,45,2|0,3:2|0:0,0:0:0:0:
0,212,242535,6,0,B|111:196|111:196|112:193|112:193|273:170,1,243.000000926971,10|0,0:0|0:0,0:0:0:0:
248,168,242788,1,0,0:0:0:0:
260,157,242872,6,0,B|283:157|283:157|309:191|309:191|299:247,1,90,2|0,3:2|2:0,0:0:0:0:
323,354,243041,2,0,B|299:353|299:353|273:319|273:319|283:263,1,90,0|0,3:0|2:0,0:0:0:0:
441,74,243209,6,0,B|447:44|472:27|511:15|511:15|464:52|461:99|462:105|461:111|452:160|383:173,1,270.000010299683,8|0,0:0|0:0,0:0:0:0:
409,163,243462,5,0,0:0:0:0:
398,167,243546,2,0,P|358:132|359:94,1,67.5000025749208,2|0,0:0|0:0,0:0:0:0:
292,8,243715,2,0,P|295:61|267:87,1,67.5000025749208,0|0,3:0|0:0,0:0:0:0:
115,171,243883,6,0,B|71:180|40:158|40:151|27:132|1:130|1:130|162:143|162:143|166:146|166:146|285:158,1,364.500001390457,10|0,0:0|0:0,0:0:0:0:
249,141,244220,6,0,B|272:185|272:185|277:186|277:186|222:262,1,90,2|0,3:2|0:0,0:0:0:0:
172,362,244389,2,0,B|149:318|149:318|144:317|144:317|199:241,1,90,0|0,3:0|0:0,0:0:0:0:
407,280,244558,6,0,B|433:276|433:276|453:267|453:267|459:260|459:260|488:256|488:256|504:267,1,90,10|0,0:0|0:0,0:0:0:0:
405,287,244726,2,0,B|378:290|378:290|358:299|358:299|352:306|352:306|323:310|323:310|307:299,1,90,2|0,0:0|0:0,0:0:0:0:
182,377,244895,5,0,0:0:0:0:
182,377,244979,1,0,0:0:0:0:
182,377,245063,2,0,B|163:356|151:358|149:361|147:362|127:369|109:339,1,67.5000025749208,2|0,3:2|0:0,0:0:0:0:
18,131,245232,6,0,B|10:88|45:66|44:40|44:40|39:114|75:133|103:137|90:218|49:217,1,270.000010299683,10|0,0:0|0:0,0:0:0:0:
71,212,245484,1,0,0:0:0:0:
69,222,245569,6,0,B|83:200|108:200|109:202|112:204|137:197|148:168,1,90,2|0,3:2|0:0,0:0:0:0:
191,28,245737,2,0,B|216:31|227:54|226:55|225:59|242:79|273:76,1,90,0|0,3:0|0:0,0:0:0:0:
431,70,245906,2,0,B|438:94|422:114|420:113|417:114|406:138|421:165,1,90,8|0,0:0|0:0,0:0:0:0:
497,293,246074,2,0,B|478:310|453:304|453:302|450:300|424:300|407:326,1,90,0|0,2:0|2:0,2:0:0:0:
280,247,246243,6,0,P|283:204|302:182,1,67.5000025749208,2|0,0:0|0:0,0:0:0:0:
267,240,246411,2,0,P|271:285|250:312,1,67.5000025749208,0|0,3:0|0:0,0:0:0:0:
164,359,246580,6,0,B|135:350|102:364|102:364|110:358|113:337|145:324,1,107.999996704102,8|0,0:0|0:0,0:0:0:0:
390,164,246749,2,0,B|410:142|446:137|446:137|436:137|422:120|388:124,1,107.999996704102
188,61,246917,6,0,B|187:37|181:30|173:26|168:24|162:10|166:-9,1,67.5000025749208,2|0,3:2|0:0,0:0:0:0:
177,59,247086,2,0,B|178:83|184:90|192:94|197:96|203:110|199:129,1,67.5000025749208,2|0,3:2|0:0,0:0:0:0:
413,257,247254,6,0,B|436:238|447:239|457:243|463:246|481:241|496:222,1,90,10|0,0:0|0:0,0:0:0:0:
422,262,247423,2,0,B|398:280|387:279|377:275|371:272|353:277|338:296,1,90,2|0,0:0|0:0,0:0:0:0:
220,374,247591,5,2,0:0:0:0:
220,374,247675,1,0,0:0:0:0:
220,374,247760,2,0,L|156:360,1,45,2|0,3:2|0:0,0:0:0:0:
120,260,247928,6,0,P|73:98|32:-2,1,270.000010299683,8|0,0:0|0:0,0:0:0:0:
23,100,248181,1,0,0:0:0:0:
23,100,248265,6,0,B|47:106|67:92|68:86|68:82|79:68|126:76,1,90,2|0,3:2|0:0,0:0:0:0:
187,0,248434,2,0,B|188:25|208:39|213:39|217:38|234:44|241:90,1,90,0|0,3:0|0:0,0:0:0:0:
336,122,248602,2,0,B|312:130|304:154|306:159|309:162|308:180|266:201,1,90,8|0,0:0|0:0,0:0:0:0:
285,314,248771,2,0,B|274:301|258:301|256:303|254:305|243:308|222:287,1,67.5000025749208
109,205,248940,6,0,B|116:195|124:191|131:193|132:194|142:187|147:182,1,45
104,195,249108,2,0,B|96:204|88:208|81:206|80:205|70:212|65:217,1,45,0|0,3:0|0:0,0:0:0:0:
226,301,249277,6,0,B|356:289|356:289|362:290|362:290|590:268,1,270.000010299683,10|0,0:0|0:0,0:0:0:0:
499,283,249529,5,0,0:0:0:0:
502,290,249614,2,0,B|483:298|483:298|441:276|441:276|428:199,1,90,2|0,3:2|0:0,0:0:0:0:
395,78,249782,2,0,B|390:58|366:53|370:27|401:23|407:46|391:58|395:81,1,90,0|0,3:0|0:0,0:0:0:0:
327,192,249951,6,0,B|292:229|217:199|206:170|206:165|204:159|182:115|94:107|48:157,1,270.000010299683,10|2,0:0|0:0,0:0:0:0:
43,211,250204,1,0,0:0:0:0:
43,211,250288,6,0,B|71:199|74:177|71:172|69:168|75:140|115:130,1,90
40,20,250456,2,0,B|30:12|12:7|12:7|32:28|40:48|45:88,1,90,2|0,3:2|0:0,0:0:0:0:
249,226,250625,6,0,B|287:259|359:223|365:192|365:192|369:189|369:189|386:136|482:120|498:162|527:157|527:157|493:180|474:202|471:304,1,405.000015449525,8|0,0:0|0:0,0:0:0:0:
481,299,250962,6,0,P|441:293|415:245,1,67.5000025749208,2|0,3:2|0:0,0:0:0:0:
261,122,251131,2,0,P|227:122|199:144,1,67.5000025749208,2|0,3:2|0:0,0:0:0:0:
175,261,251299,6,0,B|202:259|223:265|223:265|233:248|255:235,1,90,10|0,0:0|0:0,0:0:0:0:
378,31,251468,1,2,0:0:0:0:
378,31,251552,1,0,0:0:0:0:
378,31,251636,6,0,B|359:25|345:14|345:14|354:52|354:52|356:54|356:54|372:111,1,107.999996704102,2|0,0:0|0:0,0:0:0:0:
478,236,251805,2,0,B|492:229|514:230|514:230|485:204|485:204|482:204|482:204|435:167,1,107.999996704102,2|0,3:2|0:0,0:0:0:0:
268,130,251973,2,0,B|254:149|241:156|241:156|280:159|280:159|283:158|283:158|342:160,1,107.999996704102,10|0,0:0|0:0,0:0:0:0:
508,98,252142,2,0,B|509:78|513:61|513:61|480:81|480:81|479:84|479:84|430:117,1,107.999996704102,2|0,0:0|0:0,0:0:0:0:
350,276,252310,6,0,P|330:303|330:340,1,67.5000025749208,2|0,3:2|0:0,0:0:0:0:
354,284,252479,2,0,P|373:256|373:219,1,67.5000025749208,0|0,3:0|0:0,0:0:0:0:
76,129,252647,6,0,B|41:113|17:122|-3:136|-28:131|-28:131|67:151|185:197|257:270,1,405.000015449525,10|0,0:0|0:0,0:0:0:0:
309,212,252984,5,2,0:0:0:0:
309,212,253069,1,0,0:0:0:0:
309,212,253153,2,0,B|304:195|302:177|302:177|285:181|243:181,1,67.5000025749208,2|0,3:2|0:0,0:0:0:0:
411,369,253322,6,0,P|481:158|529:53,1,270.000010299683,8|0,0:0|0:0,0:0:0:0:
423,37,253574,5,0,0:0:0:0:
423,37,253659,6,0,L|420:24,1,13.5,2|0,3:2|0:0,0:0:0:0:
427,42,253996,6,0,B|386:51|386:51|382:51|382:51|277:71,1,90,10|0,0:0|0:0,0:0:0:0:
72,181,254164,6,0,L|56:180,1,13.5,2|0,3:2|0:0,0:0:0:0:
82,234,254501,1,0,0:0:0:0:
90,286,254586,1,0,0:0:0:0:
101,339,254670,6,0,L|104:355,1,13.5,10|0,0:0|0:0,0:0:0:0:
101,339,255007,6,0,P|153:296|188:289,1,90,2|0,3:2|0:0,0:0:0:0:
246,217,255175,2,0,P|313:224|342:244,1,90,0|0,3:0|0:0,0:0:0:0:
421,204,255344,2,0,B|474:221|467:274|466:281|466:293|458:333|546:359,2,180,10|2|0,0:0|3:2|0:0,0:0:0:0:
349,152,255765,5,0,0:0:0:0:
355,159,255850,1,2,0:0:0:0:
357,150,255934,1,0,0:0:0:0:
447,68,256018,6,0,L|450:52,1,13.5,10|0,0:0|0:0,0:0:0:0:
447,68,256355,6,0,B|403:59|403:59|402:57|402:57|328:45,1,90,2|0,3:2|0:0,0:0:0:0:
270,13,256524,2,0,B|264:41|264:41|262:42|262:42|255:90,1,45,0|0,3:0|0:0,0:0:0:0:
145,141,256692,6,0,B|104:156|104:156|103:154|103:154|60:169,1,90,8|0,0:0|0:0,0:0:0:0:
30,78,256861,2,0,B|19:51|19:51|20:49|20:49|11:21,1,45,0|0,3:0|0:0,0:0:0:0:
43,257,257029,5,2,0:0:0:0:
54,258,257114,1,0,0:0:0:0:
48,250,257198,1,0,3:0:0:0:
0,238,257367,6,0,B|25:232|44:245|50:257|51:262|52:268|62:283|94:294|120:275,1,107.999996704102,10|0,0:0|0:0,0:0:0:0:
217,351,257535,2,0,B|214:361|245:350|255:336|256:330|258:324|263:312|283:299|308:305,1,107.999996704102,10|0,0:0|0:0,0:0:0:0:
419,350,257704,5,8,3:0:0:0:
427,342,257788,1,8,3:0:0:0:
419,334,257872,1,8,3:0:0:0:
412,342,257956,1,8,3:0:0:0:
378,251,258041,5,8,3:0:0:0:
377,231,258125,1,8,3:0:0:0:
360,221,258209,1,8,3:0:0:0:
358,198,258293,1,8,3:0:0:0:
397,115,258378,5,8,3:0:0:0:
346,100,258462,1,8,3:0:0:0:
302,116,258546,1,8,3:0:0:0:
264,157,258631,1,8,3:0:0:0:
210,166,258715,6,0,L|165:153,1,45,8|8,3:3|3:3,0:0:0:0:
63,34,258883,2,0,B|63:55|69:57|76:60|75:81,1,45,0|0,3:0|3:0,0:0:0:0:
51,184,259052,1,0,3:0:0:0:
27,130,261749,5,2,0:0:0:0:
38,158,262086,1,2,0:0:0:0:
169,202,262423,5,2,0:0:0:0:
163,217,262760,1,2,0:0:0:0:
60,307,263097,5,2,0:0:0:0:
71,335,263434,1,2,0:0:0:0:
377,331,263771,5,8,3:0:0:0:
312,352,263855,1,8,3:0:0:0:
253,318,263939,1,8,3:0:0:0:
240,251,264023,1,8,3:0:0:0:
283,198,264108,5,8,3:0:0:0:
287,211,264192,1,8,3:0:0:0:
291,224,264276,1,8,3:0:0:0:
295,238,264360,1,8,3:0:0:0:
298,251,264445,6,0,B|313:259|313:259|301:217,1,56.25,2|0,3:2|0:0,0:0:0:0:
400,116,264614,2,0,B|419:81|419:81|424:97,1,56.25,0|0,3:0|0:0,0:0:0:0:
245,83,264782,6,0,B|190:56|190:56|141:98|141:98|141:105|141:105|96:143|96:143|-20:97,1,270,10|0,0:0|0:0,0:0:0:0:
67,46,265119,2,0,B|65:34|58:20|58:20|79:25|93:56,1,56.25,2|0,0:0|3:0,0:0:0:0:
204,156,265288,2,0,B|205:167|212:181|212:181|191:176|177:145,1,56.25,0|0,3:0|0:0,0:0:0:0:
64,267,265456,6,0,B|43:282|43:282|76:288|76:288|90:287|90:287|141:302,1,112.5,10|0,0:0|0:0,0:0:0:0:
281,345,265625,5,0,0:0:0:0:
300,343,265709,1,0,0:0:0:0:
322,339,265793,6,0,L|416:326,1,56.25,2|0,3:2|0:0,0:0:0:0:
512,256,265962,2,0,L|417:243,1,56.25,0|0,3:0|0:0,0:0:0:0:
293,169,266131,6,0,B|260:145|240:78|376:18|457:112,1,270,10|0,0:0|0:0,0:0:0:0:
391,172,266468,6,0,B|393:197|377:211|377:211|367:189|388:170,1,90,2|0,0:0|0:0,0:0:0:0:
212,46,266636,2,0,B|214:21|198:7|198:7|188:29|209:48,1,90,0|0,3:0|0:0,0:0:0:0:
90,178,266805,6,0,P|52:199|72:166,1,112.5,10|0,0:0|0:0,0:0:0:0:
173,384,266973,5,0,0:0:0:0:
175,365,267057,1,0,0:0:0:0:
179,343,267141,6,0,L|186:287,1,56.25,2|0,3:2|0:0,0:0:0:0:
293,171,267310,2,0,L|300:226,1,56.25,0|0,3:0|0:0,0:0:0:0:
512,370,267479,6,0,B|479:312|486:273|486:273|483:330|434:369|355:374,1,270,10|0,0:0|0:0,0:0:0:0:
376,265,267816,2,0,B|402:235|402:235|392:229|392:229|375:266,1,90,2|0,0:0|0:0,0:0:0:0:
287,343,267984,2,0,B|261:373|261:373|271:379|271:379|288:342,1,90,0|0,3:0|0:0,0:0:0:0:
203,199,268153,6,0,B|191:166|191:166|193:157|193:157|181:111|181:111|197:125,1,112.5,10|0,0:0|0:0,0:0:0:0:
399,42,268322,5,0,0:0:0:0:
397,61,268406,1,0,0:0:0:0:
393,83,268490,6,0,L|386:139,1,56.25,2|0,3:2|0:0,0:0:0:0:
202,262,268659,2,0,L|195:206,1,56.25,0|0,3:0|0:0,0:0:0:0:
229,54,268827,6,0,B|256:38|276:8|276:8|270:40|275:76|275:76|273:81|273:81|300:183|300:183|304:186|304:186|297:312,1,337.5,10|0,0:0|0:0,0:0:0:0:
287,356,269164,2,0,L|343:349,1,56.25,2|0,0:0|0:0,0:0:0:0:
461,235,269333,2,0,L|405:228,1,56.25,0|0,3:0|0:0,0:0:0:0:
136,124,269501,6,0,B|107:108|74:111|74:111|71:123|71:123|17:170|53:233|79:241|79:241|80:246|80:246|135:275|116:349,1,303.750011587143,10|0,0:0|0:0,0:0:0:0:
16,362,269838,6,0,P|33:328|50:316,1,45,2|0,3:2|0:0,0:0:0:0:
180,222,270007,2,0,P|194:239|201:260,1,45,0|0,3:0|0:0,0:0:0:0:
342,349,270175,6,0,B|366:363|384:374|384:374|370:312|379:258|379:258|376:253|376:253|385:193|364:103,1,270,10|0,0:0|0:0,0:0:0:0:
366,54,270513,2,0,P|388:56|426:84,1,45,2|0,0:0|0:0,0:0:0:0:
512,168,270681,2,0,P|491:176|444:171,1,45,0|0,3:0|0:0,0:0:0:0:
274,125,270850,6,0,B|243:110|243:110|152:128,1,112.5,10|0,0:0|0:0,0:0:0:0:
0,256,271018,5,0,0:0:0:0:
19,258,271102,1,0,0:0:0:0:
41,262,271187,6,0,L|97:269,1,56.25,2|0,3:2|0:0,0:0:0:0:
180,365,271355,2,0,L|236:358,1,56.25,0|0,3:0|0:0,0:0:0:0:
474,289,271524,6,0,B|458:326|397:361|308:242|381:142,1,270,10|0,0:0|0:0,0:0:0:0:
439,77,271861,2,0,P|421:63|399:56,1,45,2|0,0:0|0:0,0:0:0:0:
274,125,272029,2,0,P|252:129|229:127,1,45,0|0,3:0|0:0,0:0:0:0:
113,43,272198,6,0,B|86:18|91:-7|91:-7|113:9|113:44,1,112.5,10|0,0:0|0:0,0:0:0:0:
83,172,272367,5,0,0:0:0:0:
85,191,272451,1,0,0:0:0:0:
89,213,272535,6,0,L|96:269,1,56.25,2|0,3:2|0:0,0:0:0:0:
264,361,272704,2,0,L|257:305,1,56.25,0|0,3:0|0:0,0:0:0:0:
428,258,272872,6,0,B|407:184|318:174|322:255|222:241|194:167,1,270,10|0,0:0|0:0,0:0:0:0:
240,97,273209,6,0,P|268:116|281:145,1,45,2|0,0:0|0:0,0:0:0:0:
374,328,273378,2,0,P|393:339|415:343,1,45,0|0,3:0|0:0,0:0:0:0:
508,175,273546,6,0,P|510:132|489:163,1,112.5,10|0,0:0|0:0,0:0:0:0:
349,207,273715,5,0,0:0:0:0:
330,209,273799,1,0,0:0:0:0:
308,213,273883,6,0,L|252:220,1,56.25,2|0,3:2|0:0,0:0:0:0:
175,304,274052,2,0,L|119:297,1,56.25,0|0,3:0|0:0,0:0:0:0:
78,115,274220,6,0,B|51:116|26:133|8:169|8:169|52:129|95:121|90:170|157:147|184:68,1,270,10|0,0:0|0:0,0:0:0:0:
192,29,274558,6,0,P|213:37|235:65,1,45,2|0,0:0|0:0,0:0:0:0:
308,213,274726,2,0,P|328:205|344:189,1,45,0|0,3:0|0:0,0:0:0:0:
465,104,274895,6,0,B|468:77|465:49|440:22|440:22|443:60|396:60|423:110|426:117|429:122|452:150|452:150|453:160|453:160|502:200|489:280,1,337.5,10|0,0:0|0:0,0:0:0:0:
501,330,275232,6,0,B|477:327|477:327|474:328|474:328|444:325,1,45,2|0,3:2|0:0,0:0:0:0:
336,381,275400,2,0,B|312:378|312:378|309:379|309:379|279:376,1,45,0|0,3:0|0:0,0:0:0:0:
119,192,275569,6,0,B|153:159|196:170|227:200|232:234|222:273|198:322|156:362,1,270,10|0,0:0|0:0,0:0:0:0:
78,355,275906,6,0,P|92:320|107:303,1,45,2|0,0:0|0:0,0:0:0:0:
300,226,276074,2,0,P|289:189|273:171,1,45,0|0,3:0|0:0,0:0:0:0:
181,24,276243,6,0,B|240:19|240:19|245:21|245:21|307:18,1,112.5,10|0,0:0|0:0,0:0:0:0:
497,81,276411,5,0,0:0:0:0:
495,100,276495,1,0,0:0:0:0:
491,122,276579,6,0,L|484:178,1,56.25,2|0,3:2|0:0,0:0:0:0:
400,358,276749,2,0,L|407:302,1,56.25,0|0,3:0|0:0,0:0:0:0:
376,142,276917,6,0,B|380:169|308:220|216:174|265:123|191:89|127:114,1,270,10|0,0:0|0:0,0:0:0:0:
78,48,277254,6,0,P|61:75|58:100,1,45,2|0,0:0|0:0,0:0:0:0:
0,208,277423,2,0,P|21:231|45:240,1,45,0|0,3:0|0:0,0:0:0:0:
140,327,277591,6,0,B|167:352|162:377|162:377|140:360|140:326,1,112.5,10|0,0:0|0:0,0:0:0:0:
230,196,277760,5,0,0:0:0:0:
249,198,277844,1,0,0:0:0:0:
271,202,277928,6,0,L|327:209,1,56.25,2|0,3:2|0:0,0:0:0:0:
512,98,278097,2,0,L|456:105,1,56.25,0|0,3:0|0:0,0:0:0:0:
368,323,278265,6,0,B|404:337|424:367|424:367|410:332|408:272|408:272|414:236|414:236|401:139,1,270,10|0,0:0|0:0,0:0:0:0:
355,113,278602,2,0,L|310:107,1,45,2|0,0:0|0:0,0:0:0:0:
268,26,278771,2,0,L|223:31,1,45,0|0,3:0|0:0,0:0:0:0:
146,95,278940,2,0,L|96:86,1,33.7500012874604,10|0,0:0|0:0,0:0:0:0:
39,41,279108,2,0,L|8:52,1,22.5
40,146,279277,5,2,0:0:0:0:
40,146,279445,2,0,L|35:127,1,13.4999995880127
132,214,279614,2,0,L|138:184,1,26.9999991760254,2|0,0:0|0:0,0:0:0:0:
54,318,279782,2,0,L|45:278,1,40.4999987640381,2|0,0:0|0:0,0:0:0:0:
184,372,279951,6,0,P|226:354|245:317,1,67.5000025749208,2|0,0:0|0:0,0:0:0:0:
336,347,280119,2,0,P|341:301|318:266,1,53.9999983520508,2|0,0:0|0:0,0:0:0:0:
408,229,280288,2,0,P|383:210|354:211,1,40.4999987640381,2|0,0:0|0:0,0:0:0:0:
354,117,280456,2,0,P|330:116|313:131,1,26.9999991760254,2|0,0:0|0:0,0:0:0:0:
361,125,280625,6,0,P|407:81|384:31,1,90,2|0,3:2|0:0,0:0:0:0:
302,0,280793,2,0,P|256:44|279:94,1,90,0|0,3:2|0:0,0:0:0:0:
406,238,280962,6,0,B|425:246|425:246|450:241|450:241|451:239|451:239|475:233|475:233|494:247,3,90,10|0|0|0,0:0|0:0|0:0|0:0,0:0:0:0:
357,323,281299,6,0,P|318:340|272:283,1,90,2|0,0:0|0:0,0:0:0:0:
168,223,281468,2,0,B|139:219|120:230|119:235|118:241|108:255|66:243,1,90,0|0,3:0|0:0,0:0:0:0:
159,337,281636,6,0,B|120:206|85:117|22:21|22:21|46:50|92:68,1,405.000015449525,10|0,0:0|0:0,0:0:0:0:
76,64,281973,6,0,B|123:70|123:70|127:74|127:74|175:82,1,90,2|0,3:2|0:0,0:0:0:0:
260,60,282142,2,0,B|250:103|250:103|246:107|246:107|238:155,1,90,0|0,3:0|0:0,0:0:0:0:
41,352,282310,6,0,B|26:355|26:355|17:327|17:327|14:324|14:324|6:294|6:294|34:282,3,90,10|0|0|0,0:0|0:0|0:0|0:0,0:0:0:0:
54,199,282647,6,0,P|113:212|136:254,1,90,2|0,0:0|0:0,0:0:0:0:
236,353,282816,2,0,P|177:340|154:298,1,90,0|0,3:0|0:0,0:0:0:0:
226,159,282984,6,0,B|260:102|372:86|389:120|432:118|470:98|470:98|450:126|416:132|404:128|381:123|350:137|347:188,1,405.000015449525,10|0,0:0|0:0,0:0:0:0:
290,221,283322,6,0,P|233:191|226:168,1,90,2|0,3:2|0:0,0:0:0:0:
277,15,283490,2,0,B|304:7|316:-8|316:-8|319:14|353:53,1,90,0|0,3:0|0:0,0:0:0:0:
90,153,283659,6,0,B|58:157|44:149|43:144|41:139|6:126|-19:136,3,90,10|0|0|0,0:0|0:0|0:0|0:0,0:0:0:0:
73,245,283996,6,0,B|124:257|154:213,1,90,2|0,0:0|0:0,0:0:0:0:
226,134,284164,2,0,B|250:120|244:95|244:95|218:109|225:134,1,90,0|0,3:0|0:0,0:0:0:0:
276,298,284333,6,0,B|284:361|323:359|339:356|361:378|361:378|313:336|310:323|320:278|290:227|185:180|119:242,1,405.000015449525,10|0,0:0|0:0,0:0:0:0:
95,281,284670,6,0,B|97:305|114:316|116:333|116:333|124:322|152:324|168:306,1,112.5,2|0,3:2|0:0,0:0:0:0:
150,114,284838,2,0,B|127:103|109:112|93:105|93:105|99:118|83:142|90:164,1,112.5,0|0,3:0|0:0,0:0:0:0:
273,266,285007,2,0,B|293:251|294:231|308:221|308:221|294:219|281:194|258:189,1,112.5,10|0,0:0|0:0,0:0:0:0:
16,370,285175,5,0,0:0:0:0:
16,370,285260,1,0,0:0:0:0:
16,370,285344,2,0,B|11:333|11:333|9:332|9:332|0:274,1,67.5000025749208,2|0,0:0|0:0,0:0:0:0:
77,227,285513,2,0,B|88:191|88:191|87:189|87:189|104:133,1,67.5000025749208,0|0,3:0|0:0,0:0:0:0:
2,31,285681,5,10,0:0:0:0:
9,39,286018,6,0,P|48:77|119:70,1,90,2|0,3:2|0:0,0:0:0:0:
184,155,286187,2,0,P|214:123|258:114,1,90,0|0,3:0|0:0,0:0:0:0:
411,26,286355,6,0,B|452:35|452:35|456:33|456:33|499:41,3,90,10|0|0|0,0:0|0:0|0:0|0:0,0:0:0:0:
405,18,286692,6,0,P|379:62|395:109,1,90,2|0,0:0|0:0,0:0:0:0:
493,256,286861,2,0,P|481:206|436:183,1,90,0|0,3:0|0:0,0:0:0:0:
263,109,287029,6,0,B|176:75|74:133|74:215|53:220|53:220|104:207|139:224|142:229|144:232|172:255|223:231,1,405.000015449525,10|0,0:0|0:0,0:0:0:0:
201,256,287367,6,0,P|238:240|222:167,1,90,2|0,3:2|0:0,0:0:0:0:
301,41,287535,2,0,P|264:57|280:130,1,90,0|0,3:0|0:0,0:0:0:0:
336,298,287704,6,0,B|349:335|349:335|353:336|353:336|371:394,3,90,10|0|0|0,0:0|0:0|0:0|0:0,0:0:0:0:
439,293,288041,6,0,B|443:280|464:277|472:280|478:282|492:281|505:255,1,67.5000025749208,2|0,0:0|0:0,0:0:0:0:
258,345,288209,2,0,B|254:358|233:361|225:358|219:356|205:357|192:383,1,67.5000025749208,0|0,3:0|0:0,0:0:0:0:
351,190,288378,6,0,L|353:176,1,13.5,10|0,0:0|0:0,0:0:0:0:
236,260,288715,6,0,B|230:277|201:281|190:277|182:275|163:276|145:312,1,90,2|0,3:2|0:0,0:0:0:0:
73,332,288883,2,0,B|78:314|107:310|118:314|126:316|145:315|163:279,1,90,0|0,3:0|0:0,0:0:0:0:
203,100,289052,6,0,B|190:86|201:59|210:51|216:46|225:28|203:-5,3,90,10|0|0|0,0:0|0:0|0:0|0:0,0:0:0:0:
105,88,289389,2,0,L|234:105,1,90,2|0,0:0|0:0,0:0:0:0:
253,184,289558,2,0,L|308:177,1,45,0|0,3:0|0:0,0:0:0:0:
449,126,289726,6,0,B|496:106|481:63|494:6|494:6|480:52|448:84|404:107|399:104|396:100|342:106|313:125|297:202,1,405.000015449525,10|0,0:0|0:0,0:0:0:0:
268,275,290063,6,0,P|294:307|335:312,1,67.5000025749208,2|0,3:2|0:0,0:0:0:0:
381,341,290232,2,0,P|351:312|298:324,1,67.5000025749208,0|0,3:0|0:0,0:0:0:0:
54,239,290400,6,0,B|29:251|13:273|9:298|-1:311|-1:311|65:254|136:241|185:260,1,270.000010299683,10|0,0:0|0:0,0:0:0:0:
200,177,290653,1,0,0:0:0:0:
200,177,290737,6,0,L|216:100,1,67.5000025749208,2|0,0:0|0:0,0:0:0:0:
51,61,290906,2,0,L|31:-1,1,45,0|0,3:0|0:0,0:0:0:0:
50,148,291074,5,8,0:0:0:0:
54,139,291159,1,0,0:0:0:0:
47,135,291243,1,0,0:0:0:0:
41,142,291327,1,0,0:0:0:0:
120,113,291411,5,2,3:2:0:0:
191,128,291496,1,0,0:0:0:0:
239,181,291580,1,0,3:0:0:0:
296,225,291664,1,0,0:0:0:0:
370,233,291749,5,10,0:0:0:0:
396,202,291833,1,0,0:0:0:0:
384,174,291917,1,0,0:0:0:0:
407,147,292001,1,0,0:0:0:0:
339,81,292086,5,2,0:0:0:0:
329,63,292170,1,0,0:0:0:0:
337,50,292254,1,0,3:0:0:0:
328,34,292338,1,0,0:0:0:0:
430,13,292423,5,10,0:0:0:0:
436,6,292507,1,0,0:0:0:0:
430,0,292591,1,0,0:0:0:0:
423,6,292675,1,0,0:0:0:0:
487,56,292760,5,2,3:2:0:0:
503,131,292844,1,0,0:0:0:0:
480,208,292928,1,0,3:0:0:0:
414,252,293013,1,0,0:0:0:0:
331,263,293097,5,10,0:0:0:0:
303,242,293181,1,0,0:0:0:0:
280,253,293265,1,0,0:0:0:0:
258,238,293350,1,0,0:0:0:0:
198,163,293434,5,2,0:0:0:0:
184,174,293519,1,0,0:0:0:0:
169,165,293603,1,0,3:0:0:0:
158,176,293687,1,0,0:0:0:0:
44,215,293771,6,0,L|29:212,1,13.5,10|0,0:0|0:0,0:0:0:0:
48,222,294108,6,0,B|64:243|64:243|64:245|64:245|80:264|80:264|80:269|80:269|169:251,1,99.0000030212403,2|0,3:2|0:0,0:0:0:0:
280,113,294277,2,0,B|254:105|254:105|253:103|253:103|229:97|229:97|226:93|226:93|165:160,1,99.0000030212403,0|0,3:0|0:0,0:0:0:0:
154,349,294445,2,0,B|178:340|178:340|181:340|181:340|203:331|203:331|208:333|208:333|218:242,1,99.0000030212403,10|0,0:0|0:0,0:0:0:0:
118,81,294614,2,0,B|102:102|102:102|100:103|100:103|87:124|87:124|83:125|83:125|127:205,1,99.0000030212403
335,225,294782,6,0,B|354:220|370:230|370:232|373:236|386:243|412:237,1,67.5000025749208,2|0,0:0|0:0,0:0:0:0:
341,231,294951,2,0,B|322:236|306:226|305:224|303:220|290:213|264:219,1,67.5000025749208,0|0,3:0|0:0,0:0:0:0:
398,48,295119,6,0,B|430:14|448:17|481:14|499:-5|499:-5|415:88|371:137|323:346,1,405.000015449525,8|0,0:0|0:0,0:0:0:0:
296,314,295456,6,0,B|296:353|323:349|336:368|336:368|333:321|269:304,1,135.000005149842,2|0,3:2|0:0,0:0:0:0:
130,220,295625,2,0,B|108:204|99:221|83:221|83:221|111:238|146:208,1,90,0|0,3:0|0:0,0:0:0:0:
239,70,295793,6,0,B|262:-5|262:-5|106:62|106:62|122:145|122:145|126:152|126:152|149:268,1,405.000015449525,10|0,0:0|0:0,0:0:0:0:
204,271,296131,6,0,B|231:260|256:255|256:255|231:236|219:192,1,107.999996704102,2|0,0:0|0:0,0:0:0:0:
14,98,296299,2,0,B|-8:109|-17:134|-17:134|11:121|55:133,1,107.999996704102,0|0,3:0|0:0,0:0:0:0:
328,52,296468,6,0,L|334:50,3,4.5,10|0|0|0,0:0|0:0|0:0|0:0,0:0:0:0:
274,106,296805,5,2,3:2:0:0:
266,180,296889,1,0,0:0:0:0:
308,244,296973,1,0,3:0:0:0:
377,267,297058,1,0,0:0:0:0:
447,248,297142,5,10,0:0:0:0:
448,224,297226,1,0,0:0:0:0:
467,210,297311,1,0,0:0:0:0:
468,186,297395,1,0,0:0:0:0:
405,116,297479,5,2,0:0:0:0:
397,103,297563,1,0,0:0:0:0:
404,92,297648,1,0,3:0:0:0:
397,78,297732,1,0,0:0:0:0:
496,35,297816,5,10,0:0:0:0:
500,30,297900,1,0,0:0:0:0:
496,25,297984,1,0,0:0:0:0:
491,30,298069,1,0,0:0:0:0:
482,106,298153,5,2,3:2:0:0:
418,152,298237,1,0,0:0:0:0:
344,158,298322,1,0,3:0:0:0:
281,118,298406,1,0,0:0:0:0:
203,117,298490,5,10,0:0:0:0:
186,148,298574,1,0,0:0:0:0:
198,174,298659,1,0,0:0:0:0:
183,197,298743,1,0,0:0:0:0:
243,267,298827,5,2,0:0:0:0:
249,283,298911,1,0,0:0:0:0:
241,295,298996,1,0,3:0:0:0:
249,307,299080,1,0,0:0:0:0:
173,366,299164,6,0,L|170:380,1,13.5,10|0,0:0|0:0,0:0:0:0:
175,358,299501,6,0,L|130:341,1,45,2|0,3:2|0:0,0:0:0:0:
0,309,299670,2,0,L|89:331,1,67.5000025749208,0|0,3:0|0:0,0:0:0:0:
373,223,299838,6,0,L|376:217,3,4.5,10|0|0|0,0:0|0:0|0:0|0:0,0:0:0:0:
306,331,300175,6,0,B|332:338|332:338|373:314|373:314|387:260,1,90,2|0,0:0|0:0,0:0:0:0:
463,318,300344,2,0,B|478:294|478:294|467:248|467:248|421:219,1,90,0|0,3:0|0:0,0:0:0:0:
512,168,300513,2,0,B|494:146|494:146|447:141|447:141|405:176,1,90,10|0,0:0|0:0,0:0:0:0:
380,68,300682,2,0,B|354:78|354:78|335:121|335:121|355:172,1,90
280,216,300850,6,0,L|264:212,1,13.5,2|0,0:0|0:0,0:0:0:0:
191,318,301187,2,0,B|180:284|180:284|176:284|176:284|165:247,1,67.5000025749208,2|2,0:0|0:0,0:0:0:0:
186,162,301440,1,0,0:0:0:0:
186,162,301524,2,0,L|68:133,1,101.250003862381,2|0,0:0|0:0,0:0:0:0:
74,148,301861,2,0,L|59:73,1,67.5000025749208,2|2,0:0|0:0,0:0:0:0:
177,332,302198,6,0,B|231:272|203:239|203:239|217:254|168:277|170:301|189:341|211:349|234:353|234:353|259:352|281:346|319:333|351:286|485:50|204:-23|344:245|344:245|364:276|364:276|426:248|481:272|481:272|418:263|388:289,1,976.499970199586,2|0,0:0|0:0,0:0:0:0:
192,147,307591,6,0,B|147:139|128:173|126:175|124:177|102:224|57:208|57:208|56:222|56:222|48:158|23:144|-9:121|-9:121|-14:121|-14:121|30:133|62:127|85:180|68:27|128:-77|289:16|285:104|173:75|81:14|20:47,1,753.300018391114,2|0,0:0|0:0,0:0:0:0:
179,293,312984,6,0,B|178:237|232:208|256:199|256:199|266:214|259:228|281:252|281:252|329:264|349:285|349:285|377:289|389:279|415:282|415:282|406:302|418:347|393:376|393:376|453:351|492:365|492:365|484:300|511:242|511:242|539:183|479:162|485:226|438:186,1,777.600018984375,2|2,0:0|0:0,0:0:0:0:
256,192,318399,12,0,323771,0:0:0:0:
