osu file format v14

[General]
AudioFilename: Boxplot - Escape With The Clouds.mp3
AudioLeadIn: 0
PreviewTime: 260261
Countdown: 0
SampleSet: Normal
StackLeniency: 0.4
Mode: 0
LetterboxInBreaks: 0
WidescreenStoryboard: 0

[Editor]
Bookmarks: 55317,152396,238688,324980
DistanceSpacing: 0.5
BeatDivisor: 4
GridSize: 32
TimelineZoom: 2.5

[Metadata]
Title:Escape With The Clouds
TitleUnicode:Escape With The Clouds
Artist:BoxPlot
ArtistUnicode:BoxPlot
Creator:Strategas
Version:No Escape
Source:
Tags:dnb drum and bass & marathon paramore hayley williams liquicity liquid tones ep edm
BeatmapID:831443
BeatmapSetID:379897

[Difficulty]
HPDrainRate:5.5
CircleSize:4
OverallDifficulty:9.5
ApproachRate:9.5
SliderMultiplier:1.9
SliderTickRate:2

[Events]
//Background and Video events
0,0,"42144.jpg",0,0
//Break Periods
2,55517,65579
2,217315,238163
//Storyboard Layer 0 (Background)
//Storyboard Layer 1 (Fail)
//Storyboard Layer 2 (Pass)
//Storyboard Layer 3 (Foreground)
//Storyboard Sound Samples

[TimingPoints]
1385,337.078651685393,4,2,0,60,1,0
20261,-100,4,2,0,5,0,0
22958,-142.857142857143,4,2,1,40,0,0
36441,-133.333333333333,4,2,1,45,0,0
37789,-125,4,2,1,50,0,0
39137,-117.647058823529,4,2,1,55,0,0
41834,-111.111111111111,4,2,1,60,0,0
44531,-142.857142857143,4,1,2,60,0,0
44615,-142.857142857143,4,2,1,5,0,0
46890,-142.857142857143,4,2,1,25,0,0
46974,-142.857142857143,4,2,1,5,0,0
49587,-142.857142857143,4,2,1,25,0,0
49671,-142.857142857143,4,2,1,5,0,0
66104,-125,4,2,1,40,0,0
66188,-125,4,2,1,5,0,0
66441,-125,4,2,1,20,0,0
66778,-125,4,2,1,40,0,0
66862,-125,4,2,1,5,0,0
67115,-125,4,2,1,20,0,0
67452,-125,4,2,1,40,0,0
67536,-125,4,2,1,5,0,0
67789,-125,4,2,1,20,0,0
68126,-125,4,2,1,40,0,0
68210,-125,4,2,1,5,0,0
68463,-125,4,2,1,20,0,0
68800,-125,4,2,1,40,0,0
68884,-125,4,2,1,5,0,0
69137,-125,4,2,1,20,0,0
69474,-125,4,2,1,40,0,0
69559,-125,4,2,1,5,0,0
69812,-125,4,2,1,20,0,0
70149,-125,4,2,1,40,0,0
70233,-125,4,2,1,5,0,0
70486,-125,4,2,1,20,0,0
70823,-125,4,2,1,40,0,0
70991,-125,4,2,1,30,0,0
71497,-125,4,2,1,55,0,0
71581,-125,4,2,1,5,0,0
71834,-125,4,2,1,20,0,0
72171,-125,4,2,1,55,0,0
72255,-125,4,2,1,5,0,0
72508,-125,4,2,1,20,0,0
72845,-125,4,2,1,55,0,0
72929,-125,4,2,1,5,0,0
73182,-125,4,2,1,20,0,0
73519,-125,4,2,1,55,0,0
73604,-125,4,2,1,5,0,0
73856,-125,4,2,1,20,0,0
74193,-125,4,2,1,55,0,0
74278,-125,4,2,1,5,0,0
74531,-125,4,2,1,20,0,0
74868,-125,4,2,1,55,0,0
74952,-125,4,2,1,5,0,0
75205,-125,4,2,1,20,0,0
75542,-125,4,2,1,55,0,0
75626,-125,4,2,1,5,0,0
75879,-125,4,2,1,20,0,0
76216,-125,4,2,1,55,0,0
76384,-125,4,2,1,40,0,0
76890,-111.111111111111,4,2,1,60,0,0
82283,-111.111111111111,4,2,1,65,0,0
84811,-111.111111111111,4,1,1,65,0,0
86328,-142.857142857143,4,2,0,40,0,0
87677,-90.9090909090909,4,1,1,70,0,1
128126,-111.111111111111,4,2,0,50,0,0
130823,-100,4,2,1,65,0,0
130991,-100,4,2,1,5,0,0
131076,-100,4,2,1,65,0,0
131244,-100,4,2,1,5,0,0
131328,-100,4,2,1,65,0,0
131497,-100,4,2,1,5,0,0
131581,-100,4,2,1,65,0,0
131750,-100,4,2,1,5,0,0
131834,-100,4,2,1,65,0,0
132002,-100,4,2,1,5,0,0
132087,-100,4,2,1,65,0,0
132255,-100,4,2,1,5,0,0
132340,-100,4,2,1,65,0,0
132508,-100,4,2,1,5,0,0
132592,-100,4,2,1,65,0,0
132761,-100,4,2,1,5,0,0
132845,-100,4,2,1,65,0,0
133014,-100,4,2,1,5,0,0
133098,-100,4,2,1,65,0,0
133267,-100,4,2,1,5,0,0
133351,-100,4,2,1,65,0,0
133519,-100,4,2,1,5,0,0
133604,-100,4,2,1,65,0,0
133772,-100,4,2,1,5,0,0
133856,-100,4,2,1,65,0,0
134025,-100,4,2,1,5,0,0
134109,-100,4,2,1,65,0,0
134278,-100,4,2,1,5,0,0
134362,-100,4,2,1,65,0,0
134530,-100,4,2,1,5,0,0
134615,-100,4,2,1,65,0,0
134783,-100,4,2,1,5,0,0
134868,-100,4,2,1,65,0,0
135036,-100,4,2,1,5,0,0
135120,-100,4,2,1,65,0,0
135289,-100,4,2,1,5,0,0
135373,-100,4,2,1,65,0,0
135542,-100,4,2,1,5,0,0
135626,-100,4,2,1,65,0,0
135794,-100,4,2,1,5,0,0
135879,-100,4,2,1,65,0,0
136216,-100,4,2,1,65,0,0
136384,-100,4,2,1,5,0,0
136469,-100,4,2,1,65,0,0
136637,-100,4,2,1,5,0,0
136721,-100,4,2,1,65,0,0
136890,-100,4,2,1,5,0,0
136974,-100,4,2,1,65,0,0
137143,-100,4,2,1,5,0,0
137227,-100,4,2,1,65,0,0
137395,-100,4,2,1,5,0,0
137480,-100,4,2,1,65,0,0
137648,-100,4,2,1,5,0,0
137733,-100,4,2,1,65,0,0
137901,-100,4,2,1,5,0,0
137985,-100,4,2,1,65,0,0
138154,-100,4,2,1,5,0,0
138238,-100,4,2,1,65,0,0
138407,-100,4,2,1,5,0,0
138491,-100,4,2,1,65,0,0
138659,-100,4,2,1,5,0,0
138744,-100,4,2,1,65,0,0
138912,-100,4,2,1,5,0,0
138997,-100,4,2,1,65,0,0
139165,-100,4,2,1,5,0,0
139249,-100,4,2,1,65,0,0
139418,-100,4,2,1,5,0,0
139502,-100,4,2,1,65,0,0
139671,-100,4,2,1,5,0,0
139755,-100,4,2,1,65,0,0
139923,-100,4,2,1,5,0,0
140008,-100,4,2,1,65,0,0
140176,-100,4,2,1,5,0,0
140261,-100,4,2,1,65,0,0
140429,-100,4,2,1,5,0,0
140513,-100,4,2,1,65,0,0
140682,-100,4,2,1,5,0,0
140766,-100,4,2,1,65,0,0
140935,-100,4,2,1,5,0,0
141019,-100,4,2,1,65,0,0
141187,-100,4,2,1,5,0,0
141272,-100,4,2,1,65,0,0
141609,-100,4,2,1,65,0,0
141777,-100,4,2,1,5,0,0
141862,-100,4,2,1,65,0,0
142030,-100,4,2,1,5,0,0
142114,-100,4,2,1,65,0,0
142283,-100,4,2,1,5,0,0
142367,-100,4,2,1,65,0,0
142536,-100,4,2,1,5,0,0
142620,-100,4,2,1,65,0,0
142788,-100,4,2,1,5,0,0
142873,-100,4,2,1,65,0,0
143041,-100,4,2,1,5,0,0
143126,-100,4,2,1,65,0,0
143294,-100,4,2,1,5,0,0
143378,-100,4,2,1,65,0,0
143547,-100,4,2,1,5,0,0
143631,-100,4,2,1,65,0,0
143800,-100,4,2,1,5,0,0
143884,-100,4,2,1,65,0,0
144052,-100,4,2,1,5,0,0
144137,-100,4,2,1,65,0,0
144305,-100,4,2,1,5,0,0
144390,-100,4,2,1,65,0,0
144558,-100,4,2,1,5,0,0
144642,-100,4,2,1,65,0,0
144811,-100,4,2,1,5,0,0
144895,-100,4,2,1,65,0,0
145064,-100,4,2,1,5,0,0
145148,-100,4,2,1,65,0,0
145316,-100,4,2,1,5,0,0
145401,-100,4,2,1,65,0,0
145569,-100,4,2,1,5,0,0
145654,-100,4,2,1,65,0,0
145822,-100,4,2,1,5,0,0
145906,-100,4,2,1,65,0,0
146075,-100,4,2,1,5,0,0
146159,-100,4,2,1,65,0,0
146328,-100,4,2,1,5,0,0
146412,-100,4,2,1,65,0,0
146580,-100,4,2,1,5,0,0
146665,-100,4,2,1,65,0,0
147002,-100,4,2,1,65,0,0
147170,-100,4,2,1,5,0,0
147255,-100,4,2,1,65,0,0
147423,-100,4,2,1,5,0,0
147507,-100,4,2,1,65,0,0
147676,-100,4,2,1,5,0,0
147760,-100,4,2,1,65,0,0
147929,-100,4,2,1,5,0,0
148013,-100,4,2,1,65,0,0
148181,-100,4,2,1,5,0,0
148267,-100,4,2,1,65,0,0
148435,-100,4,2,1,5,0,0
148520,-100,4,2,1,65,0,0
148688,-100,4,2,1,5,0,0
148772,-100,4,2,1,65,0,0
148941,-100,4,2,1,5,0,0
149025,-100,4,2,1,65,0,0
149194,-100,4,2,1,5,0,0
149278,-100,4,2,1,65,0,0
149446,-100,4,2,1,5,0,0
149531,-100,4,2,1,65,0,0
149867,-100,4,2,1,5,0,0
149952,-100,4,2,1,65,0,0
150120,-100,4,2,1,5,0,0
150204,-100,4,2,1,65,0,0
150373,-100,4,2,1,5,0,0
150457,-100,4,2,1,65,0,0
150626,-100,4,2,1,5,0,0
150710,-100,4,2,1,65,0,0
150878,-100,4,2,1,5,0,0
150963,-100,4,2,1,65,0,0
151131,-100,4,2,1,5,0,0
151216,-100,4,2,1,65,0,0
151384,-100,4,2,1,5,0,0
151468,-100,4,2,1,65,0,0
151637,-100,4,2,1,5,0,0
151721,-100,4,2,1,65,0,0
168576,-125,4,2,1,85,0,0
168660,-125,4,2,1,80,0,0
168744,-125,4,2,1,75,0,0
168828,-125,4,2,1,70,0,0
168913,-125,4,2,1,60,0,0
168997,-125,4,2,1,55,0,0
169081,-125,4,2,1,50,0,0
169165,-125,4,2,1,45,0,0
169250,-125,4,2,1,40,0,0
169334,-125,4,2,1,35,0,0
169418,-125,4,2,1,30,0,0
169502,-125,4,2,1,25,0,0
169587,-125,4,2,1,20,0,0
169924,-125,4,2,1,85,0,0
170008,-125,4,2,1,80,0,0
170092,-125,4,2,1,75,0,0
170177,-125,4,2,1,70,0,0
170261,-125,4,2,1,60,0,0
170345,-125,4,2,1,55,0,0
170429,-125,4,2,1,50,0,0
170514,-125,4,2,1,45,0,0
170598,-125,4,2,1,40,0,0
170682,-125,4,2,1,35,0,0
170767,-125,4,2,1,30,0,0
170851,-125,4,2,1,25,0,0
170935,-125,4,2,1,20,0,0
171272,-125,4,2,1,8,0,0
171356,-125,4,2,1,11,0,0
171441,-125,4,2,1,14,0,0
171525,-125,4,2,1,17,0,0
171609,-125,4,2,1,20,0,0
171693,-125,4,2,1,23,0,0
171778,-125,4,2,1,26,0,0
171862,-125,4,2,1,29,0,0
171946,-125,4,2,1,32,0,0
172031,-125,4,2,1,35,0,0
172115,-125,4,2,1,38,0,0
172199,-125,4,2,1,41,0,0
172283,-125,4,2,1,44,0,0
172368,-125,4,2,1,47,0,0
172452,-125,4,2,1,50,0,0
172536,-125,4,2,1,53,0,0
172620,-125,4,2,1,56,0,0
173969,-90.9090909090909,4,1,1,70,0,1
215767,-111.111111111111,4,2,0,50,0,0
217115,-90.9090909090909,4,1,2,60,0,0
238688,-142.857142857143,4,2,1,40,0,0
244081,-133.333333333333,4,2,1,45,0,0
249474,-111.111111111111,4,2,1,50,0,0
254868,-105.263157894737,4,2,1,55,0,0
257564,-142.857142857143,4,2,1,40,0,0
258913,-142.857142857143,4,2,1,60,0,0
259924,-100,4,2,1,70,0,0
260261,-90.9090909090909,4,1,1,70,0,1
262283,-90.9090909090909,4,1,3,70,0,1
262452,-90.9090909090909,4,1,1,70,0,1
273070,-90.9090909090909,4,1,3,70,0,1
273238,-90.9090909090909,4,1,1,70,0,1
283856,-90.9090909090909,4,1,3,70,0,1
284025,-90.9090909090909,4,1,1,70,0,1
294643,-90.9090909090909,4,1,3,70,0,1
294811,-90.9090909090909,4,1,1,70,0,1
300710,-90.9090909090909,4,2,0,50,0,0
302059,-100,4,2,1,50,0,0
303281,-100,4,2,1,65,0,0
303575,-100,4,2,1,5,0,0
303660,-100,4,2,1,65,0,0
303828,-100,4,2,1,5,0,0
303912,-100,4,2,1,65,0,0
304081,-100,4,2,1,5,0,0
304165,-100,4,2,1,65,0,0
304334,-100,4,2,1,5,0,0
304418,-100,4,2,1,65,0,0
304586,-100,4,2,1,5,0,0
304671,-100,4,2,1,65,0,0
304839,-100,4,2,1,5,0,0
304924,-100,4,2,1,65,0,0
305092,-100,4,2,1,5,0,0
305176,-100,4,2,1,65,0,0
305345,-100,4,2,1,5,0,0
305429,-100,4,2,1,65,0,0
305598,-100,4,2,1,5,0,0
305682,-100,4,2,1,65,0,0
305851,-100,4,2,1,5,0,0
305935,-100,4,2,1,65,0,0
306103,-100,4,2,1,5,0,0
306188,-100,4,2,1,65,0,0
306356,-100,4,2,1,5,0,0
306440,-100,4,2,1,65,0,0
306609,-100,4,2,1,5,0,0
306693,-100,4,2,1,65,0,0
306862,-100,4,2,1,5,0,0
306946,-100,4,2,1,65,0,0
307114,-100,4,2,1,5,0,0
307199,-100,4,2,1,65,0,0
307367,-100,4,2,1,5,0,0
307452,-100,4,2,1,65,0,0
307620,-100,4,2,1,5,0,0
307704,-100,4,2,1,65,0,0
307873,-100,4,2,1,5,0,0
307957,-100,4,2,1,65,0,0
308126,-100,4,2,1,5,0,0
308210,-100,4,2,1,65,0,0
308378,-100,4,2,1,5,0,0
308463,-100,4,2,1,65,0,0
308800,-100,4,2,1,65,0,0
308968,-100,4,2,1,5,0,0
309053,-100,4,2,1,65,0,0
309221,-100,4,2,1,5,0,0
309305,-100,4,2,1,65,0,0
309474,-100,4,2,1,5,0,0
309558,-100,4,2,1,65,0,0
309727,-100,4,2,1,5,0,0
309811,-100,4,2,1,65,0,0
309979,-100,4,2,1,5,0,0
310064,-100,4,2,1,65,0,0
310232,-100,4,2,1,5,0,0
310317,-100,4,2,1,65,0,0
310485,-100,4,2,1,5,0,0
310569,-100,4,2,1,65,0,0
310738,-100,4,2,1,5,0,0
310822,-100,4,2,1,65,0,0
310991,-100,4,2,1,5,0,0
311075,-100,4,2,1,65,0,0
311243,-100,4,2,1,5,0,0
311328,-100,4,2,1,65,0,0
311496,-100,4,2,1,5,0,0
311581,-100,4,2,1,65,0,0
311749,-100,4,2,1,5,0,0
311833,-100,4,2,1,65,0,0
312002,-100,4,2,1,5,0,0
312086,-100,4,2,1,65,0,0
312255,-100,4,2,1,5,0,0
312339,-100,4,2,1,65,0,0
312507,-100,4,2,1,5,0,0
312592,-100,4,2,1,65,0,0
312760,-100,4,2,1,5,0,0
312845,-100,4,2,1,65,0,0
313013,-100,4,2,1,5,0,0
313097,-100,4,2,1,65,0,0
313266,-100,4,2,1,5,0,0
313350,-100,4,2,1,65,0,0
313519,-100,4,2,1,5,0,0
313603,-100,4,2,1,65,0,0
313771,-100,4,2,1,5,0,0
313856,-100,4,2,1,65,0,0
314193,-100,4,2,1,65,0,0
314361,-100,4,2,1,5,0,0
314446,-100,4,2,1,65,0,0
314614,-100,4,2,1,5,0,0
314698,-100,4,2,1,65,0,0
314867,-100,4,2,1,5,0,0
314951,-100,4,2,1,65,0,0
315120,-100,4,2,1,5,0,0
315204,-100,4,2,1,65,0,0
315372,-100,4,2,1,5,0,0
315457,-100,4,2,1,65,0,0
315625,-100,4,2,1,5,0,0
315710,-100,4,2,1,65,0,0
315878,-100,4,2,1,5,0,0
315962,-100,4,2,1,65,0,0
316131,-100,4,2,1,5,0,0
316215,-100,4,2,1,65,0,0
316384,-100,4,2,1,5,0,0
316468,-100,4,2,1,65,0,0
316636,-100,4,2,1,5,0,0
316721,-100,4,2,1,65,0,0
316889,-100,4,2,1,5,0,0
316974,-100,4,2,1,65,0,0
317142,-100,4,2,1,5,0,0
317226,-100,4,2,1,65,0,0
317395,-100,4,2,1,5,0,0
317479,-100,4,2,1,65,0,0
317648,-100,4,2,1,5,0,0
317732,-100,4,2,1,65,0,0
317900,-100,4,2,1,5,0,0
317985,-100,4,2,1,65,0,0
318153,-100,4,2,1,5,0,0
318238,-100,4,2,1,65,0,0
318406,-100,4,2,1,5,0,0
318490,-100,4,2,1,65,0,0
318659,-100,4,2,1,5,0,0
318743,-100,4,2,1,65,0,0
318912,-100,4,2,1,5,0,0
318996,-100,4,2,1,65,0,0
319164,-100,4,2,1,5,0,0
319249,-100,4,2,1,65,0,0
319586,-100,4,2,1,65,0,0
319754,-100,4,2,1,5,0,0
319839,-100,4,2,1,65,0,0
320007,-100,4,2,1,5,0,0
320091,-100,4,2,1,65,0,0
320260,-100,4,2,1,5,0,0
320344,-100,4,2,1,65,0,0
320513,-100,4,2,1,5,0,0
320597,-100,4,2,1,65,0,0
320767,-100,4,2,1,5,0,0
320851,-100,4,2,1,65,0,0
321019,-100,4,2,1,5,0,0
321104,-100,4,2,1,65,0,0
321272,-100,4,2,1,5,0,0
321356,-100,4,2,1,65,0,0
321525,-100,4,2,1,5,0,0
321609,-100,4,2,1,65,0,0
321778,-100,4,2,1,5,0,0
321862,-100,4,2,1,65,0,0
322030,-100,4,2,1,5,0,0
322115,-100,4,2,1,65,0,0
322451,-100,4,2,1,5,0,0
322536,-100,4,2,1,65,0,0
322704,-100,4,2,1,5,0,0
322788,-100,4,2,1,65,0,0
322957,-100,4,2,1,5,0,0
323041,-100,4,2,1,65,0,0
323210,-100,4,2,1,5,0,0
323294,-100,4,2,1,65,0,0
323462,-100,4,2,1,5,0,0
323547,-100,4,2,1,65,0,0
323715,-100,4,2,1,5,0,0
323800,-100,4,2,1,65,0,0
323968,-100,4,2,1,5,0,0
324052,-100,4,2,1,65,0,0
324221,-100,4,2,1,5,0,0
324306,-100,4,2,1,65,0,0
341160,-125,4,2,1,85,0,0
341244,-125,4,2,1,80,0,0
341328,-125,4,2,1,75,0,0
341413,-125,4,2,1,70,0,0
341497,-125,4,2,1,60,0,0
341581,-125,4,2,1,55,0,0
341665,-125,4,2,1,50,0,0
341750,-125,4,2,1,45,0,0
341834,-125,4,2,1,40,0,0
341918,-125,4,2,1,35,0,0
342002,-125,4,2,1,30,0,0
342087,-125,4,2,1,25,0,0
342171,-125,4,2,1,20,0,0
342508,-125,4,2,1,85,0,0
342592,-125,4,2,1,80,0,0
342677,-125,4,2,1,75,0,0
342761,-125,4,2,1,70,0,0
342845,-125,4,2,1,60,0,0
342929,-125,4,2,1,55,0,0
343014,-125,4,2,1,50,0,0
343098,-125,4,2,1,45,0,0
343182,-125,4,2,1,40,0,0
343267,-125,4,2,1,35,0,0
343351,-125,4,2,1,30,0,0
343435,-125,4,2,1,25,0,0
343519,-125,4,2,1,20,0,0
343856,-125,4,2,1,8,0,0
343941,-125,4,2,1,11,0,0
344025,-125,4,2,1,14,0,0
344109,-125,4,2,1,17,0,0
344193,-125,4,2,1,20,0,0
344278,-125,4,2,1,23,0,0
344362,-125,4,2,1,26,0,0
344446,-125,4,2,1,29,0,0
344531,-125,4,2,1,32,0,0
344615,-125,4,2,1,35,0,0
344699,-125,4,2,1,38,0,0
344783,-125,4,2,1,41,0,0
344868,-125,4,2,1,44,0,0
344952,-125,4,2,1,47,0,0
345036,-125,4,2,1,50,0,0
345120,-125,4,2,1,53,0,0
345205,-125,4,2,1,56,0,0
345795,-125,4,2,1,5,0,0
345879,-125,4,2,1,56,0,0
346132,-125,4,2,1,5,0,0
346216,-125,4,2,1,56,0,0
346469,-125,4,2,1,5,0,0
346553,-90.9090909090909,4,1,1,70,0,1
388351,-142.857142857143,4,2,1,40,0,0
388604,-142.857142857143,4,2,1,5,0,0
388688,-142.857142857143,4,2,1,40,0,0
388941,-142.857142857143,4,2,1,5,0,0
389025,-142.857142857143,4,2,1,40,0,0
389278,-142.857142857143,4,2,1,5,0,0
389362,-142.857142857143,4,2,1,40,0,0
389615,-142.857142857143,4,2,1,5,0,0
389643,-142.857142857143,4,1,2,40,0,0

[Colours]
Combo1 : 0,255,255
Combo2 : 0,128,128
Combo3 : 128,0,255
Combo4 : 255,128,128

[HitObjects]
256,192,20261,12,0,22789,0:0:0:0:
131,138,22958,6,0,L|224:137,1,66.4999979705811,6|0,0:0|0:0,0:0:0:0:
74,71,23295,1,8,0:0:0:0:
45,154,23463,2,0,L|32:203,2,33.2499989852906,0|0|2,0:0|0:0|0:0,0:0:0:0:
74,71,23800,1,0,0:0:0:0:
89,255,23969,1,8,0:0:0:0:
171,226,24137,1,0,0:0:0:0:
171,226,24222,1,0,0:0:0:0:
171,226,24306,6,0,L|166:298,1,66.4999979705811,2|0,0:0|0:0,0:0:0:0:
244,181,24643,1,8,0:0:0:0:
169,138,24811,2,0,L|120:126,2,33.2499989852906,0|0|2,0:0|0:0|0:0,0:0:0:0:
244,181,25149,1,0,0:0:0:0:
77,190,25317,1,8,0:0:0:0:
54,105,25486,1,0,0:0:0:0:
54,105,25570,1,0,0:0:0:0:
54,105,25654,6,0,L|72:27,1,66.4999979705811,2|0,0:0|0:0,0:0:0:0:
77,190,25991,2,0,L|59:268,1,66.4999979705811,8|0,0:0|0:0,0:0:0:0:
155,153,26328,2,0,L|140:88,1,66.4999979705811,2|0,0:0|0:0,0:0:0:0:
151,240,26665,2,0,L|165:304,1,66.4999979705811,8|0,0:0|0:0,0:0:0:0:
77,190,27002,5,2,0:0:0:0:
155,153,27171,1,0,0:0:0:0:
252,297,27340,2,0,L|349:292,1,66.4999979705811,8|0,0:0|0:0,0:0:0:0:
318,293,27592,1,0,0:0:0:0:
318,293,27677,1,2,0:0:0:0:
192,233,27845,1,0,0:0:0:0:
412,263,28014,2,0,L|485:270,1,66.4999979705811,8|0,0:0|0:0,0:0:0:0:
394,144,28351,6,0,L|329:157,1,66.4999979705811,2|0,0:0|0:0,0:0:0:0:
188,100,28688,2,0,L|254:113,1,66.4999979705811,8|0,0:0|0:0,0:0:0:0:
329,70,29025,2,0,L|316:4,1,66.4999979705811,2|0,0:0|0:0,0:0:0:0:
255,199,29362,2,0,L|271:285,1,66.4999979705811,8|0,0:0|0:0,0:0:0:0:
267,264,29615,1,0,0:0:0:0:
267,264,29699,5,2,0:0:0:0:
340,216,29868,1,0,0:0:0:0:
182,248,30036,1,8,0:0:0:0:
267,264,30205,1,0,0:0:0:0:
123,183,30373,1,2,0:0:0:0:
210,330,30542,1,0,0:0:0:0:
242,140,30710,1,8,0:0:0:0:
163,104,30879,1,0,0:0:0:0:
328,130,31047,6,0,L|409:124,1,66.4999979705811,2|0,0:0|0:0,0:0:0:0:
512,201,31384,2,0,L|445:196,1,66.4999979705811,8|0,0:0|0:0,0:0:0:0:
328,130,31722,2,0,L|324:64,1,66.4999979705811,2|0,0:0|0:0,0:0:0:0:
257,189,32059,2,0,L|253:256,1,66.4999979705811,8|0,0:0|0:0,0:0:0:0:
243,98,32396,5,2,0:0:0:0:
328,130,32564,1,0,0:0:0:0:
171,218,32733,2,0,P|140:225|101:222,1,66.4999979705811,8|0,0:0|0:0,0:0:0:0:
164,60,33070,1,2,0:0:0:0:
169,51,33154,1,0,0:0:0:0:
175,43,33238,1,0,0:0:0:0:
328,130,33407,2,0,P|335:161|332:200,1,66.4999979705811,8|0,0:0|0:0,0:0:0:0:
460,275,33744,6,0,L|369:275,1,66.4999979705811,2|0,0:0|0:0,0:0:0:0:
361,304,33997,1,0,0:0:0:0:
361,304,34081,2,0,L|270:304,1,66.4999979705811,8|0,0:0|0:0,0:0:0:0:
241,218,34418,2,0,L|232:140,1,66.4999979705811,2|0,0:0|0:0,0:0:0:0:
205,119,34671,1,0,0:0:0:0:
205,119,34755,2,0,L|197:41,1,66.4999979705811,8|0,0:0|0:0,0:0:0:0:
352,75,35092,6,0,L|286:84,1,66.4999979705811,2|0,0:0|0:0,0:0:0:0:
426,246,35429,2,0,P|432:180|431:114,1,132.999995941162,8|2,0:0|0:0,0:0:0:0:
348,161,35935,1,0,0:0:0:0:
512,208,36104,1,8,0:0:0:0:
426,246,36272,1,0,0:0:0:0:
417,250,36356,1,0,0:0:0:0:
408,256,36441,5,2,0:3:0:0:
431,114,36609,1,2,0:3:0:0:
320,241,36778,1,8,0:0:0:0:
299,157,36946,1,0,0:0:0:0:
283,163,37030,1,0,0:0:0:0:
268,173,37114,1,2,0:0:0:0:
255,185,37198,1,0,0:0:0:0:
245,200,37283,1,2,0:3:0:0:
350,83,37452,2,0,P|316:72|280:73,1,71.2500027179719,8|0,0:0|0:0,0:0:0:0:
54,165,37789,5,2,0:3:0:0:
121,93,37958,1,0,0:0:0:0:
119,310,38126,2,0,P|193:320|276:310,1,152,8|2,0:0|0:0,0:0:0:0:
137,210,38632,1,2,0:3:0:0:
33,361,38800,2,0,L|16:232,1,114,8|0,0:0|0:0,0:0:0:0:
54,165,39137,5,2,0:3:0:0:
119,310,39306,1,2,0:3:0:0:
139,101,39474,1,8,0:0:0:0:
151,205,39643,1,0,0:0:0:0:
151,205,39727,1,0,0:0:0:0:
151,205,39811,1,2,0:0:0:0:
323,102,39980,1,2,0:3:0:0:
218,284,40149,1,8,0:0:0:0:
234,147,40317,1,0,0:0:0:0:
234,147,40401,1,0,0:0:0:0:
234,147,40486,5,2,0:3:0:0:
238,40,40654,1,0,0:0:0:0:
54,165,40823,1,8,0:0:0:0:
151,205,40991,1,0,0:0:0:0:
151,205,41076,1,0,0:0:0:0:
151,205,41160,1,2,0:0:0:0:
323,95,41328,1,2,0:3:0:0:
218,284,41497,1,8,0:0:0:0:
151,205,41665,1,0,0:0:0:0:
151,205,41750,1,0,0:0:0:0:
151,205,41834,5,2,0:3:0:0:
396,168,42002,1,2,0:3:0:0:
127,90,42171,1,8,0:0:0:0:
233,46,42340,1,0,0:0:0:0:
233,46,42424,1,0,0:0:0:0:
233,46,42508,1,2,0:0:0:0:
218,284,42677,1,2,0:3:0:0:
342,67,42845,1,8,0:0:0:0:
396,168,43014,1,0,0:0:0:0:
408,208,43098,1,0,0:0:0:0:
409,251,43182,5,2,0:3:0:0:
502,151,43351,1,0,0:0:0:0:
381,361,43519,2,0,P|303:289|308:202,1,170.999994781494,8|2,0:0|0:0,0:0:0:0:
409,251,44025,1,2,0:3:0:0:
203,172,44193,2,0,P|187:212|190:254,1,85.4999973907472,8|0,0:0|0:0,0:0:0:0:
405,362,44531,5,4,0:0:0:0:
256,192,44615,12,0,46722,0:0:0:0:
256,192,46890,5,0,0:0:0:0:
256,192,46974,12,0,49418,0:0:0:0:
256,192,49587,5,0,0:0:0:0:
256,192,49671,12,0,55317,0:0:0:0:
205,129,66104,6,0,L|364:119,1,152,2|0,0:3|0:0,0:0:0:0:
260,238,66778,2,0,L|101:228,1,152,2|0,0:3|0:0,0:0:0:0:
346,176,67452,6,0,P|365:250|330:319,1,152,2|0,0:3|0:0,0:0:0:0:
285,89,68126,6,0,P|357:71|423:105,1,152,2|0,0:3|0:0,0:0:0:0:
199,150,68800,6,0,P|183:64|231:-1,1,152,2|0,0:3|0:0,0:0:0:0:
260,236,69474,2,0,P|174:252|109:204,1,152,2|0,0:3|0:0,0:0:0:0:
353,337,70149,6,0,L|373:175,1,152,2|0,0:3|0:0,0:0:0:0:
264,67,70823,6,0,L|273:143,1,76,2|0,0:3|0:0,0:0:0:0:
263,172,71076,1,0,0:0:0:0:
263,172,71160,2,0,L|254:247,1,76
119,218,71497,6,0,P|112:146|117:51,1,152,2|0,0:3|0:0,0:0:0:0:
393,166,72171,2,0,P|400:238|395:333,1,152,2|0,0:3|0:0,0:0:0:0:
230,55,72845,6,0,P|302:48|397:53,1,152,2|0,0:3|0:0,0:0:0:0:
282,329,73519,2,0,P|210:336|115:331,1,152,2|0,0:3|0:0,0:0:0:0:
230,55,74193,6,0,L|219:206,1,152,2|0,0:3|0:0,0:0:0:0:
381,51,74868,2,0,L|392:202,1,152,2|0,0:3|0:0,0:0:0:0:
81,51,75542,6,0,L|70:202,1,152,2|0,0:3|0:0,0:0:0:0:
199,270,76216,6,0,P|238:278|304:268,1,76,2|0,0:3|0:0,0:0:0:0:
302,265,76469,1,0,0:0:0:0:
302,265,76553,2,0,P|341:257|415:268,1,114
424,276,76890,6,0,L|397:101,1,170.999994781494,2|8,0:3|0:0,0:0:0:0:
512,115,77396,1,0,0:0:0:0:
512,115,77480,1,0,0:0:0:0:
512,115,77564,1,2,0:3:0:0:
291,164,77733,1,8,0:0:0:0:
333,256,77901,1,0,0:0:0:0:
304,264,77986,1,0,0:0:0:0:
274,265,78070,1,0,0:0:0:0:
245,259,78154,1,0,0:0:0:0:
218,246,78238,6,0,P|213:156|237:71,1,170.999994781494,2|8,0:3|0:0,0:0:0:0:
291,164,78744,2,0,P|191:172|137:114,1,170.999994781494,0|8,0:0|0:0,0:0:0:0:
42,107,79250,5,0,0:0:0:0:
40,130,79334,1,0,0:0:0:0:
43,153,79418,1,0,0:0:0:0:
50,175,79502,1,0,0:0:0:0:
80,208,79587,5,2,0:3:0:0:
85,239,79671,1,0,0:0:0:0:
80,270,79755,1,0,0:0:0:0:
69,300,79840,1,0,0:0:0:0:
92,343,79924,5,8,0:0:0:0:
110,353,80008,1,0,0:0:0:0:
130,357,80092,1,0,0:0:0:0:
151,358,80177,1,0,0:0:0:0:
172,355,80261,5,2,0:3:0:0:
340,161,80429,1,8,0:0:0:0:
228,205,80598,1,0,0:0:0:0:
228,183,80682,1,0,0:0:0:0:
228,162,80767,1,0,0:0:0:0:
228,140,80851,1,0,0:0:0:0:
228,119,80935,6,0,L|229:25,1,85.4999973907472,2|0,0:3|0:0,0:0:0:0:
340,161,81272,2,0,L|339:255,1,85.4999973907472,8|0,0:0|0:0,0:0:0:0:
353,278,81525,1,0,0:0:0:0:
353,278,81609,2,0,P|416:273|446:258,1,85.4999973907472,2|8,0:3|0:0,0:0:0:0:
233,299,81946,1,0,0:0:0:0:
238,319,82031,1,0,0:0:0:0:
247,339,82115,1,0,0:0:0:0:
259,356,82199,1,0,0:0:0:0:
274,372,82283,5,2,0:3:0:0:
353,278,82452,1,0,0:0:0:0:
122,342,82620,1,8,0:0:0:0:
139,223,82789,1,0,0:0:0:0:
139,223,82873,1,0,0:0:0:0:
139,223,82958,1,2,0:3:0:0:
377,160,83126,1,8,0:0:0:0:
353,278,83295,1,0,0:0:0:0:
353,278,83379,1,0,0:0:0:0:
353,278,83463,1,0,0:0:0:0:
353,278,83547,1,0,0:0:0:0:
353,278,83632,5,2,0:3:0:0:
466,240,83800,1,0,0:0:0:0:
260,195,83969,1,8,0:0:0:0:
377,160,84137,1,0,0:0:0:0:
377,160,84222,1,0,0:0:0:0:
377,160,84306,1,2,0:3:0:0:
243,332,84474,1,8,0:0:0:0:
353,278,84643,1,0,0:0:0:0:
56,174,84811,5,8,1:0:0:0:
56,174,84896,1,8,1:0:0:0:
56,174,84980,1,8,1:0:0:0:
243,332,85149,1,2,0:3:0:0:
100,46,85317,1,8,0:0:0:0:
117,291,85486,1,2,0:3:0:0:
408,149,85654,1,8,0:0:0:0:
243,332,85823,1,2,0:3:0:0:
345,28,85991,1,8,1:0:0:0:
362,275,86160,1,2,0:3:0:0:
362,275,86244,1,2,0:3:0:0:
362,275,86328,6,0,L|491:289,1,99.7499969558717,8|2,0:0|0:3,0:0:0:0:
461,210,86665,1,0,1:0:0:0:
461,200,86750,1,0,1:0:0:0:
461,190,86834,1,8,1:0:0:0:
312,162,87002,1,2,0:0:0:0:
312,172,87086,1,2,0:0:0:0:
312,182,87171,1,2,0:0:0:0:
411,131,87340,2,0,P|446:115|514:132,1,99.7499969558717
512,131,87677,5,6,0:3:0:0:
326,31,87845,1,2,0:3:0:0:
332,292,88014,1,8,0:0:0:0:
234,185,88182,5,0,0:0:0:0:
280,159,88267,1,0,0:0:0:0:
332,151,88351,1,2,0:2:0:0:
382,160,88435,1,0,0:0:0:0:
426,186,88519,1,2,0:3:0:0:
145,299,88688,1,8,0:0:0:0:
59,183,88856,1,0,0:0:0:0:
60,173,88941,1,0,0:0:0:0:
61,163,89025,6,0,P|83:108|125:62,1,104.500003189087,2|0,0:3|0:0,0:0:0:0:
332,292,89362,1,8,0:0:0:0:
430,183,89531,1,0,0:0:0:0:
386,157,89615,1,0,0:0:0:0:
336,148,89699,1,2,0:2:0:0:
284,156,89783,1,0,0:0:0:0:
238,182,89868,1,2,0:3:0:0:
477,43,90036,1,8,0:0:0:0:
430,183,90205,1,0,0:0:0:0:
430,183,90289,1,0,0:0:0:0:
430,183,90373,5,2,0:3:0:0:
289,5,90542,1,2,0:3:0:0:
332,292,90710,1,8,0:0:0:0:
238,182,90879,1,0,0:0:0:0:
284,156,90964,1,0,0:0:0:0:
336,148,91048,1,2,0:2:0:0:
386,157,91132,1,0,0:0:0:0:
430,183,91216,1,2,0:3:0:0:
191,321,91384,1,8,0:0:0:0:
238,182,91553,1,0,0:0:0:0:
228,181,91637,1,0,0:0:0:0:
218,180,91722,6,0,L|70:170,1,104.500003189087,2|0,0:3|0:0,0:0:0:0:
389,71,92059,1,8,0:0:0:0:
440,208,92227,1,0,0:0:0:0:
418,257,92311,1,0,0:0:0:0:
384,294,92396,1,2,0:2:0:0:
339,320,92480,1,0,0:0:0:0:
285,326,92564,1,2,0:3:0:0:
389,71,92733,1,8,0:0:0:0:
296,176,92901,1,0,0:0:0:0:
296,176,92986,1,0,0:0:0:0:
296,176,93070,5,2,0:3:0:0:
99,3,93238,1,2,0:3:0:0:
76,325,93407,6,0,P|180:330|284:325,1,209.000006378174,8|2,0:0|0:2,0:0:0:0:
242,40,93913,1,2,0:3:0:0:
388,325,94081,2,0,P|336:329|284:325,1,104.500003189087,8|0,0:0|0:0,0:0:0:0:
452,145,94418,6,0,L|436:248,1,104.500003189087,2|0,0:3|0:0,0:0:0:0:
242,40,94755,1,8,0:0:0:0:
296,176,94924,1,0,0:0:0:0:
296,176,95008,1,0,0:0:0:0:
296,176,95092,1,2,0:2:0:0:
109,38,95261,1,2,0:3:0:0:
225,356,95429,1,8,0:0:0:0:
11,254,95598,1,0,0:0:0:0:
11,254,95682,1,0,0:0:0:0:
11,254,95767,5,2,0:3:0:0:
368,304,95935,1,2,0:3:0:0:
163,22,96104,6,0,P|146:125|155:229,1,209.000006378174,8|2,0:0|0:2,0:0:0:0:
14,36,96609,1,2,0:3:0:0:
287,132,96778,2,0,P|343:137|392:133,1,104.500003189087,8|0,0:0|0:0,0:0:0:0:
462,364,97115,6,0,L|464:260,1,104.500003189087,2|0,0:3|0:0,0:0:0:0:
341,0,97452,1,8,0:0:0:0:
287,132,97620,1,0,0:0:0:0:
287,132,97705,1,0,0:0:0:0:
287,132,97789,1,2,0:2:0:0:
512,56,97958,1,2,0:3:0:0:
194,15,98126,1,8,0:0:0:0:
297,282,98295,1,0,0:0:0:0:
297,282,98379,1,0,0:0:0:0:
297,282,98463,5,2,0:3:0:0:
114,205,98632,1,2,0:3:0:0:
419,196,98800,1,8,0:0:0:0:
287,132,98969,6,0,L|296:70,1,52.2500015945435
428,14,99137,2,0,L|421:65,1,52.2500015945435,2|0,0:2|0:0,0:0:0:0:
297,282,99306,1,2,0:3:0:0:
194,15,99474,1,8,0:0:0:0:
287,132,99643,1,0,0:0:0:0:
114,205,99811,6,0,L|108:101,1,104.500003189087,2|0,0:3|0:0,0:0:0:0:
367,10,100149,2,0,P|426:93|419:195,1,209.000006378174,8|2,0:0|0:2,0:0:0:0:
419,195,100570,1,0,0:0:0:0:
419,195,100654,1,2,0:3:0:0:
183,144,100823,2,0,L|287:132,1,104.500003189087,8|0,0:0|0:0,0:0:0:0:
66,253,101160,5,2,0:3:0:0:
293,282,101328,1,2,0:3:0:0:
39,104,101497,1,8,0:0:0:0:
66,253,101665,6,0,L|75:338,1,52.2500015945435
183,144,101834,2,0,L|187:91,1,52.2500015945435,2|0,0:2|0:0,0:0:0:0:
190,384,102002,1,2,0:3:0:0:
328,136,102171,1,8,0:0:0:0:
435,236,102340,1,0,0:0:0:0:
183,144,102508,6,0,L|192:17,1,104.500003189087,2|0,0:3|0:0,0:0:0:0:
435,235,102845,2,0,P|343:281|243:256,1,209.000006378174,8|2,0:0|0:2,0:0:0:0:
244,256,103267,1,0,0:0:0:0:
244,256,103351,1,2,0:3:0:0:
334,32,103519,2,0,P|334:89|326:143,1,104.500003189087,8|0,0:0|0:0,0:0:0:0:
357,361,103856,5,2,0:3:0:0:
480,81,104025,1,2,0:3:0:0:
115,60,104193,6,0,P|102:161|108:277,1,209.000006378174,8|2,0:0|0:2,0:0:0:0:
106,267,104615,1,0,0:0:0:0:
106,267,104699,1,2,0:3:0:0:
340,57,104868,2,0,P|294:33|244:20,1,104.500003189087,8|0,0:0|0:0,0:0:0:0:
241,236,105205,6,0,L|253:354,1,104.500003189087,2|0,0:3|0:0,0:0:0:0:
471,139,105542,2,0,L|481:35,1,104.500003189087,8|0,0:0|0:0,0:0:0:0:
481,35,105795,1,0,0:0:0:0:
481,35,105879,1,2,0:2:0:0:
394,268,106047,1,2,0:3:0:0:
96,201,106216,2,0,L|85:97,1,104.500003189087,8|0,0:0|0:0,0:0:0:0:
72,353,106553,5,2,0:3:0:0:
234,122,106722,1,2,0:3:0:0:
437,365,106890,6,0,B|342:388|345:320|234:365,1,209.000006378174,8|2,0:0|0:2,0:0:0:0:
233,365,107311,1,0,0:0:0:0:
233,365,107396,1,2,0:3:0:0:
401,225,107564,2,0,P|402:172|396:120,1,104.500003189087,8|0,0:0|0:0,0:0:0:0:
419,367,107901,6,0,P|468:351|509:319,1,104.500003189087,2|0,0:3|0:0,0:0:0:0:
160,224,108238,2,0,L|26:220,1,104.500003189087,8|0,0:0|0:0,0:0:0:0:
397,121,108576,5,8,0:3:0:0:
397,121,108660,1,8,0:3:0:0:
397,121,108744,1,8,0:3:0:0:
181,377,108913,1,8,0:0:0:0:
97,78,109081,1,8,0:3:0:0:
158,65,109165,1,8,0:3:0:0:
219,51,109250,5,14,0:3:0:0:
22,341,109418,1,0,0:0:0:0:
425,269,109587,1,8,0:0:0:0:
278,228,109755,5,0,0:0:0:0:
238,229,109840,1,0,0:0:0:0:
199,231,109924,1,2,0:2:0:0:
160,233,110008,1,0,0:0:0:0:
121,234,110092,1,2,0:3:0:0:
397,121,110261,2,0,L|515:112,1,104.500003189087,8|0,0:0|0:0,0:0:0:0:
263,4,110598,6,0,P|231:43|219:94,1,104.500003189087,2|0,0:3|0:0,0:0:0:0:
445,283,110935,1,8,0:0:0:0:
307,360,111104,1,0,0:0:0:0:
305,320,111188,1,0,0:0:0:0:
303,281,111272,1,2,0:2:0:0:
301,242,111356,1,0,0:0:0:0:
300,203,111441,1,2,0:3:0:0:
49,348,111609,1,8,0:0:0:0:
153,244,111778,1,0,0:0:0:0:
153,234,111862,1,0,0:0:0:0:
152,223,111946,5,2,0:3:0:0:
439,211,112115,1,2,0:3:0:0:
150,130,112283,1,8,0:0:0:0:
300,84,112452,5,0,0:0:0:0:
339,84,112536,1,0,0:0:0:0:
378,84,112620,1,2,0:2:0:0:
417,85,112705,1,0,0:0:0:0:
456,85,112789,1,2,0:3:0:0:
193,177,112958,2,0,L|87:172,1,104.500003189087,8|0,0:0|0:0,0:0:0:0:
378,84,113295,6,0,P|388:156|383:215,1,104.500003189087,2|0,0:3|0:0,0:0:0:0:
128,317,113632,1,8,0:0:0:0:
193,177,113800,1,0,0:0:0:0:
193,137,113884,1,0,0:0:0:0:
193,98,113969,1,2,0:2:0:0:
194,59,114053,1,0,0:0:0:0:
194,20,114137,1,2,0:3:0:0:
274,302,114306,1,8,0:0:0:0:
387,188,114474,1,0,0:0:0:0:
385,198,114559,1,0,0:0:0:0:
383,208,114643,5,2,0:3:0:0:
143,355,114811,1,2,0:3:0:0:
194,20,114980,6,0,P|303:8|410:21,1,209.000006378174,8|2,0:0|0:2,0:0:0:0:
401,19,115401,1,0,0:0:0:0:
401,19,115486,1,2,0:3:0:0:
149,167,115654,2,0,P|89:172|16:164,1,104.500003189087,8|0,0:0|0:0,0:0:0:0:
264,256,115991,6,0,P|367:278|428:258,1,156.750004783631,2|0,0:3|0:0,0:0:0:0:
430,257,116328,1,8,0:0:0:0:
346,133,116497,1,0,0:0:0:0:
346,133,116581,1,0,0:0:0:0:
346,133,116665,1,2,0:2:0:0:
120,293,116834,1,2,0:3:0:0:
238,27,117002,2,0,L|133:33,1,104.500003189087,8|0,0:0|0:0,0:0:0:0:
371,0,117340,5,2,0:3:0:0:
116,162,117508,1,2,0:3:0:0:
487,177,117677,6,0,P|490:279|430:363,1,209.000006378174,8|2,0:0|0:2,0:0:0:0:
430,363,118098,1,0,0:0:0:0:
430,363,118182,1,2,0:3:0:0:
206,175,118351,2,0,L|331:158,1,104.500003189087,8|0,0:0|0:0,0:0:0:0:
200,320,118688,6,0,P|125:296|74:237,1,156.750004783631,2|0,0:3|0:0,0:0:0:0:
67,223,119025,1,8,0:0:0:0:
206,175,119193,1,0,0:0:0:0:
206,175,119278,1,0,0:0:0:0:
206,175,119362,1,2,0:2:0:0:
71,384,119531,1,2,0:3:0:0:
337,258,119699,2,0,L|478:273,1,104.500003189087,8|0,0:0|0:0,0:0:0:0:
206,175,120036,5,2,0:3:0:0:
451,112,120205,1,2,0:3:0:0:
206,175,120373,1,8,0:0:0:0:
312,68,120542,5,0,0:0:0:0:
303,63,120626,1,0,0:0:0:0:
294,58,120710,2,0,P|246:34|176:32,1,104.500003189087,2|2,0:2|0:3,0:0:0:0:
346,212,121047,1,8,0:0:0:0:
206,175,121216,1,0,0:0:0:0:
327,359,121384,6,0,P|386:355|439:328,1,104.500003189087,2|0,0:3|0:0,0:0:0:0:
121,281,121722,2,0,L|133:390,1,104.500003189087,8|0,0:0|0:0,0:0:0:0:
70,153,122059,1,2,0:2:0:0:
70,153,122143,1,0,0:0:0:0:
70,153,122227,1,2,0:3:0:0:
346,212,122396,1,8,0:0:0:0:
310,68,122564,1,0,0:0:0:0:
224,314,122733,5,2,0:3:0:0:
175,64,122901,1,2,0:3:0:0:
224,314,123070,1,8,0:0:0:0:
331,206,123238,5,0,0:0:0:0:
322,201,123323,1,0,0:0:0:0:
313,196,123407,2,0,P|265:172|196:169,1,104.500003189087,2|2,0:2|0:3,0:0:0:0:
453,109,123744,1,8,0:0:0:0:
471,256,123913,1,0,0:0:0:0:
215,166,124081,6,0,L|199:42,1,104.500003189087,2|0,0:3|0:0,0:0:0:0:
316,275,124418,2,0,P|261:307|179:311,1,104.500003189087,8|0,0:0|0:0,0:0:0:0:
340,8,124755,1,2,0:2:0:0:
340,8,124840,1,0,0:0:0:0:
340,8,124924,1,2,0:3:0:0:
471,256,125092,1,8,0:0:0:0:
316,275,125261,1,0,0:0:0:0:
489,41,125429,5,2,0:3:0:0:
316,275,125598,1,2,0:3:0:0:
489,41,125767,1,8,0:0:0:0:
340,8,125935,5,0,0:0:0:0:
385,141,126104,2,0,L|245:136,1,104.500003189087,2|2,0:2|0:3,0:0:0:0:
215,84,126356,1,0,0:0:0:0:
215,84,126441,2,0,L|75:89,1,104.500003189087,8|0,0:0|0:0,0:0:0:0:
161,267,126778,6,0,P|239:282|347:269,1,156.750004783631,2|0,0:3|0:0,0:0:0:0:
315,276,127115,1,8,0:0:0:0:
453,327,127283,1,0,0:0:0:0:
432,181,127452,2,0,P|422:128|427:69,1,104.500003189087,2|2,0:2|0:3,0:0:0:0:
478,22,127705,1,0,0:0:0:0:
478,22,127789,1,8,0:0:0:0:
299,6,127958,1,0,0:0:0:0:
432,181,128126,5,8,0:0:0:0:
298,193,128295,5,2,0:0:0:0:
264,192,128379,1,2,0:0:0:0:
233,181,128463,1,2,0:0:0:0:
206,162,128547,1,2,0:0:0:0:
185,136,128632,1,8,0:0:0:0:
375,303,128800,5,2,0:0:0:0:
354,329,128884,1,2,0:0:0:0:
327,348,128969,1,2,0:0:0:0:
296,359,129053,1,2,0:0:0:0:
263,360,129137,1,8,0:0:0:0:
432,181,129306,5,2,0:0:0:0:
465,184,129390,1,2,0:0:0:0:
497,178,129474,1,8,0:0:0:0:
459,49,129643,1,2,0:0:0:0:
334,88,129811,5,2,0:3:0:0:
334,88,129980,1,2,0:3:0:0:
497,178,130149,5,4,0:3:0:0:
497,178,130317,1,4,0:3:0:0:
288,221,130486,5,8,0:3:0:0:
288,221,130654,1,8,0:3:0:0:
494,318,130823,6,0,L|400:328,1,95,2|0,0:0|0:0,0:0:0:0:
382,211,131076,2,0,L|288:221,1,95,2|0,0:0|0:0,0:0:0:0:
284,339,131328,6,0,L|189:348,1,95,2|0,0:0|0:0,0:0:0:0:
163,235,131581,2,0,L|69:245,1,95,2|0,0:0|0:0,0:0:0:0:
216,131,131834,6,0,L|330:120,1,95,2|0,0:0|0:0,0:0:0:0:
382,211,132087,2,0,L|476:201,1,95,2|0,0:0|0:0,0:0:0:0:
512,69,132340,6,0,L|418:79,1,95,2|0,0:0|0:0,0:0:0:0:
326,5,132592,2,0,L|231:14,1,95,2|0,0:0|0:0,0:0:0:0:
127,67,132845,6,0,L|33:77,1,95,2|0,0:0|0:0,0:0:0:0:
14,193,133098,2,0,L|108:183,1,95,2|0,0:0|0:0,0:0:0:0:
127,299,133351,6,0,L|33:309,1,95,2|0,0:0|0:0,0:0:0:0:
223,368,133604,2,0,L|317:358,1,95,2|0,0:0|0:0,0:0:0:0:
324,238,133856,6,0,L|230:248,1,95,2|0,0:0|0:0,0:0:0:0:
210,131,134109,2,0,L|304:121,1,95,2|0,0:0|0:0,0:0:0:0:
413,161,134362,6,0,L|507:151,1,95,2|0,0:0|0:0,0:0:0:0:
486,36,134615,2,0,L|392:46,1,95,2|0,0:0|0:0,0:0:0:0:
283,6,134868,6,0,L|188:15,1,95,2|0,0:0|0:0,0:0:0:0:
101,94,135120,2,0,L|6:103,1,95,2|0,0:0|0:0,0:0:0:0:
210,131,135373,6,0,L|304:121,1,95,2|0,0:0|0:0,0:0:0:0:
126,209,135626,2,0,L|31:218,1,95,2|0,0:0|0:0,0:0:0:0:
237,247,135879,6,0,L|331:237,1,95,2|0,0:0|0:0,0:0:0:0:
398,130,136132,1,0,0:0:0:0:
398,130,136216,6,0,P|351:120|304:120,1,95,2|0,0:0|0:0,0:0:0:0:
190,138,136469,2,0,P|143:147|96:148,1,95,2|0,0:0|0:0,0:0:0:0:
130,30,136722,6,0,P|176:39|223:40,1,95,2|0,0:0|0:0,0:0:0:0:
335,10,136974,2,0,P|381:0|429:0,1,95,2|0,0:0|0:0,0:0:0:0:
492,120,137227,6,0,P|445:129|398:130,1,95,2|0,0:0|0:0,0:0:0:0:
373,255,137480,2,0,P|421:254|468:246,1,95,2|0,0:0|0:0,0:0:0:0:
438,373,137733,6,0,P|391:382|344:383,1,95,2|0,0:0|0:0,0:0:0:0:
136,356,137986,2,0,P|182:366|230:367,1,95,2|0,0:0|0:0,0:0:0:0:
258,254,138238,6,0,P|211:254|165:244,1,95,2|0,0:0|0:0,0:0:0:0:
196,132,138491,2,0,P|242:141|289:142,1,95,2|0,0:0|0:0,0:0:0:0:
393,36,138744,6,0,P|347:26|300:26,1,95,2|0,0:0|0:0,0:0:0:0:
102,122,138997,2,0,P|148:131|195:132,1,95,2|0,0:0|0:0,0:0:0:0:
300,26,139250,6,0,P|253:16|206:15,1,95,2|0,0:0|0:0,0:0:0:0:
8,112,139502,2,0,P|54:121|101:122,1,95,2|0,0:0|0:0,0:0:0:0:
206,15,139755,6,0,P|159:5|112:4,1,95,2|0,0:0|0:0,0:0:0:0:
137,232,140008,2,0,P|183:241|230:242,1,95,2|0,0:0|0:0,0:0:0:0:
393,36,140261,6,0,P|346:26|299:25,1,95,2|0,0:0|0:0,0:0:0:0:
320,253,140514,2,0,P|366:262|413:263,1,95,2|0,0:0|0:0,0:0:0:0:
355,363,140767,6,0,P|307:363|261:354,1,95,2|0,0:0|0:0,0:0:0:0:
52,337,141019,2,0,P|99:346|147:347,1,95,2|0,0:0|0:0,0:0:0:0:
137,232,141272,6,0,P|90:222|42:222,1,95,2|0,0:0|0:0,0:0:0:0:
13,110,141525,1,0,0:0:0:0:
13,110,141609,6,0,L|38:7,1,95,2|0,0:0|0:0,0:0:0:0:
133,110,141862,2,0,L|155:17,1,95,2|0,0:0|0:0,0:0:0:0:
253,110,142115,6,0,L|278:7,1,95,2|0,0:0|0:0,0:0:0:0:
373,110,142368,2,0,L|395:17,1,95,2|0,0:0|0:0,0:0:0:0:
373,274,142620,6,0,L|395:366,1,95,2|0,0:0|0:0,0:0:0:0:
133,274,142873,2,0,L|155:366,1,95,2|0,0:0|0:0,0:0:0:0:
253,274,143126,6,0,L|275:366,1,95,2|0,0:0|0:0,0:0:0:0:
13,274,143379,2,0,L|35:366,1,95,2|0,0:0|0:0,0:0:0:0:
71,173,143632,6,0,L|48:80,1,95,2|0,0:0|0:0,0:0:0:0:
311,173,143884,2,0,L|288:80,1,95,2|0,0:0|0:0,0:0:0:0:
190,173,144137,6,0,L|167:80,1,95,2|0,0:0|0:0,0:0:0:0:
430,173,144390,2,0,L|407:80,1,95,2|0,0:0|0:0,0:0:0:0:
311,173,144643,6,0,L|333:265,1,95,2|0,0:0|0:0,0:0:0:0:
94,266,144896,2,0,L|71:173,1,95,2|0,0:0|0:0,0:0:0:0:
209,248,145149,6,0,L|186:340,1,95,2|0,0:0|0:0,0:0:0:0:
426,341,145401,2,0,L|448:248,1,95,2|0,0:0|0:0,0:0:0:0:
474,135,145654,6,0,L|496:42,1,95,2|0,0:0|0:0,0:0:0:0:
363,168,145907,2,0,L|340:260,1,95,2|0,0:0|0:0,0:0:0:0:
262,111,146160,6,0,L|284:18,1,95,2|0,0:0|0:0,0:0:0:0:
155,154,146413,2,0,L|132:246,1,95,2|0,0:0|0:0,0:0:0:0:
52,104,146665,6,0,L|75:12,1,95,2|0,0:0|0:0,0:0:0:0:
19,217,146918,1,0,0:0:0:0:
19,217,147002,6,0,P|16:268|36:335,1,95,2|0,0:0|0:0,0:0:0:0:
138,339,147255,2,0,P|141:288|121:221,1,95,2|0,0:0|0:0,0:0:0:0:
245,217,147508,6,0,P|242:268|262:335,1,95,2|0,0:0|0:0,0:0:0:0:
364,339,147761,2,0,P|367:288|347:221,1,95,2|0,0:0|0:0,0:0:0:0:
327,134,148014,6,0,P|317:88|321:41,1,95,2|0,0:0|0:0,0:0:0:0:
433,69,148267,2,0,P|443:115|440:163,1,95,2|0,0:0|0:0,0:0:0:0:
214,163,148519,6,0,P|217:112|197:45,1,95,2|0,0:0|0:0,0:0:0:0:
95,41,148772,2,0,P|92:92|112:159,1,95,2|0,0:0|0:0,0:0:0:0:
363,338,149025,6,0,P|368:289|357:245,1,95,2|0,0:0|0:0,0:0:0:0:
129,258,149278,2,0,P|124:309|146:376,1,95,2|0,0:0|0:0,0:0:0:0:
246,299,149531,5,0,0:0:0:0:
246,299,149615,1,0,0:0:0:0:
246,299,149699,6,0,L|241:167,1,95,2|0,0:0|0:0,0:0:0:0:
356,244,149952,2,0,L|360:150,1,95,2|0,0:0|0:0,0:0:0:0:
124,148,150205,6,0,L|128:54,1,95,2|0,0:0|0:0,0:0:0:0:
242,204,150458,2,0,L|239:110,1,95,2|0,0:0|0:0,0:0:0:0:
363,55,150710,6,0,L|358:187,1,95,2|0,0:0|0:0,0:0:0:0:
473,110,150963,2,0,L|476:204,1,95,2|0,0:0|0:0,0:0:0:0:
242,204,151216,6,0,L|237:336,1,95,2|0,0:0|0:0,0:0:0:0:
351,258,151469,2,0,L|354:352,1,95,2|0,0:0|0:0,0:0:0:0:
127,334,151722,5,2,0:0:0:0:
157,124,151890,1,2,0:3:0:0:
351,258,152059,1,8,0:0:0:0:
381,48,152227,1,8,0:3:0:0:
376,49,152311,1,8,0:3:0:0:
371,50,152396,6,0,L|306:69,1,47.5,2|2,0:3|0:0,0:0:0:0:
157,124,152564,2,0,L|222:143,1,47.5,2|2,0:3|0:0,0:0:0:0:
396,244,152733,2,0,L|331:263,1,47.5,8|0,0:0|0:0,0:0:0:0:
259,299,152901,5,0,0:0:0:0:
231,294,152985,1,0,0:0:0:0:
203,289,153069,1,2,0:0:0:0:
176,284,153153,1,0,0:0:0:0:
147,278,153238,6,0,L|73:263,1,47.5,2|0,0:3|0:0,0:0:0:0:
303,162,153407,2,0,L|349:152,1,47.5,8|0,0:0|0:0,0:0:0:0:
396,244,153576,1,0,0:0:0:0:
396,244,153660,1,0,0:0:0:0:
396,244,153744,5,2,0:3:0:0:
431,213,153828,1,2,0:0:0:0:
449,169,153912,1,2,0:0:0:0:
446,123,153996,1,2,0:0:0:0:
421,82,154081,2,0,P|397:63|348:52,1,47.5,8|0,0:0|0:0,0:0:0:0:
286,63,154250,5,0,0:0:0:0:
258,69,154334,1,0,0:0:0:0:
229,71,154418,1,2,0:0:0:0:
201,69,154502,1,0,0:0:0:0:
174,62,154587,6,0,P|147:55|118:44,1,47.5,2|0,0:3|0:0,0:0:0:0:
252,246,154755,2,0,P|278:239|308:228,1,47.5,8|0,0:0|0:0,0:0:0:0:
349,152,154924,1,0,0:0:0:0:
349,152,155008,1,0,0:0:0:0:
349,152,155092,6,0,L|411:157,1,47.5,2|2,0:3|0:0,0:0:0:0:
394,311,155261,2,0,L|347:315,1,47.5,2|2,0:3|0:0,0:0:0:0:
167,203,155429,2,0,L|119:199,1,47.5,8|0,0:0|0:0,0:0:0:0:
247,146,155598,5,0,0:0:0:0:
245,117,155682,1,0,0:0:0:0:
244,89,155766,1,2,0:0:0:0:
242,60,155850,1,0,0:0:0:0:
241,32,155935,6,0,L|297:26,1,47.5,2|0,0:3|0:0,0:3:0:0:
426,66,156104,2,0,L|379:61,1,47.5,8|0,0:0|0:0,0:3:0:0:
349,152,156272,1,0,0:0:0:0:
349,152,156356,1,0,0:0:0:0:
349,152,156441,5,2,0:3:0:0:
351,199,156525,1,2,0:0:0:0:
354,246,156609,1,2,0:0:0:0:
357,294,156693,1,2,0:0:0:0:
359,341,156778,2,0,L|351:388,1,47.5,8|0,0:0|0:0,0:0:0:0:
261,342,156946,5,0,0:0:0:0:
259,313,157030,1,0,0:0:0:0:
258,285,157114,1,2,0:0:0:0:
257,256,157198,1,0,0:0:0:0:
256,228,157283,6,0,L|267:172,1,47.5,2|0,0:3|0:0,0:0:0:0:
449,211,157452,2,0,L|438:267,1,47.5,10|2,0:0|0:0,0:0:0:0:
162,316,157620,1,2,0:0:0:0:
155,245,157704,1,2,0:0:0:0:
148,174,157789,6,0,L|142:102,1,47.5,2|2,0:3|0:0,0:0:0:0:
389,27,157958,2,0,L|385:74,1,47.5,2|2,0:3|0:0,0:0:0:0:
354,303,158126,5,8,0:0:0:0:
327,313,158210,1,0,0:0:0:0:
300,320,158294,1,0,0:0:0:0:
271,322,158378,1,0,0:0:0:0:
243,318,158463,5,2,0:0:0:0:
243,303,158547,1,0,0:0:0:0:
245,289,158632,2,0,P|251:258|264:225,1,47.5,2|0,0:3|0:0,0:0:0:0:
448,144,158800,2,0,P|442:175|429:208,1,47.5,8|0,0:0|0:0,0:0:0:0:
343,210,158969,1,0,0:0:0:0:
342,205,159053,1,0,0:0:0:0:
341,200,159137,5,2,0:3:0:0:
330,153,159221,1,2,0:0:0:0:
328,106,159305,1,2,0:0:0:0:
332,59,159389,1,2,0:0:0:0:
345,13,159474,2,0,P|320:5|293:11,1,47.5,8|0,0:0|0:0,0:0:0:0:
236,80,159643,5,0,0:0:0:0:
211,95,159727,1,0,0:0:0:0:
184,102,159811,1,2,0:0:0:0:
156,101,159895,1,0,0:0:0:0:
129,91,159980,6,0,P|106:84|75:93,1,47.5,2|0,0:3|0:0,0:0:0:0:
134,285,160149,2,0,P|156:291|179:287,1,47.5,8|0,0:0|0:0,0:0:0:0:
260,238,160317,1,0,0:0:0:0:
265,238,160401,1,0,0:0:0:0:
270,238,160486,6,0,L|325:239,1,47.5,2|2,0:3|0:0,0:3:0:0:
298,62,160654,2,0,L|243:63,1,47.5,2|2,0:3|0:0,0:3:0:0:
33,166,160823,5,8,0:0:0:0:
28,194,160907,1,0,0:0:0:0:
26,222,160991,1,0,0:0:0:0:
26,250,161075,1,0,0:0:0:0:
29,279,161160,5,2,0:0:0:0:
42,283,161244,1,0,0:0:0:0:
56,285,161328,2,0,P|84:287|119:282,1,47.5,2|0,0:3|0:0,0:0:0:0:
195,154,161497,2,0,P|218:151|242:153,1,47.5,8|0,0:0|0:0,0:0:0:0:
312,242,161665,1,0,0:0:0:0:
312,242,161750,1,0,0:0:0:0:
312,242,161834,5,2,0:3:0:0:
340,204,161918,1,2,0:0:0:0:
352,158,162002,1,2,0:0:0:0:
345,112,162086,1,2,0:0:0:0:
321,71,162171,2,0,P|296:55|268:52,1,47.5,8|0,0:0|0:0,0:0:0:0:
183,55,162340,5,0,0:0:0:0:
154,58,162424,1,0,0:0:0:0:
126,58,162508,1,2,0:0:0:0:
97,56,162592,1,0,0:0:0:0:
69,51,162677,6,0,P|44:48|12:55,1,47.5,2|0,0:3|0:0,0:0:0:0:
163,298,162845,2,0,P|188:301|220:294,1,47.5,8|2,0:0|0:0,0:0:0:0:
345,112,163014,1,2,0:0:0:0:
412,90,163098,1,2,0:0:0:0:
481,105,163182,6,0,P|503:117|526:144,1,47.5,2|2,0:3|0:0,0:0:0:0:
278,147,163351,2,0,P|255:134|233:108,1,47.5,2|2,0:3|0:0,0:0:0:0:
417,290,163519,2,0,P|423:314|421:349,1,47.5,8|0,0:0|0:0,0:0:0:0:
334,372,163688,5,0,0:0:0:0:
305,370,163772,1,0,0:0:0:0:
277,368,163856,1,2,0:0:0:0:
248,367,163940,1,0,0:0:0:0:
220,365,164025,6,0,L|159:359,1,47.5,2|0,0:3|0:0,0:0:0:0:
149,207,164193,2,0,L|197:203,1,47.5,8|0,0:0|0:0,0:0:0:0:
104,293,164362,1,0,0:0:0:0:
99,291,164446,1,0,0:0:0:0:
95,288,164531,5,2,0:3:0:0:
63,253,164615,1,2,0:0:0:0:
52,207,164699,1,2,0:0:0:0:
63,161,164783,1,2,0:0:0:0:
94,126,164868,5,8,0:0:0:0:
122,123,164952,1,0,0:0:0:0:
150,119,165036,1,0,0:0:0:0:
179,116,165120,1,0,0:0:0:0:
207,113,165205,5,2,0:0:0:0:
211,113,165289,1,0,0:0:0:0:
215,113,165373,2,0,L|273:110,1,47.5,2|0,0:3|0:3,0:3:0:0:
381,212,165542,2,0,L|323:209,1,47.5,8|0,0:0|0:3,0:3:0:0:
240,208,165710,1,0,0:0:0:0:
235,210,165795,1,0,0:0:0:0:
231,213,165879,6,0,L|161:223,1,47.5,2|2,0:3|0:0,0:0:0:0:
358,116,166047,2,0,L|428:106,1,47.5,2|2,0:3|0:0,0:0:0:0:
291,301,166216,2,0,L|221:311,1,47.5,8|0,0:0|0:0,0:0:0:0:
372,358,166384,5,0,0:0:0:0:
400,362,166468,1,0,0:0:0:0:
428,358,166552,1,2,0:0:0:0:
454,346,166636,1,0,0:0:0:0:
476,328,166722,6,0,P|486:300|481:263,1,47.5,2|0,0:3|0:0,0:3:0:0:
276,202,166890,2,0,P|252:203|230:212,1,47.5,8|0,0:0|0:0,0:3:0:0:
243,307,167059,1,0,0:0:0:0:
238,306,167143,1,0,0:0:0:0:
233,305,167227,5,2,0:3:0:0:
187,293,167311,1,2,0:0:0:0:
153,261,167395,1,2,0:0:0:0:
139,216,167479,1,2,0:0:0:0:
148,170,167564,5,8,0:0:0:0:
120,172,167648,1,0,0:0:0:0:
94,184,167732,1,0,0:0:0:0:
75,205,167816,1,0,0:0:0:0:
65,232,167901,5,2,0:0:0:0:
56,220,167985,1,0,0:0:0:0:
49,208,168069,1,2,0:3:0:0:
43,195,168153,1,0,0:0:0:0:
40,181,168238,5,10,0:0:0:0:
22,224,168322,1,2,0:0:0:0:
15,271,168406,1,2,0:0:0:0:
20,318,168490,1,2,0:0:0:0:
37,363,168576,6,0,L|92:377,15,38,2|0|0|0|0|0|0|0|0|0|0|0|0|0|0|0,0:0|0:0|0:0|0:0|0:0|0:0|0:0|0:0|0:0|0:0|0:0|0:0|0:0|0:0|0:0|0:0,0:0:0:0:
163,331,169924,6,0,L|213:319,15,38,2|0|0|0|0|0|0|0|0|0|0|0|0|0|0|0,0:0|0:0|0:0|0:0|0:0|0:0|0:0|0:0|0:0|0:0|0:0|0:0|0:0|0:0|0:0|0:0,0:0:0:0:
256,192,171272,12,2,172620,0:0:0:0:
207,48,172958,5,2,0:0:0:0:
453,203,173295,1,2,0:0:0:0:
207,312,173632,1,2,0:0:0:0:
207,48,173969,5,6,0:3:0:0:
453,203,174137,1,2,0:3:0:0:
207,48,174306,1,8,0:0:0:0:
251,189,174474,5,0,0:0:0:0:
296,164,174558,1,0,0:0:0:0:
330,125,174642,1,2,0:2:0:0:
349,76,174726,1,0,0:0:0:0:
351,24,174811,1,2,0:3:0:0:
349,299,174980,2,0,P|307:328|256:338,1,104.500003189087,8|0,0:0|0:0,0:0:0:0:
227,145,175317,6,0,L|334:124,1,104.500003189087,2|0,0:3|0:0,0:0:0:0:
86,206,175654,1,8,0:0:0:0:
55,57,175823,1,0,0:0:0:0:
107,55,175908,1,0,0:0:0:0:
157,71,175992,1,2,0:2:0:0:
199,102,176076,1,0,0:0:0:0:
227,145,176160,1,2,0:3:0:0:
47,299,176328,2,0,P|56:248|86:205,1,104.500003189087,8|0,0:0|0:0,0:0:0:0:
439,183,176665,5,2,0:3:0:0:
188,305,176833,1,2,0:3:0:0:
439,183,177002,1,8,0:0:0:0:
385,324,177171,5,0,0:0:0:0:
339,296,177256,1,0,0:0:0:0:
308,255,177340,1,2,0:2:0:0:
292,205,177424,1,0,0:0:0:0:
294,153,177508,1,2,0:3:0:0:
488,329,177677,2,0,P|438:332|344:306,1,104.500003189087,8|0,0:0|0:0,0:0:0:0:
455,79,178014,6,0,L|438:186,1,104.500003189087,2|0,0:3|0:0,0:0:0:0:
327,6,178351,1,8,0:0:0:0:
294,153,178519,1,0,0:0:0:0:
275,204,178604,1,0,0:0:0:0:
241,242,178688,1,2,0:2:0:0:
195,267,178772,1,0,0:0:0:0:
143,275,178856,1,2,0:3:0:0:
147,27,179025,2,0,L|148:131,1,104.500003189087,8|0,0:0|0:0,0:0:0:0:
421,226,179362,5,2,0:3:0:0:
148,131,179531,1,2,0:3:0:0:
496,103,179699,1,8,0:0:0:0:
374,41,179868,5,0,0:0:0:0:
374,41,179952,1,0,0:0:0:0:
374,41,180036,1,2,0:2:0:0:
196,266,180205,1,2,0:3:0:0:
512,224,180373,1,8,0:0:0:0:
373,251,180542,1,0,0:0:0:0:
373,251,180626,1,0,0:0:0:0:
373,251,180710,6,0,L|346:150,1,104.500003189087,2|0,0:3|0:0,0:0:0:0:
67,104,181047,2,0,P|164:146|274:116,1,209.000006378174,8|2,0:0|0:2,0:0:0:0:
261,124,181469,1,0,0:0:0:0:
261,124,181553,1,2,0:3:0:0:
0,233,181722,1,8,0:0:0:0:
67,104,181890,1,0,0:0:0:0:
263,335,182059,5,2,0:3:0:0:
480,147,182227,1,2,0:3:0:0:
152,232,182396,1,8,0:0:0:0:
261,124,182564,5,0,0:0:0:0:
261,124,182649,1,0,0:0:0:0:
261,124,182733,1,2,0:2:0:0:
78,362,182901,1,2,0:3:0:0:
67,104,183070,1,8,0:0:0:0:
152,232,183238,1,0,0:0:0:0:
386,203,183407,6,0,P|405:156|407:104,1,104.500003189087,2|0,0:3|0:0,0:0:0:0:
277,304,183744,2,0,P|370:342|477:319,1,209.000006378174,8|2,0:0|0:2,0:0:0:0:
472,321,184165,1,0,0:0:0:0:
472,321,184250,1,2,0:3:0:0:
152,232,184418,1,8,0:0:0:0:
78,362,184587,1,0,0:0:0:0:
72,109,184755,5,2,0:3:0:0:
277,304,184924,1,2,0:3:0:0:
413,53,185092,6,0,B|346:61|346:61|274:44|274:44|201:53,1,209.000006378174,8|2,0:0|0:2,0:0:0:0:
477,185,185598,1,2,0:3:0:0:
477,185,185682,1,0,0:0:0:0:
477,185,185766,1,8,0:0:0:0:
413,53,185935,1,0,0:0:0:0:
277,304,186104,6,0,L|169:302,1,104.500003189087,2|0,0:3|0:0,0:0:0:0:
420,329,186441,1,8,0:0:0:0:
438,192,186609,1,0,0:0:0:0:
438,192,186693,1,0,0:0:0:0:
438,192,186778,1,2,0:2:0:0:
200,178,186946,1,2,0:3:0:0:
447,51,187115,2,0,L|313:44,1,104.500003189087,8|0,0:0|0:0,0:0:0:0:
91,33,187452,5,2,0:3:0:0:
132,310,187620,1,2,0:3:0:0:
401,183,187789,6,0,P|314:156|193:183,1,209.000006378174,8|2,0:0|0:2,0:0:0:0:
447,51,188295,1,2,0:3:0:0:
447,51,188379,1,0,0:0:0:0:
447,51,188463,1,8,0:0:0:0:
401,183,188632,1,0,0:0:0:0:
172,24,188800,6,0,L|68:32,1,104.500003189087,2|0,0:3|0:0,0:3:0:0:
302,79,189137,1,8,0:0:0:0:
193,174,189306,1,0,0:0:0:0:
193,174,189390,1,0,0:0:0:0:
193,174,189474,1,2,0:2:0:0:
447,51,189643,1,2,0:3:0:0:
306,331,189811,2,0,P|241:338|183:329,1,104.500003189087,8|0,0:0|0:0,0:0:0:0:
230,50,190149,5,2,0:3:0:0:
474,143,190317,1,2,0:3:0:0:
125,264,190486,6,0,P|123:212|144:165,1,104.500003189087,8|0,0:0|0:0,0:0:0:0:
144,165,190738,1,0,0:0:0:0:
144,165,190823,1,2,0:2:0:0:
19,358,190991,1,2,0:3:0:0:
306,331,191160,2,0,P|357:328|424:334,1,104.500003189087,8|0,0:0|0:0,0:0:0:0:
474,143,191497,6,0,P|397:137|332:147,1,104.500003189087,2|0,0:3|0:0,0:0:0:0:
32,209,191834,2,0,P|135:220|237:197,1,209.000006378174,8|2,0:0|0:2,0:0:0:0:
237,197,192255,1,0,0:0:0:0:
237,197,192340,1,2,0:3:0:0:
121,368,192508,2,8,P|69:368|18:357,1,104.500003189087,8|0,0:0|0:0,0:0:0:0:
130,93,192845,5,2,0:3:0:0:
121,368,193014,1,2,0:3:0:0:
468,246,193182,6,0,P|476:195|473:142,1,104.500003189087,8|0,0:0|0:0,0:0:0:0:
473,142,193435,1,0,0:0:0:0:
473,142,193519,1,2,0:2:0:0:
384,357,193688,1,2,0:3:0:0:
330,105,193856,2,0,L|308:2,1,104.500003189087,8|0,0:0|0:0,0:0:0:0:
225,207,194193,6,0,P|296:248|341:250,1,104.500003189087,2|0,0:3|0:0,0:0:0:0:
185,69,194531,6,0,P|100:137|92:257,1,209.000006378174,8|8,0:0|0:3,0:0:0:0:
84,231,194952,1,8,0:3:0:0:
84,231,195036,1,10,0:3:0:0:
12,23,195205,1,8,0:0:0:0:
340,107,195373,1,8,0:3:0:0:
400,123,195457,1,8,0:3:0:0:
460,138,195541,5,14,0:3:0:0:
91,238,195710,1,2,0:3:0:0:
467,331,195879,1,8,0:0:0:0:
341,256,196047,6,0,L|282:233,1,52.2500015945435
185,344,196216,2,0,L|233:362,1,52.2500015945435,2|0,0:2|0:0,0:0:0:0:
191,126,196384,1,2,0:3:0:0:
471,141,196553,2,0,L|445:23,1,104.500003189087,8|0,0:0|0:0,0:0:0:0:
191,126,196890,6,0,P|125:123|56:97,1,104.500003189087,2|0,0:3|0:0,0:0:0:0:
306,28,197227,1,8,0:0:0:0:
328,166,197396,1,0,0:0:0:0:
305,213,197480,1,0,0:0:0:0:
267,248,197564,1,2,0:2:0:0:
219,267,197648,1,0,0:0:0:0:
167,268,197733,1,2,0:3:0:0:
377,339,197901,2,0,P|476:332|513:318,1,104.500003189087,8|0,0:0|0:0,0:0:0:0:
441,76,198238,5,2,0:3:0:0:
191,126,198407,1,2,0:3:0:0:
377,339,198576,1,8,0:0:0:0:
460,220,198744,6,0,L|511:228,1,52.2500015945435
267,248,198913,2,0,L|206:258,1,52.2500015945435,2|0,0:2|0:0,0:0:0:0:
441,76,199081,1,2,0:3:0:0:
474,364,199250,2,0,P|423:362|377:339,1,104.500003189087,8|0,0:0|0:0,0:0:0:0:
83,250,199587,6,0,L|95:353,1,104.500003189087,2|0,0:3|0:0,0:0:0:0:
24,122,199924,1,8,0:0:0:0:
161,123,200092,1,0,0:0:0:0:
201,153,200176,1,0,0:0:0:0:
227,199,200260,1,2,0:2:0:0:
237,249,200344,1,0,0:0:0:0:
226,300,200429,1,2,0:3:0:0:
337,75,200598,2,0,P|400:68|475:90,1,104.500003189087,8|0,0:0|0:0,0:0:0:0:
220,0,200935,5,2,0:3:0:0:
83,250,201104,1,2,0:3:0:0:
387,213,201272,1,8,0:0:0:0:
362,357,201441,5,0,0:0:0:0:
362,357,201525,1,0,0:0:0:0:
362,357,201609,1,2,0:2:0:0:
482,100,201778,1,2,0:3:0:0:
160,122,201946,2,0,P|105:121|53:105,1,104.500003189087,8|0,0:0|0:0,0:0:0:0:
237,249,202283,6,0,P|234:317|209:380,1,104.500003189087,2|0,0:3|0:0,0:0:0:0:
297,110,202620,2,0,P|417:65|505:131,1,209.000006378174,8|2,0:0|0:2,0:2:0:0:
482,100,203042,1,0,0:0:0:0:
482,100,203126,1,2,0:3:0:0:
217,0,203295,1,8,0:0:0:0:
160,122,203463,1,0,0:0:0:0:
397,219,203632,5,2,0:3:0:0:
102,277,203800,1,2,0:3:0:0:
436,359,203969,1,8,0:0:0:0:
295,384,204137,5,0,0:0:0:0:
295,384,204222,1,0,0:0:0:0:
295,384,204306,1,2,0:2:0:0:
297,110,204474,1,2,0:3:0:0:
102,277,204643,2,0,P|55:282|-18:262,1,104.500003189087,8|0,0:0|0:0,0:0:0:0:
247,248,204980,6,0,P|252:295|232:368,1,104.500003189087,2|0,0:3|0:0,0:0:0:0:
151,142,205317,2,0,P|257:106|363:165,1,209.000006378174,8|2,0:0|0:2,0:0:0:0:
342,141,205738,1,0,0:0:0:0:
342,141,205823,1,2,0:3:0:0:
89,10,205991,1,8,0:0:0:0:
7,130,206160,1,0,0:0:0:0:
235,13,206328,5,2,0:3:0:0:
187,280,206497,1,2,0:3:0:0:
468,208,206665,6,0,B|510:102|450:106|480:3,1,209.000006378174,8|2,0:0|0:2,0:0:0:0:
342,141,207171,1,2,0:3:0:0:
342,141,207255,1,0,0:0:0:0:
342,141,207340,1,8,0:0:0:0:
197,134,207508,1,0,0:0:0:0:
327,345,207677,6,0,P|379:348|430:341,1,104.500003189087,2|0,0:3|0:0,0:0:0:0:
197,304,208014,1,8,0:0:0:0:
66,358,208182,1,0,0:0:0:0:
62,331,208267,1,0,0:0:0:0:
58,305,208351,1,2,0:2:0:0:
314,205,208519,1,2,0:3:0:0:
318,232,208604,1,0,0:0:0:0:
322,258,208688,1,8,0:0:0:0:
188,143,208856,1,0,0:0:0:0:
441,138,209025,5,2,0:3:0:0:
197,304,209193,1,2,0:3:0:0:
109,39,209362,6,0,P|215:56|341:40,1,209.000006378174,8|2,0:0|0:2,0:0:0:0:
47,169,209868,1,2,0:3:0:0:
47,169,209952,1,0,0:0:0:0:
47,169,210036,1,8,0:0:0:0:
109,39,210205,1,0,0:0:0:0:
185,236,210373,6,0,P|194:287|180:359,1,104.500003189087,2|0,0:3|0:0,0:0:0:0:
312,151,210710,1,8,0:0:0:0:
268,15,210879,1,0,0:0:0:0:
295,11,210964,1,0,0:0:0:0:
321,7,211048,1,2,0:2:0:0:
421,263,211216,1,2,0:3:0:0:
394,267,211301,1,0,0:0:0:0:
368,271,211385,1,8,0:0:0:0:
465,131,211553,1,0,0:0:0:0:
203,131,211722,5,2,0:3:0:0:
465,131,211890,1,2,0:3:0:0:
72,131,212059,1,8,0:0:0:0:
336,131,212227,5,0,0:0:0:0:
336,131,212311,1,0,0:0:0:0:
336,131,212396,1,2,0:2:0:0:
138,249,212564,1,2,0:3:0:0:
385,314,212733,2,0,P|481:324|505:318,1,104.500003189087,8|0,0:0|0:0,0:0:0:0:
336,131,213070,6,0,L|343:17,1,104.500003189087,2|0,0:3|0:0,0:0:0:0:
138,249,213407,2,0,L|125:32,1,209.000006378174,8|2,0:0|0:2,0:0:0:0:
125,40,213828,1,0,0:0:0:0:
125,40,213912,1,2,0:3:0:0:
372,180,214081,1,8,0:0:0:0:
465,89,214250,1,0,0:0:0:0:
276,274,214418,5,2,0:3:0:0:
465,89,214587,1,2,0:3:0:0:
182,364,214755,1,8,0:0:0:0:
379,186,214924,5,0,0:0:0:0:
379,186,215008,1,0,0:0:0:0:
379,186,215092,1,2,0:2:0:0:
150,232,215261,1,2,0:3:0:0:
407,318,215429,2,0,P|454:298|490:260,1,104.500003189087,8|0,0:0|0:0,0:0:0:0:
379,186,215767,5,8,0:0:0:0:
269,318,215935,1,2,0:0:0:0:
249,342,216019,1,2,0:0:0:0:
224,362,216103,1,2,0:0:0:0:
195,376,216187,1,2,0:0:0:0:
164,384,216272,1,8,0:0:0:0:
146,237,216441,1,2,0:0:0:0:
268,168,216609,5,8,0:3:0:0:
323,175,216693,1,8,0:3:0:0:
378,182,216777,1,8,0:0:0:0:
151,87,216946,1,8,0:3:0:0:
510,121,217115,5,4,0:0:0:0:
256,192,238688,6,0,P|363:201|466:196,1,199.499993911743,2|2,0:3|0:3,0:0:0:0:
256,192,240036,6,0,P|149:201|46:196,1,199.499993911743,2|2,0:3|0:3,0:0:0:0:
256,192,241384,6,0,P|224:64|256:0,1,199.499993911743,2|2,0:3|0:3,0:0:0:0:
256,192,242733,6,0,P|288:320|256:384,1,199.499993911743,2|2,0:3|0:3,0:0:0:0:
300,126,244081,6,0,L|460:110,1,142.500005435944,2|0,0:3|0:0,0:0:0:0:
441,111,244587,1,2,0:3:0:0:
456,210,244755,2,0,L|363:220,1,71.2500027179719,0|2,0:0|0:3,0:0:0:0:
286,225,245092,2,0,L|249:233,3,35.625001358986
286,225,245429,6,0,P|305:291|272:368,1,142.500005435944,2|0,0:3|0:0,0:0:0:0:
280,358,245935,1,2,0:3:0:0:
176,353,246104,2,0,P|183:318|201:288,1,71.2500027179719,0|2,0:0|0:3,0:0:0:0:
286,225,246441,2,0,L|268:165,3,35.625001358986
286,225,246778,6,0,L|433:207,1,142.500005435944,2|0,0:3|0:0,0:0:0:0:
427,207,247283,1,2,0:3:0:0:
415,94,247452,2,0,L|336:99,1,71.2500027179719,0|2,0:0|0:3,0:0:0:0:
233,73,247789,2,0,L|199:64,3,35.625001358986
198,63,248126,6,0,P|145:69|101:58,1,71.2500027179719,2|0,0:3|0:0,0:0:0:0:
74,243,248463,2,0,L|61:172,1,71.2500027179719,0|2,0:0|0:3,0:0:0:0:
199,263,248800,2,0,L|183:353,1,71.2500027179719,0|2,0:0|0:3,0:0:0:0:
342,264,249137,2,0,P|331:206|297:167,1,106.875004076958
301,170,249474,6,0,P|381:161|494:176,1,170.999994781494,2|8,0:3|0:0,0:0:0:0:
478,50,249980,2,0,P|429:49|357:37,1,85.4999973907472,2|0,0:3|0:0,0:0:0:0:
272,50,250317,1,8,0:0:0:0:
301,170,250486,1,0,1:0:0:0:
298,191,250570,1,0,1:0:0:0:
296,212,250654,1,0,1:0:0:0:
293,233,250738,1,0,1:0:0:0:
291,254,250823,6,0,P|329:266|394:262,1,85.4999973907472,2|0,0:3|0:0,0:0:0:0:
182,216,251160,1,8,0:0:0:0:
77,270,251328,2,0,P|64:229|64:186,1,85.4999973907472,2|0,0:3|0:0,0:0:0:0:
182,216,251665,1,8,0:0:0:0:
141,62,251834,5,0,1:0:0:0:
173,72,251918,1,0,1:0:0:0:
207,77,252002,1,0,1:0:0:0:
241,77,252086,1,0,1:0:0:0:
275,71,252171,5,2,1:3:0:0:
261,111,252255,1,0,1:0:0:0:
254,154,252339,1,0,1:0:0:0:
254,196,252423,1,0,1:0:0:0:
281,231,252508,6,0,L|335:226,1,42.7499986953736,8|0,1:2|0:0,0:0:0:0:
176,290,252677,2,0,L|122:285,1,42.7499986953736,2|0,1:3|0:0,0:0:0:0:
281,354,252845,5,2,0:0:0:0:
261,111,253014,1,8,0:0:0:0:
403,216,253182,5,0,1:0:0:0:
405,194,253266,1,0,1:0:0:0:
407,173,253350,1,0,1:0:0:0:
409,152,253434,1,0,1:0:0:0:
412,130,253519,5,2,0:3:0:0:
281,231,253688,1,0,0:0:0:0:
159,47,253856,6,0,P|243:34|329:40,1,170.999994781494,8|2,0:0|0:0,0:0:0:0:
175,169,254362,1,8,0:0:0:0:
46,7,254531,5,0,1:0:0:0:
45,39,254615,1,0,1:0:0:0:
44,71,254699,1,0,1:0:0:0:
43,103,254783,1,0,1:0:0:0:
42,135,254868,6,0,L|11:42,1,90.2499975900651,2|0,0:3|0:0,0:0:0:0:
320,182,255205,1,8,0:0:0:0:
84,272,255373,1,2,0:3:0:0:
227,296,255542,1,2,0:0:0:0:
42,135,255710,1,8,0:0:0:0:
207,29,255879,1,0,1:0:0:0:
201,62,255964,1,0,1:0:0:0:
194,95,256048,1,0,1:0:0:0:
187,128,256132,1,0,1:0:0:0:
181,162,256216,5,2,0:3:0:0:
347,49,256384,1,0,0:0:0:0:
290,257,256553,2,0,P|241:293|201:305,1,90.2499975900651,8|2,0:0|0:3,0:0:0:0:
181,162,256890,1,2,0:0:0:0:
411,180,257059,1,8,0:0:0:0:
210,22,257227,1,0,1:0:0:0:
176,18,257311,1,0,1:0:0:0:
142,23,257395,1,0,1:0:0:0:
111,36,257479,1,0,1:0:0:0:
84,56,257564,5,2,0:0:0:0:
256,192,257649,12,2,258913,0:3:0:0:
256,192,259418,5,2,0:3:0:0:
256,192,259587,2,0,P|291:159|313:211,1,99.7499969558717,2|0,0:3|0:0,0:0:0:0:
326,225,259924,6,0,L|342:80,1,142.5,2|0,0:3|0:0,0:0:0:0:
344,67,260261,5,2,0:3:0:0:
463,287,260429,1,2,0:3:0:0:
189,284,260598,6,0,P|178:217|193:160,1,104.500003189087,8|0,0:0|0:0,0:0:0:0:
184,181,260851,1,0,0:0:0:0:
184,181,260935,1,2,0:2:0:0:
326,339,261104,1,2,0:3:0:0:
469,139,261272,2,0,P|480:72|465:15,1,104.500003189087,8|0,0:0|0:0,0:0:0:0:
230,26,261609,6,0,P|162:42|126:34,1,104.500003189087,2|0,0:3|0:0,0:0:0:0:
315,241,261946,1,8,0:0:0:0:
38,146,262115,2,0,P|32:250|40:354,1,209.000006378174,0|2,0:0|0:3,0:0:0:0:
40,354,262536,1,0,0:0:0:0:
40,354,262620,1,8,0:0:0:0:
177,299,262789,1,0,0:0:0:0:
129,35,262958,5,2,0:3:0:0:
405,76,263126,1,2,0:3:0:0:
177,299,263295,6,0,P|152:211|160:183,1,104.500003189087,8|0,0:0|0:0,0:0:0:0:
154,200,263547,1,0,0:0:0:0:
154,200,263632,1,2,0:2:0:0:
41,355,263800,1,2,0:3:0:0:
312,361,263969,2,0,P|385:359|439:343,1,104.500003189087,8|0,0:0|0:0,0:0:0:0:
463,116,264306,6,0,L|479:220,1,104.500003189087,2|0,0:3|0:0,0:0:0:0:
157,217,264643,2,0,L|177:-4,1,209.000006378174,8|2,0:0|0:2,0:0:0:0:
25,280,265149,1,2,0:3:0:0:
25,280,265233,1,0,0:0:0:0:
25,280,265317,1,8,0:0:0:0:
25,132,265486,1,0,0:0:0:0:
287,300,265654,5,2,0:3:0:0:
175,8,265823,1,2,0:3:0:0:
151,358,265991,1,8,0:0:0:0:
287,300,266160,5,0,0:0:0:0:
336,282,266244,1,0,0:0:0:0:
388,284,266328,1,2,0:2:0:0:
436,303,266412,1,0,0:0:0:0:
474,338,266497,1,2,0:3:0:0:
171,211,266665,2,0,P|175:160|205:118,1,104.500003189087,8|0,0:0|0:0,0:0:0:0:
151,358,267002,6,0,L|32:340,1,104.500003189087,2|0,0:3|0:0,0:0:0:0:
287,300,267340,1,8,0:0:0:0:
287,300,267508,2,0,L|404:285,1,104.500003189087,0|2,0:0|0:2,0:0:0:0:
171,211,267845,1,2,0:3:0:0:
171,211,267929,1,0,0:0:0:0:
171,211,268014,2,0,L|52:188,1,104.500003189087,8|0,0:0|0:0,0:0:0:0:
397,128,268351,5,2,0:3:0:0:
171,211,268519,1,2,0:3:0:0:
453,262,268688,1,8,0:0:0:0:
314,254,268856,5,0,0:0:0:0:
314,254,268941,1,0,0:0:0:0:
314,254,269025,2,0,L|326:325,1,52.2500015945435,2|0,0:2|0:0,0:0:0:0:
256,88,269193,1,2,0:3:0:0:
190,356,269362,2,0,P|133:370|84:362,1,104.500003189087,8|0,0:0|0:0,0:0:0:0:
110,82,269699,5,2,0:3:0:0:
110,82,269868,1,0,0:0:0:0:
397,128,270036,1,8,0:0:0:0:
397,128,270205,1,0,0:0:0:0:
258,226,270373,2,0,P|206:226|154:216,1,104.500003189087,2|2,0:2|0:3,0:0:0:0:
154,216,270626,1,0,0:0:0:0:
154,216,270710,1,8,0:0:0:0:
258,78,270879,1,0,0:0:0:0:
219,367,271047,5,2,0:3:0:0:
110,82,271216,1,2,0:3:0:0:
387,153,271384,1,8,0:0:0:0:
258,78,271553,6,0,L|249:18,1,52.2500015945435
500,57,271722,2,0,L|510:5,1,52.2500015945435,2|0,0:2|0:0,0:0:0:0:
369,305,271890,1,2,0:3:0:0:
257,78,272059,2,0,P|205:73|153:76,1,104.500003189087,8|0,0:0|0:0,0:0:0:0:
98,267,272396,6,0,L|97:214,1,52.2500015945435,2|0,0:3|0:0,0:0:0:0:
239,226,272564,1,0,0:0:0:0:
14,95,272733,1,8,0:0:0:0:
204,370,272901,2,0,P|308:374|409:349,1,209.000006378174,0|2,0:0|0:3,0:0:0:0:
408,350,273323,1,0,0:0:0:0:
408,350,273407,1,8,0:0:0:0:
385,207,273576,1,0,0:0:0:0:
98,267,273744,6,0,L|111:199,1,52.2500015945435,2|0,0:3|0:0,0:0:0:0:
171,24,273913,2,0,L|180:75,1,52.2500015945435,2|0,0:3|0:0,0:0:0:0:
231,321,274081,1,8,0:0:0:0:
282,181,274250,5,0,0:0:0:0:
291,186,274334,1,0,0:0:0:0:
300,191,274418,2,0,L|358:203,1,52.2500015945435,2|0,0:2|0:0,0:0:0:0:
512,119,274587,2,0,L|461:109,1,52.2500015945435,2|0,0:3|0:0,0:0:0:0:
208,58,274755,1,8,0:0:0:0:
355,56,274924,1,0,0:0:0:0:
332,338,275092,6,0,P|276:335|229:320,1,104.500003189087,2|0,0:3|0:0,0:0:0:0:
355,56,275429,2,0,P|277:54|146:67,1,209.000006378174,8|2,0:0|0:2,0:0:0:0:
383,199,275935,1,2,0:3:0:0:
383,199,276019,1,0,0:0:0:0:
383,199,276104,1,8,0:0:0:0:
492,102,276272,1,0,0:0:0:0:
357,380,276441,5,2,0:3:0:0:
284,78,276609,1,2,0:3:0:0:
129,384,276778,1,8,0:0:0:0:
265,304,276946,5,0,0:0:0:0:
265,304,277031,1,0,0:0:0:0:
265,304,277115,1,2,0:2:0:0:
512,236,277283,1,2,0:3:0:0:
168,193,277452,2,0,P|135:237|118:293,1,104.500003189087,8|0,0:0|0:0,0:0:0:0:
316,168,277789,6,0,L|303:50,1,104.500003189087,2|0,0:3|0:0,0:0:0:0:
265,304,278126,1,8,0:0:0:0:
265,304,278295,2,0,P|335:313|389:293,1,104.500003189087,0|2,0:0|0:2,0:0:0:0:
167,190,278632,1,2,0:3:0:0:
444,90,278800,2,0,P|462:139|461:191,1,104.500003189087,8|2,0:0|0:2,0:0:0:0:
512,327,279137,5,2,0:3:0:0:
310,162,279306,1,2,0:3:0:0:
512,327,279474,6,0,P|357:342|300:333,1,209.000006378174,8|2,0:0|0:2,0:0:0:0:
62,278,279980,1,2,0:3:0:0:
62,278,280064,1,0,0:0:0:0:
62,278,280149,1,8,0:0:0:0:
171,379,280317,1,0,0:0:0:0:
220,170,280486,6,0,P|221:110|219:57,1,104.500003189087,2|0,0:3|0:0,0:0:0:0:
444,229,280823,6,0,P|425:299|292:328,1,209.000006378174,8|10,0:0|0:3,0:0:0:0:
304,333,281244,1,8,0:3:0:0:
304,333,281328,1,8,0:3:0:0:
364,103,281497,1,8,0:0:0:0:
118,208,281665,1,8,0:3:0:0:
99,266,281749,1,8,0:3:0:0:
79,324,281833,5,14,0:3:0:0:
223,57,282002,1,2,0:3:0:0:
413,369,282171,1,8,0:0:0:0:
490,244,282340,5,0,0:0:0:0:
478,192,282424,1,0,0:0:0:0:
467,141,282508,1,2,0:2:0:0:
456,90,282592,1,0,0:0:0:0:
445,39,282677,1,2,0:3:0:0:
352,272,282845,1,8,0:0:0:0:
352,272,283014,1,0,0:0:0:0:
190,59,283182,6,0,L|172:-17,1,52.2500015945435,2|0,0:3|0:0,0:0:0:0:
316,127,283351,1,0,0:0:0:0:
72,145,283519,1,8,0:0:0:0:
352,272,283688,2,0,P|246:289|142:271,1,209.000006378174,0|2,0:0|0:3,0:0:0:0:
146,272,284109,1,0,0:0:0:0:
146,272,284193,1,8,0:0:0:0:
0,279,284362,1,0,0:0:0:0:
219,144,284531,5,2,0:3:0:0:
0,279,284699,1,2,0:3:0:0:
162,10,284868,1,8,0:0:0:0:
226,151,285036,5,0,0:0:0:0:
226,151,285120,1,0,0:0:0:0:
226,151,285205,2,0,L|288:132,1,52.2500015945435,2|0,0:2|0:0,0:0:0:0:
65,135,285373,1,2,0:3:0:0:
230,292,285542,2,0,P|301:289|356:277,1,104.500003189087,8|0,0:0|0:0,0:0:0:0:
387,51,285879,5,2,0:3:0:0:
387,51,286047,1,0,0:0:0:0:
460,356,286216,1,8,0:0:0:0:
460,356,286384,1,0,0:0:0:0:
333,282,286553,1,2,0:2:0:0:
333,282,286637,1,0,0:0:0:0:
333,282,286722,1,2,0:3:0:0:
251,0,286890,1,8,0:0:0:0:
394,58,287059,1,0,0:0:0:0:
394,58,287143,1,0,0:0:0:0:
394,58,287227,5,2,0:3:0:0:
110,51,287396,1,2,0:3:0:0:
442,188,287564,1,8,0:0:0:0:
333,282,287733,5,0,0:0:0:0:
333,282,287817,1,0,0:0:0:0:
333,282,287901,1,2,0:2:0:0:
41,178,288070,1,2,0:3:0:0:
338,27,288238,1,8,0:0:0:0:
338,27,288407,1,0,0:0:0:0:
195,235,288576,6,0,P|187:287|198:338,1,104.500003189087,2|0,0:3|0:0,0:0:0:0:
451,188,288913,1,8,0:0:0:0:
451,188,289081,2,0,P|459:136|448:85,1,104.500003189087,0|2,0:0|0:2,0:0:0:0:
331,279,289418,1,2,0:3:0:0:
331,279,289502,1,0,0:0:0:0:
331,279,289587,2,0,L|346:390,1,104.500003189087,8|0,0:0|0:0,0:0:0:0:
311,131,289924,5,2,0:3:0:0:
69,243,290092,1,2,0:3:0:0:
331,279,290261,6,0,P|382:265|427:228,1,104.500003189087,8|0,0:0|0:0,0:0:0:0:
422,233,290514,1,0,0:0:0:0:
422,233,290598,1,2,0:2:0:0:
192,323,290767,1,2,0:3:0:0:
192,323,290851,1,0,0:0:0:0:
192,323,290935,1,8,0:0:0:0:
157,126,291104,1,0,0:0:0:0:
422,233,291272,6,0,L|432:125,1,104.500003189087,2|0,0:3|0:0,0:0:0:0:
89,102,291609,2,0,P|188:129|290:109,1,209.000006378174,8|2,0:0|0:2,0:0:0:0:
0,212,292115,1,2,0:3:0:0:
0,212,292199,1,0,0:0:0:0:
0,212,292283,1,8,0:0:0:0:
135,268,292452,1,0,0:0:0:0:
197,0,292620,5,2,0:3:0:0:
423,170,292789,1,2,0:3:0:0:
135,268,292958,6,0,B|93:167|165:151|126:53,1,209.000006378174,8|2,0:0|0:2,0:0:0:0:
254,204,293463,1,2,0:3:0:0:
0,110,293632,1,8,0:0:0:0:
137,71,293800,1,0,0:0:0:0:
137,71,293884,1,0,0:0:0:0:
137,71,293969,6,0,L|186:88,2,52.2500015945435,2|0|0,0:3|0:0|0:0,0:0:0:0:
0,298,294306,1,8,0:0:0:0:
254,203,294474,2,0,P|315:122|299:17,1,209.000006378174,0|2,0:0|0:3,0:0:0:0:
359,298,294980,1,8,0:0:0:0:
445,185,295149,1,0,0:0:0:0:
449,159,295233,1,0,0:0:0:0:
453,133,295317,6,0,L|461:73,1,52.2500015945435,2|0,0:3|0:0,0:0:0:0:
178,80,295486,2,0,L|171:28,1,52.2500015945435,2|0,0:3|0:0,0:0:0:0:
359,298,295654,1,8,0:0:0:0:
216,258,295823,5,0,0:0:0:0:
165,246,295907,1,0,0:0:0:0:
113,242,295991,2,0,L|25:250,1,52.2500015945435,2|0,0:2|0:0,0:0:0:0:
308,146,296160,2,0,L|396:153,1,52.2500015945435,2|0,0:3|0:0,0:0:0:0:
40,105,296328,1,8,0:0:0:0:
178,80,296497,2,0,L|195:10,1,52.2500015945435
113,242,296665,6,0,P|115:304|136:339,1,104.500003189087,2|0,0:3|0:0,0:0:0:0:
308,146,297002,2,0,P|420:120|509:164,1,209.000006378174,8|2,0:0|0:2,0:0:0:0:
501,157,297424,1,0,0:0:0:0:
501,157,297508,1,2,0:3:0:0:
245,16,297677,2,0,P|167:5|122:9,1,104.500003189087,8|0,0:0|0:0,0:0:0:0:
216,253,298014,5,2,0:3:0:0:
245,16,298182,1,2,0:3:0:0:
305,351,298351,1,8,0:0:0:0:
458,218,298519,6,0,P|407:211|355:215,1,104.500003189087,0|2,0:0|0:2,0:0:0:0:
354,215,298772,1,0,0:0:0:0:
354,215,298856,1,2,0:3:0:0:
86,311,299025,2,0,L|84:163,1,104.500003189087,8|0,0:0|0:0,0:0:0:0:
305,351,299362,6,0,P|383:356|453:322,1,156.750004783631,2|0,0:3|0:0,0:0:0:0:
453,321,299699,1,8,0:0:0:0:
354,215,299868,1,0,0:0:0:0:
360,176,299952,1,0,0:0:0:0:
365,137,300036,1,2,0:2:0:0:
370,98,300120,1,0,0:0:0:0:
375,59,300205,1,2,0:3:0:0:
121,109,300373,2,0,L|106:247,1,104.500003189087,8|0,0:0|0:0,0:0:0:0:
236,17,300710,5,8,0:0:0:0:
375,59,300879,5,2,0:0:0:0:
357,96,300963,1,2,0:0:0:0:
330,128,301047,1,2,0:0:0:0:
294,150,301131,1,2,0:0:0:0:
254,162,301216,1,8,0:0:0:0:
381,310,301384,5,2,0:0:0:0:
399,272,301468,1,2,0:0:0:0:
426,240,301552,1,2,0:0:0:0:
462,218,301636,1,2,0:0:0:0:
502,206,301721,1,8,0:0:0:0:
379,189,301890,5,2,0:0:0:0:
379,189,301974,1,2,0:0:0:0:
379,189,302059,1,8,0:0:0:0:
486,333,302227,5,0,0:0:0:0:
486,333,302311,1,0,0:0:0:0:
486,333,302396,6,0,P|419:334|405:257,1,142.5,2|0,0:0|0:0,0:0:0:0:
398,271,302733,6,0,P|405:336|322:325,1,142.5,2|0,0:0|0:0,0:0:0:0:
341,348,303070,6,0,L|321:241,1,95,2|0,0:0|0:0,0:0:0:0:
297,211,303281,2,0,L|276:202,2,23.75,8|8|8,0:3|0:3|0:3,0:0:0:0:
349,213,303407,6,0,P|389:182|424:218,1,95,8|0,0:3|0:0,0:0:0:0:
360,346,303660,2,0,P|320:367|288:336,1,95,2|0,0:0|0:0,0:0:0:0:
277,203,303913,6,0,P|316:182|349:213,1,95,2|0,0:0|0:0,0:0:0:0:
288,336,304165,2,0,P|248:357|216:326,1,95,2|0,0:0|0:0,0:0:0:0:
206,194,304418,6,0,P|245:172|277:203,1,95,2|0,0:0|0:0,0:0:0:0:
216,326,304671,2,0,P|176:347|144:316,1,95,2|0,0:0|0:0,0:0:0:0:
135,185,304924,6,0,P|174:163|206:194,1,95,2|0,0:0|0:0,0:0:0:0:
144,316,305177,2,0,P|104:337|72:306,1,95,2|0,0:0|0:0,0:0:0:0:
64,176,305429,6,0,P|103:154|135:185,1,95,2|0,0:0|0:0,0:0:0:0:
72,306,305682,2,0,P|32:327|0:296,1,95,2|0,0:0|0:0,0:0:0:0:
64,176,305935,6,0,P|96:207|134:185,1,95,2|0,0:0|0:0,0:0:0:0:
220,54,306188,2,0,P|187:23|148:44,1,95,2|0,0:0|0:0,0:0:0:0:
134,184,306441,6,0,P|166:214|205:193,1,95,2|0,0:0|0:0,0:0:0:0:
291,63,306693,2,0,P|258:32|219:53,1,95,2|0,0:0|0:0,0:0:0:0:
205,193,306946,6,0,P|237:223|276:202,1,95,2|0,0:0|0:0,0:0:0:0:
362,72,307199,2,0,P|329:41|290:62,1,95,2|0,0:0|0:0,0:0:0:0:
276,202,307452,6,0,P|308:232|347:211,1,95,2|0,0:0|0:0,0:0:0:0:
433,81,307705,2,0,P|400:50|361:71,1,95,2|0,0:0|0:0,0:0:0:0:
347,211,307958,6,0,P|379:241|418:220,1,95,2|0,0:0|0:0,0:0:0:0:
504,91,308210,2,0,P|471:60|432:81,1,95,2|0,0:0|0:0,0:0:0:0:
418,220,308463,6,0,P|450:250|489:229,1,95,2|0,0:0|0:0,0:0:0:0:
432,80,308716,1,0,0:0:0:0:
432,80,308800,6,0,L|308:58,1,95,2|0,0:0|0:0,0:0:0:0:
151,63,309053,2,0,L|244:46,1,95,2|0,0:0|0:0,0:0:0:0:
338,63,309306,6,0,L|214:41,1,95,2|0,0:0|0:0,0:0:0:0:
57,79,309559,2,0,L|181:57,1,95,2|0,0:0|0:0,0:0:0:0:
338,63,309811,6,0,L|244:79,1,95,2|0,0:0|0:0,0:0:0:0:
57,79,310064,2,0,L|150:95,1,95,2|0,0:0|0:0,0:0:0:0:
337,95,310317,6,0,L|244:79,1,95,2|0,0:0|0:0,0:0:0:0:
57,112,310570,2,0,L|150:95,1,95,2|0,0:0|0:0,0:0:0:0:
337,95,310823,6,0,L|244:112,1,95,2|0,0:0|0:0,0:0:0:0:
56,111,311076,2,0,L|150:128,1,95,2|0,0:0|0:0,0:0:0:0:
337,128,311328,6,0,L|243:111,1,95,2|0,0:0|0:0,0:0:0:0:
56,144,311581,2,0,L|149:127,1,95,2|0,0:0|0:0,0:0:0:0:
336,127,311834,6,0,L|243:144,1,95,2|0,0:0|0:0,0:0:0:0:
56,144,312087,2,0,L|149:160,1,95,2|0,0:0|0:0,0:0:0:0:
336,160,312340,6,0,L|243:144,1,95,2|0,0:0|0:0,0:0:0:0:
56,177,312592,2,0,L|149:160,1,95,2|0,0:0|0:0,0:0:0:0:
336,160,312845,6,0,L|243:177,1,95,2|0,0:0|0:0,0:0:0:0:
55,176,313098,2,0,L|149:193,1,95,2|0,0:0|0:0,0:0:0:0:
336,193,313351,6,0,L|243:177,1,95,2|0,0:0|0:0,0:0:0:0:
55,209,313604,2,0,L|148:192,1,95,2|0,0:0|0:0,0:0:0:0:
336,193,313856,6,0,L|243:210,1,95,2|0,0:0|0:0,0:0:0:0:
64,244,314109,1,0,0:0:0:0:
64,244,314193,6,0,B|80:289|80:289|117:252,1,95,2|0,0:0|0:0,0:0:0:0:
137,108,314446,2,0,B|120:62|120:62|83:99,1,95,2|0,0:0|0:0,0:0:0:0:
113,255,314699,6,0,B|129:300|129:300|166:263,1,95,2|0,0:0|0:0,0:0:0:0:
186,121,314952,2,0,B|169:75|169:75|132:112,1,95,2|0,0:0|0:0,0:0:0:0:
162,266,315205,6,0,B|178:311|178:311|215:274,1,95,2|0,0:0|0:0,0:0:0:0:
235,134,315458,2,0,B|218:88|218:88|181:125,1,95,2|0,0:0|0:0,0:0:0:0:
211,277,315710,6,0,B|227:322|227:322|264:285,1,95,2|0,0:0|0:0,0:0:0:0:
284,147,315963,2,0,B|267:101|267:101|230:138,1,95,2|0,0:0|0:0,0:0:0:0:
260,288,316216,6,0,B|276:333|276:333|313:296,1,95,2|0,0:0|0:0,0:0:0:0:
332,159,316469,2,0,B|315:113|315:113|283:147,1,95,2|0,0:0|0:0,0:0:0:0:
386,258,316722,6,0,B|431:241|431:241|398:208,1,95,2|0,0:0|0:0,0:0:0:0:
209,184,316974,2,0,B|163:200|163:200|196:233,1,95,2|0,0:0|0:0,0:0:0:0:
398,208,317227,6,0,B|443:191|443:191|410:158,1,95,2|0,0:0|0:0,0:0:0:0:
222,135,317480,2,0,B|176:151|176:151|209:184,1,95,2|0,0:0|0:0,0:0:0:0:
409,157,317733,6,0,B|454:140|454:140|421:107,1,95,2|0,0:0|0:0,0:0:0:0:
235,86,317986,2,0,B|189:102|189:102|222:135,1,95,2|0,0:0|0:0,0:0:0:0:
420,106,318238,6,0,B|465:89|465:89|432:56,1,95,2|0,0:0|0:0,0:0:0:0:
248,37,318491,2,0,B|202:53|202:53|235:86,1,95,2|0,0:0|0:0,0:0:0:0:
431,55,318744,6,0,B|476:38|476:38|443:5,1,95,2|0,0:0|0:0,0:0:0:0:
375,126,318997,2,0,B|342:159|342:159|387:176,1,95,2|0,0:0|0:0,0:0:0:0:
448,242,319250,6,0,B|481:275|481:275|436:292,1,95,2|0,0:0|0:0,0:0:0:0:
361,347,319502,1,0,0:0:0:0:
361,347,319587,6,0,L|255:320,1,95,2|0,0:0|0:0,0:0:0:0:
176,347,319840,2,0,L|282:320,1,95,2|0,0:0|0:0,0:0:0:0:
361,300,320092,6,0,L|255:327,1,95,2|0,0:0|0:0,0:0:0:0:
176,300,320345,2,0,L|282:327,1,95,2|0,0:0|0:0,0:0:0:0:
362,169,320598,6,0,L|256:142,1,95,2|0,0:0|0:0,0:0:0:0:
177,169,320851,2,0,L|283:142,1,95,2|0,0:0|0:0,0:0:0:0:
362,122,321103,6,0,L|256:149,1,95,2|0,0:0|0:0,0:0:0:0:
177,122,321356,2,0,L|283:149,1,95,2|0,0:0|0:0,0:0:0:0:
292,237,321609,6,0,L|269:145,1,95,2|0,0:0|0:0,0:0:0:0:
292,52,321862,2,0,L|268:144,1,95,2|0,0:0|0:0,0:0:0:0:
277,243,322115,5,0,0:0:0:0:
277,243,322199,1,0,0:0:0:0:
277,243,322283,6,0,B|275:276|275:276|288:358,1,95,2|0,0:0|0:0,0:0:0:0:
465,285,322536,2,0,B|467:252|467:252|454:170,1,95,2|0,0:0|0:0,0:0:0:0:
268,143,322789,6,0,B|266:176|266:176|279:258,1,95,2|0,0:0|0:0,0:0:0:0:
457,190,323042,2,0,B|459:157|459:157|446:75,1,95,2|0,0:0|0:0,0:0:0:0:
193,51,323295,6,0,B|226:49|226:49|308:62,1,95,2|0,0:0|0:0,0:0:0:0:
275,237,323547,2,0,B|242:239|242:239|160:226,1,95,2|0,0:0|0:0,0:0:0:0:
287,58,323800,6,0,B|320:56|320:56|402:69,1,95,2|0,0:0|0:0,0:0:0:0:
369,244,324053,2,0,B|336:246|336:246|254:233,1,95,2|0,0:0|0:0,0:0:0:0:
381,65,324306,5,2,0:0:0:0:
274,236,324474,1,2,0:0:0:0:
489,121,324643,1,8,0:0:0:0:
152,211,324811,1,8,0:3:0:0:
152,211,324896,1,8,0:3:0:0:
152,211,324980,6,0,L|135:142,1,47.5,10|2,0:3|0:0,0:0:0:0:
339,251,325149,2,0,L|356:320,1,47.5,2|2,0:3|0:0,0:0:0:0:
76,296,325317,2,0,L|65:250,1,47.5,8|0,0:0|0:0,0:0:0:0:
244,235,325486,5,0,0:0:0:0:
249,262,325570,1,0,0:0:0:0:
255,290,325654,1,2,0:2:0:0:
260,318,325738,1,0,0:0:0:0:
266,346,325823,6,0,L|209:339,1,47.5,2|0,0:3|0:0,0:0:0:0:
237,206,325991,2,0,L|285:200,1,47.5,8|0,0:0|0:0,0:0:0:0:
346,273,326160,1,0,0:0:0:0:
346,273,326244,1,0,0:0:0:0:
346,273,326328,5,2,0:3:0:0:
392,282,326412,1,2,0:0:0:0:
438,274,326496,1,2,0:0:0:0:
479,250,326580,1,2,0:0:0:0:
507,212,326665,2,0,L|447:214,1,47.5,8|0,0:0|0:0,0:0:0:0:
283,200,326834,5,0,0:0:0:0:
285,171,326918,1,0,0:0:0:0:
288,143,327002,1,2,0:2:0:0:
291,114,327086,1,0,0:0:0:0:
293,86,327171,6,0,L|316:150,1,47.5,2|0,0:3|0:0,0:0:0:0:
281,227,327340,2,0,L|265:183,1,47.5,8|0,0:0|0:0,0:0:0:0:
185,110,327508,1,0,0:0:0:0:
185,110,327592,1,0,0:0:0:0:
185,110,327677,6,0,L|121:128,1,47.5,2|2,0:3|0:0,0:0:0:0:
372,204,327845,2,0,L|436:222,1,47.5,2|2,0:3|0:0,0:0:0:0:
179,211,328014,2,0,L|115:229,1,47.5,8|0,0:0|0:0,0:0:0:0:
346,295,328182,5,0,0:0:0:0:
373,302,328266,1,0,0:0:0:0:
401,309,328350,1,2,0:2:0:0:
428,316,328434,1,0,0:0:0:0:
456,323,328519,6,0,L|520:341,1,47.5,2|0,0:3|0:0,0:0:0:0:
318,289,328688,2,0,L|272:301,1,47.5,8|0,0:0|0:0,0:0:0:0:
328,383,328856,1,0,0:0:0:0:
328,383,328941,1,0,0:0:0:0:
328,383,329025,5,2,0:3:0:0:
323,336,329109,1,2,0:0:0:0:
318,289,329193,1,2,0:0:0:0:
312,241,329277,1,2,0:0:0:0:
307,194,329362,2,0,L|297:114,1,47.5,8|0,0:0|0:0,0:0:0:0:
222,89,329531,5,0,0:0:0:0:
219,117,329615,1,0,0:0:0:0:
216,145,329699,1,2,0:2:0:0:
214,174,329783,1,0,0:0:0:0:
211,202,329868,6,0,L|139:231,1,47.5,2|0,0:3|0:0,0:0:0:0:
179,43,330036,2,0,L|251:71,1,47.5,10|2,0:0|0:0,0:0:0:0:
421,138,330205,1,2,0:0:0:0:
430,208,330289,1,2,0:0:0:0:
422,279,330373,6,0,L|409:362,1,47.5,2|2,0:3|0:0,0:0:0:0:
171,89,330542,2,0,L|184:6,1,47.5,2|2,0:3|0:0,0:0:0:0:
472,36,330710,2,0,L|465:83,1,47.5,8|0,0:0|0:0,0:0:0:0:
313,183,330879,5,0,0:0:0:0:
313,154,330963,1,0,0:0:0:0:
314,126,331047,1,2,0:2:0:0:
314,97,331131,1,0,0:0:0:0:
315,69,331216,6,0,L|317:6,1,47.5,2|0,0:3|0:0,0:0:0:0:
310,211,331384,2,0,L|312:259,1,47.5,8|0,0:0|0:0,0:0:0:0:
219,190,331553,1,0,0:0:0:0:
219,190,331637,1,0,0:0:0:0:
219,190,331722,5,2,0:3:0:0:
173,177,331806,1,2,0:0:0:0:
126,171,331890,1,2,0:0:0:0:
78,173,331974,1,2,0:0:0:0:
31,181,332059,2,0,L|55:125,1,47.5,8|0,0:0|0:0,0:0:0:0:
179,121,332227,5,0,0:0:0:0:
176,149,332311,1,0,0:0:0:0:
173,177,332396,1,2,0:2:0:0:
171,206,332479,1,0,0:0:0:0:
168,234,332564,6,0,L|158:295,1,47.5,2|0,0:3|0:0,0:0:0:0:
181,92,332733,2,0,L|189:46,1,47.5,8|0,0:0|0:0,0:0:0:0:
270,146,332901,1,0,0:0:0:0:
270,146,332986,1,0,0:0:0:0:
270,146,333070,6,0,L|350:139,1,47.5,2|2,0:3|0:0,0:0:0:0:
447,28,333238,2,0,L|527:21,1,47.5,2|2,0:3|0:0,0:0:0:0:
474,276,333407,2,0,L|427:281,1,47.5,8|0,0:0|0:0,0:0:0:0:
276,354,333576,5,0,0:0:0:0:
247,354,333660,1,0,0:0:0:0:
219,355,333744,1,2,0:2:0:0:
190,356,333828,1,0,0:0:0:0:
162,357,333913,6,0,L|101:359,1,47.5,2|0,0:3|0:0,0:0:0:0:
304,357,334081,2,0,L|352:359,1,47.5,8|0,0:0|0:0,0:0:0:0:
233,263,334250,1,0,0:0:0:0:
233,263,334334,1,0,0:0:0:0:
233,263,334418,5,2,0:3:0:0:
219,217,334502,1,2,0:0:0:0:
216,170,334586,1,2,0:0:0:0:
224,123,334670,1,2,0:0:0:0:
242,79,334755,2,0,L|175:92,1,47.5,8|0,0:0|0:0,0:0:0:0:
68,122,334924,5,0,0:0:0:0:
69,150,335008,1,0,0:0:0:0:
70,178,335092,1,2,0:0:0:0:
71,207,335176,1,0,0:0:0:0:
73,235,335261,6,0,L|76:292,1,47.5,2|0,0:3|0:0,0:0:0:0:
336,177,335429,2,0,L|333:120,1,47.5,10|2,0:0|0:0,0:0:0:0:
233,263,335598,1,2,0:0:0:0:
270,323,335682,1,2,0:0:0:0:
332,358,335767,6,0,L|418:358,1,47.5,2|2,0:3|0:0,0:0:0:0:
414,57,335935,2,0,L|328:57,1,47.5,2|2,0:3|0:0,0:0:0:0:
157,198,336104,2,0,L|243:198,1,47.5,8|0,0:0|0:0,0:0:0:0:
430,270,336272,5,0,0:0:0:0:
429,241,336356,1,0,0:0:0:0:
429,213,336440,1,2,0:2:0:0:
429,184,336524,1,0,0:0:0:0:
429,156,336609,6,0,L|498:151,1,47.5,2|0,0:3|0:0,0:0:0:0:
268,90,336778,2,0,L|182:90,1,47.5,8|2,0:0|0:0,0:0:0:0:
317,195,336946,1,0,0:0:0:0:
317,195,337031,1,0,0:0:0:0:
317,195,337115,5,2,0:3:0:0:
332,238,337199,1,2,0:0:0:0:
307,277,337283,1,2,0:0:0:0:
262,281,337367,1,2,0:0:0:0:
230,248,337452,5,8,0:0:0:0:
214,291,337536,1,0,0:0:0:0:
239,330,337620,1,0,0:0:0:0:
284,334,337704,1,0,0:0:0:0:
262,281,337789,5,2,0:0:0:0:
247,238,337873,1,0,0:0:0:0:
272,199,337957,1,2,0:3:0:0:
317,195,338041,1,0,0:0:0:0:
332,238,338126,5,8,0:0:0:0:
347,195,338210,1,0,0:0:0:0:
322,156,338294,1,0,0:0:0:0:
277,152,338378,1,0,0:0:0:0:
272,199,338463,6,0,L|217:181,1,47.5,2|2,0:3|0:0,0:0:0:0:
101,59,338632,2,0,L|156:41,1,47.5,2|2,0:3|0:0,0:0:0:0:
326,108,338800,2,0,L|271:90,1,47.5,8|0,0:0|0:0,0:0:0:0:
128,158,338969,5,0,0:0:0:0:
125,193,339053,1,0,0:0:0:0:
135,227,339137,1,2,0:0:0:0:
155,256,339221,1,0,0:0:0:0:
184,277,339306,2,0,L|124:288,1,47.5,2|0,0:3|0:0,0:0:0:0:
303,263,339474,5,8,0:0:0:0:
305,298,339558,1,0,0:0:0:0:
295,332,339642,1,0,0:0:0:0:
275,361,339726,1,0,0:0:0:0:
246,382,339812,5,2,0:3:0:0:
293,381,339896,1,2,0:0:0:0:
340,379,339980,1,2,0:0:0:0:
388,375,340064,1,2,0:0:0:0:
401,323,340149,5,8,0:0:0:0:
366,326,340233,1,0,0:0:0:0:
330,329,340317,1,0,0:0:0:0:
295,332,340401,1,0,0:0:0:0:
305,298,340486,5,2,0:0:0:0:
328,295,340570,1,0,0:0:0:0:
352,293,340654,1,0,0:0:0:0:
375,291,340738,1,0,0:0:0:0:
401,323,340823,5,10,0:0:0:0:
394,275,340907,1,2,0:0:0:0:
391,228,340991,1,2,0:0:0:0:
391,181,341075,1,2,0:0:0:0:
394,133,341160,6,0,L|401:68,15,38,2|0|0|0|0|0|0|0|0|0|0|0|0|0|0|0,0:0|0:0|0:0|0:0|0:0|0:0|0:0|0:0|0:0|0:0|0:0|0:0|0:0|0:0|0:0|0:0,0:0:0:0:
289,150,342508,6,0,L|282:84,15,38,2|0|0|0|0|0|0|0|0|0|0|0|0|0|0|0,0:0|0:0|0:0|0:0|0:0|0:0|0:0|0:0|0:0|0:0|0:0|0:0|0:0|0:0|0:0|0:0,0:0:0:0:
256,192,343856,12,2,345205,0:0:0:0:
217,150,345542,6,0,P|257:184|297:150,1,114,2|0,0:0|0:0,0:0:0:0:
376,150,345879,6,0,P|336:184|296:150,1,114,2|0,0:0|0:0,0:0:0:0:
297,98,346216,6,0,L|297:211,1,114,2|0,0:0|0:0,0:0:0:0:
298,228,346553,5,2,0:3:0:0:
413,18,346722,1,2,0:3:0:0:
176,19,346890,1,8,0:0:0:0:
177,166,347059,5,0,0:0:0:0:
125,157,347143,1,0,0:0:0:0:
80,131,347227,1,2,0:2:0:0:
47,91,347311,1,0,0:0:0:0:
31,42,347396,1,2,0:3:0:0:
38,275,347564,2,0,P|83:299|135:308,1,104.500003189087,8|0,0:0|0:0,0:0:0:0:
303,90,347901,6,0,L|327:206,1,104.500003189087,2|0,0:3|0:0,0:0:0:0:
482,381,348238,2,0,B|491:306|491:306|476:246|476:246|488:172,1,209.000006378174,8|2,0:0|0:2,0:0:0:0:
348,315,348744,1,2,0:3:0:0:
348,315,348828,1,0,0:0:0:0:
348,315,348913,2,0,B|301:327|301:327|226:322,1,104.500003189087,8|0,0:0|0:0,0:0:0:0:
397,58,349250,5,2,0:3:0:0:
93,58,349418,1,2,0:3:0:0:
245,323,349587,1,8,0:0:0:0:
295,186,349755,5,0,0:0:0:0:
243,176,349839,1,0,0:0:0:0:
192,186,349923,1,2,0:2:0:0:
148,213,350007,1,0,0:0:0:0:
116,253,350092,1,2,0:3:0:0:
440,178,350261,2,0,P|419:109|376:65,1,104.500003189087,8|0,0:0|0:0,0:0:0:0:
395,321,350598,6,0,B|344:333|344:333|286:332,1,104.500003189087,2|0,0:3|0:0,0:0:0:0:
73,148,350935,2,0,B|177:186|178:118|276:147,1,209.000006378174,8|0,0:0|0:2,0:0:0:0:
276,147,351356,1,0,0:0:0:0:
276,147,351441,1,2,0:3:0:0:
121,300,351609,2,0,P|173:301|226:288,1,104.500003189087,8|0,0:0|0:0,0:0:0:0:
135,16,351946,5,2,0:3:0:0:
374,270,352115,1,2,0:3:0:0:
7,210,352283,6,0,P|0:158|14:109,1,104.500003189087,8|0,0:0|0:0,0:0:0:0:
14,109,352536,1,0,0:0:0:0:
14,109,352620,1,2,0:2:0:0:
121,300,352789,1,2,0:3:0:0:
135,16,352958,1,8,0:0:0:0:
153,159,353126,1,0,0:0:0:0:
362,51,353295,6,0,B|367:88|367:88|361:173,1,104.500003189087,2|0,0:3|0:0,0:0:0:0:
121,300,353632,2,0,B|177:291|177:291|210:320|210:320|269:283|346:320,1,209.000006378174,8|2,0:0|0:2,0:0:0:0:
127,150,354137,1,2,0:3:0:0:
120,133,354222,1,0,0:0:0:0:
119,115,354306,2,0,P|180:93|238:110,1,104.500003189087,8|0,0:0|0:0,0:0:0:0:
0,220,354643,5,2,0:3:0:0:
356,155,354811,1,2,0:3:0:0:
7,20,354980,1,8,0:0:0:0:
153,7,355149,5,0,0:0:0:0:
148,58,355233,1,0,0:0:0:0:
127,106,355317,1,2,0:2:0:0:
90,142,355401,1,0,0:0:0:0:
43,164,355486,1,2,0:3:0:0:
302,14,355654,2,0,P|383:11|430:17,1,104.500003189087,8|0,0:0|0:0,0:0:0:0:
424,299,355991,6,0,P|383:228|417:144,1,156.750004783631,2|0,0:3|0:0,0:0:0:0:
478,219,356328,2,0,L|267:253,1,209.000006378174,8|2,0:0|0:2,0:0:0:0:
271,252,356750,1,0,0:0:0:0:
271,252,356834,1,2,0:3:0:0:
199,26,357002,2,0,P|277:12|321:16,1,104.500003189087,8|0,0:0|0:0,0:0:0:0:
123,266,357340,5,2,0:3:0:0:
372,143,357508,1,2,0:3:0:0:
62,129,357677,6,0,B|46:101|46:101|52:29,1,104.500003189087,8|0,0:0|0:0,0:0:0:0:
52,28,357929,1,0,0:0:0:0:
52,28,358014,1,2,0:2:0:0:
271,252,358182,1,2,0:3:0:0:
271,252,358267,1,0,0:0:0:0:
271,252,358351,1,8,0:0:0:0:
119,270,358519,1,0,0:0:0:0:
316,108,358688,6,0,L|430:124,1,104.500003189087,2|0,0:3|0:0,0:0:0:0:
384,350,359025,1,8,0:0:0:0:
271,252,359193,1,0,0:0:0:0:
271,252,359278,1,0,0:0:0:0:
271,252,359362,1,2,0:2:0:0:
491,244,359531,1,2,0:3:0:0:
240,384,359699,1,8,0:0:0:0:
384,350,359868,1,0,0:0:0:0:
128,278,360036,5,2,0:3:0:0:
266,32,360205,1,2,0:3:0:0:
306,326,360373,1,8,0:0:0:0:
433,246,360542,6,0,L|438:194,1,52.2500015945435
310,159,360710,2,0,L|316:108,1,52.2500015945435,2|0,0:2|0:0,0:0:0:0:
451,43,360879,1,2,0:3:0:0:
176,137,361047,2,0,P|105:144|34:133,1,104.500003189087,8|0,0:0|0:0,0:0:0:0:
201,371,361384,6,0,P|308:375|403:370,1,156.750004783631,2|0,0:3|0:0,0:0:0:0:
443,384,361722,2,0,P|431:288|445:159,1,209.000006378174,8|2,0:0|0:2,0:0:0:0:
441,176,362143,1,0,0:0:0:0:
441,176,362227,1,2,0:3:0:0:
191,213,362396,2,0,P|130:211|46:180,1,104.500003189087,8|0,0:0|0:0,0:0:0:0:
305,115,362733,5,2,0:3:0:0:
19,75,362901,1,2,0:3:0:0:
226,354,363070,6,0,P|290:320|317:284,1,104.500003189087,8|0,0:0|0:0,0:0:0:0:
191,213,363407,1,2,0:2:0:0:
459,295,363576,1,2,0:3:0:0:
459,295,363660,1,0,0:0:0:0:
459,295,363744,1,8,0:0:0:0:
506,154,363913,1,0,0:0:0:0:
191,213,364081,6,0,P|118:222|63:212,1,104.500003189087,2|0,0:3|0:0,0:0:0:0:
293,106,364418,2,0,P|336:210|293:321,1,209.000006378174,8|2,0:0|0:2,0:0:0:0:
419,33,364924,1,2,0:3:0:0:
419,33,365008,1,0,0:0:0:0:
419,33,365092,1,8,0:0:0:0:
476,170,365261,1,0,0:0:0:0:
191,213,365429,5,2,0:3:0:0:
460,322,365598,1,2,0:3:0:0:
115,340,365767,6,0,P|72:301|45:219,1,104.500003189087,8|0,0:0|0:0,0:0:0:0:
191,213,366104,1,2,0:2:0:0:
460,322,366272,1,2,0:3:0:0:
465,307,366356,1,0,0:0:0:0:
470,292,366441,2,0,B|475:241|475:241|466:174,1,104.500003189087,8|0,0:0|0:0,0:0:0:0:
192,54,366778,6,0,P|275:79|366:52,1,156.750004783631,2|0,0:3|0:0,0:0:0:0:
367,46,367115,2,0,L|343:207,1,156.750004783631,8|0,0:0|0:0,0:0:0:0:
318,229,367452,6,0,L|261:203,1,52.2500015945435,2|0,0:2|0:0,0:0:0:0:
393,22,367620,2,0,L|450:48,1,52.2500015945435,2|0,0:2|0:0,0:0:0:0:
192,54,367789,1,8,0:0:0:0:
346,317,367958,1,8,0:3:0:0:
405,298,368042,1,8,0:3:0:0:
463,278,368126,5,14,0:3:0:0:
123,187,368295,1,2,0:3:0:0:
492,113,368463,1,8,0:0:0:0:
270,207,368632,5,0,0:0:0:0:
266,155,368716,1,0,0:0:0:0:
245,107,368800,1,2,0:2:0:0:
210,69,368884,1,0,0:0:0:0:
164,44,368969,1,2,0:3:0:0:
180,325,369137,2,0,P|237:352|316:349,1,104.500003189087,8|0,0:0|0:0,0:0:0:0:
18,195,369474,6,0,L|123:186,1,104.500003189087,2|0,0:3|0:0,0:0:0:0:
396,279,369811,2,0,P|429:181|403:81,1,209.000006378174,8|2,0:0|0:2,0:0:0:0:
512,352,370317,1,2,0:3:0:0:
291,172,370486,2,0,P|240:169|188:177,1,104.500003189087,8|0,0:0|0:0,0:0:0:0:
403,81,370823,5,2,0:3:0:0:
247,310,370991,1,2,0:3:0:0:
268,14,371160,1,8,0:0:0:0:
411,89,371328,5,0,0:0:0:0:
411,89,371413,1,0,0:0:0:0:
411,89,371497,1,2,0:2:0:0:
132,50,371665,1,2,0:3:0:0:
371,232,371834,1,8,0:0:0:0:
371,232,372002,1,0,0:0:0:0:
204,287,372171,6,0,P|170:294|71:278,1,104.500003189087,2|0,0:3|0:0,0:0:0:0:
211,62,372508,2,0,B|265:80|314:70|314:70|364:84|417:69,1,209.000006378174,8|2,0:0|0:2,0:0:0:0:
415,68,372929,1,0,0:0:0:0:
415,68,373014,1,2,0:3:0:0:
133,188,373182,2,0,P|84:140|64:68,1,104.500003189087,8|0,0:0|0:0,0:0:0:0:
279,218,373519,5,2,0:3:0:0:
2,268,373688,1,2,0:3:0:0:
211,62,373856,1,8,0:0:0:0:
133,188,374025,5,0,0:0:0:0:
132,239,374109,1,0,0:0:0:0:
148,289,374193,1,2,0:2:0:0:
180,330,374277,1,0,0:0:0:0:
224,358,374362,1,2,0:3:0:0:
468,285,374531,1,8,0:0:0:0:
468,285,374699,1,0,0:0:0:0:
310,86,374868,6,0,P|262:66|211:62,1,104.500003189087,2|0,0:3|0:0,0:0:0:0:
446,138,375205,2,0,P|454:66|445:28,1,104.500003189087,8|0,0:0|0:0,0:0:0:0:
337,236,375542,2,0,P|380:268|460:284,1,104.500003189087,2|2,0:2|0:3,0:0:0:0:
200,183,375879,2,0,P|192:255|201:293,1,104.500003189087,8|0,0:0|0:0,0:0:0:0:
69,113,376216,5,2,0:3:0:0:
337,236,376384,1,2,0:3:0:0:
56,320,376553,1,8,0:0:0:0:
200,183,376722,5,0,0:0:0:0:
214,133,376806,1,0,0:0:0:0:
212,81,376890,1,2,0:2:0:0:
193,32,376974,1,0,0:0:0:0:
159,0,377059,1,2,0:3:0:0:
224,330,377227,2,0,P|286:372|362:382,1,104.500003189087,8|0,0:0|0:0,0:0:0:0:
391,33,377564,6,0,B|343:18|343:18|305:39|305:39|247:10|172:39,1,209.000006378174,2|8,0:3|0:0,0:0:0:0:
243,164,378070,1,0,0:0:0:0:
192,174,378154,1,0,0:0:0:0:
141,163,378238,1,2,0:2:0:0:
394,182,378407,1,2,0:3:0:0:
10,215,378576,2,0,L|10:110,1,104.500003189087,8|0,0:0|0:0,0:0:0:0:
124,313,378913,5,2,0:3:0:0:
125,15,379081,1,2,0:3:0:0:
394,182,379250,1,8,0:0:0:0:
255,238,379418,5,0,0:0:0:0:
244,187,379502,1,0,0:0:0:0:
252,135,379586,1,2,0:2:0:0:
276,89,379670,1,0,0:0:0:0:
314,54,379755,1,2,0:3:0:0:
372,329,379924,2,0,P|331:363|264:386,1,104.500003189087,8|0,0:0|0:0,0:0:0:0:
510,278,380261,5,2,0:3:0:0:
394,182,380429,1,0,0:0:0:0:
394,182,380514,1,0,0:0:0:0:
394,182,380598,1,8,0:0:0:0:
462,50,380767,1,0,0:0:0:0:
314,54,380935,1,2,0:2:0:0:
510,278,381104,1,2,0:3:0:0:
510,278,381188,1,0,0:0:0:0:
510,278,381272,1,8,0:0:0:0:
372,329,381441,1,0,0:0:0:0:
462,50,381609,5,2,0:3:0:0:
167,63,381778,1,2,0:3:0:0:
394,182,381946,1,8,0:0:0:0:
250,188,382115,5,0,0:0:0:0:
231,236,382199,1,0,0:0:0:0:
228,288,382283,1,2,0:2:0:0:
242,338,382367,1,0,0:0:0:0:
272,381,382452,1,2,0:3:0:0:
87,192,382620,2,0,P|26:203|-18:263,1,104.500003189087,8|0,0:0|0:0,0:0:0:0:
167,63,382958,6,0,L|38:39,1,104.500003189087,2|0,0:3|0:0,0:0:0:0:
250,188,383295,2,0,B|294:201|352:188|352:188|396:203|471:186,1,209.000006378174,8|2,0:0|0:2,0:0:0:0:
456,188,383716,1,0,0:0:0:0:
456,188,383800,1,2,0:3:0:0:
146,291,383969,2,0,P|119:246|107:196,1,104.500003189087,8|0,0:0|0:0,0:0:0:0:
288,333,384306,5,2,0:3:0:0:
374,63,384474,1,2,0:3:0:0:
441,337,384643,1,8,0:0:0:0:
456,188,384811,5,0,0:0:0:0:
456,188,384896,1,0,0:0:0:0:
456,188,384980,1,2,0:2:0:0:
146,291,385149,1,2,0:3:0:0:
233,24,385317,1,8,0:0:0:0:
233,24,385486,1,0,0:0:0:0:
309,199,385654,6,0,B|244:204|244:204|206:194,1,104.500003189087,2|0,0:3|0:0,0:0:0:0:
376,67,385991,2,0,P|439:126|451:159,1,104.500003189087,8|0,0:0|0:0,0:0:0:0:
129,18,386328,2,0,B|194:13|194:13|232:23,1,104.500003189087,2|2,0:2|0:3,0:0:0:0:
83,161,386665,2,0,P|11:112|-7:81,1,104.500003189087,8|0,0:0|0:0,0:0:0:0:
0,289,387002,5,2,0:3:0:0:
129,18,387171,1,2,0:3:0:0:
252,287,387340,6,0,P|201:297|149:296,1,104.500003189087,8|0,0:0|0:0,0:0:0:0:
381,360,387677,1,2,0:2:0:0:
311,150,387845,1,2,0:3:0:0:
311,150,387929,1,0,0:0:0:0:
311,150,388014,1,8,0:0:0:0:
442,223,388182,1,0,0:0:0:0:
311,150,388351,6,0,P|293:195|311:240,1,99.7499969558717
311,330,388688,6,0,P|329:285|311:240,1,99.7499969558717
310,239,389025,6,0,P|354:257|399:239,1,99.7499969558717
490,239,389362,6,0,P|445:220|400:238,1,99.7499969558717
445,305,389643,6,0,L|445:282,2,22.1666659901937,8|8|4,0:3|0:3|0:0,0:3:0:0:
