osu file format v14

[General]
AudioFilename: audio.ogg
AudioLeadIn: 0
PreviewTime: 31412
Countdown: 0
SampleSet: Normal
StackLeniency: 0.7
Mode: 1
LetterboxInBreaks: 0
WidescreenStoryboard: 1

[Editor]
DistanceSpacing: 1.1
BeatDivisor: 2
GridSize: 32
TimelineZoom: 0.4999999

[Metadata]
Title:Peaches
TitleUnicode:Peaches
Artist:Bowser (CV: Jack Black)
ArtistUnicode:Bowser (CV: Jack Black)
Creator:-Flashlight-
Version:Kantan
Source:The Super Mario Bros. Movie
Tags:english piano ballad classical novelty original motion picture soundtrack ost film illumination entertainment nintendo universal pictures princess peach john spiker king koopa cartoon brothers smb 任天堂
BeatmapID:4097464
BeatmapSetID:1974179

[Difficulty]
HPDrainRate:10
CircleSize:5
OverallDifficulty:2
ApproachRate:5
SliderMultiplier:1.4
SliderTickRate:1

[Events]
//Background and Video events
0,0,"bg.jpg",0,-50
//Break Periods
//Storyboard Layer 0 (Background)
//Storyboard Layer 1 (Fail)
//Storyboard Layer 2 (Pass)
//Storyboard Layer 3 (Foreground)
//Storyboard Layer 4 (Overlay)
//Storyboard Sound Samples

[TimingPoints]
190,652.173913043478,4,1,0,60,1,0
31494,-100,4,1,0,70,0,1
52363,-100,4,1,0,60,0,0
73233,-100,4,1,0,70,0,1
88233,-100,4,1,0,80,0,1
88885,-100,4,1,0,80,0,1
91005,-100,4,1,0,100,0,1
91494,-100,4,1,0,90,0,0
92472,-100,4,1,0,80,0,0

[Colours]
Combo1 : 255,255,128
Combo2 : 0,255,0
Combo3 : 255,0,0
Combo4 : 255,128,255

[HitObjects]
256,192,190,5,0,0:0:0:0:
256,192,1168,1,8,0:0:0:0:
256,192,2146,1,0,0:0:0:0:
256,192,2798,1,8,0:0:0:0:
256,192,4103,1,0,0:0:0:0:
256,192,4755,1,8,0:0:0:0:
256,192,5407,1,0,0:0:0:0:
256,192,6385,1,8,0:0:0:0:
256,192,7363,1,0,0:0:0:0:
256,192,8016,1,8,0:0:0:0:
256,192,9320,1,8,0:0:0:0:
256,192,9972,1,8,0:0:0:0:
256,192,10624,1,0,0:0:0:0:
256,192,11603,1,8,0:0:0:0:
256,192,12581,1,0,0:0:0:0:
256,192,13233,1,8,0:0:0:0:
256,192,14211,1,8,0:0:0:0:
256,192,15189,1,0,0:0:0:0:
256,192,15842,1,8,0:0:0:0:
256,192,16820,1,8,0:0:0:0:
256,192,17472,1,0,0:0:0:0:
256,192,18124,1,8,0:0:0:0:
256,192,18776,1,8,0:0:0:0:
256,192,19429,1,0,0:0:0:0:
256,192,21059,1,0,0:0:0:0:
256,192,22037,1,8,0:0:0:0:
256,192,23016,1,8,0:0:0:0:
256,192,23668,1,0,0:0:0:0:
256,192,24646,1,8,0:0:0:0:
256,192,25624,1,0,0:0:0:0:
256,192,26276,1,8,0:0:0:0:
256,192,27255,1,8,0:0:0:0:
256,192,27907,1,0,0:0:0:0:
256,192,28559,1,8,0:0:0:0:
256,192,29537,1,8,0:0:0:0:
256,192,30189,1,0,0:0:0:0:
256,192,31494,1,0,0:0:0:0:
256,192,32146,1,8,0:0:0:0:
256,192,32635,1,0,0:0:0:0:
256,192,33450,1,8,0:0:0:0:
256,192,34103,1,0,0:0:0:0:
256,192,34755,1,8,0:0:0:0:
256,192,35244,1,8,0:0:0:0:
256,192,36059,1,0,0:0:0:0:
256,192,36711,1,8,0:0:0:0:
256,192,37689,1,0,0:0:0:0:
256,192,38342,1,8,0:0:0:0:
256,192,38994,1,0,0:0:0:0:
256,192,40298,1,8,0:0:0:0:
256,192,40624,1,8,0:0:0:0:
256,192,41929,1,0,0:0:0:0:
256,192,42581,1,8,0:0:0:0:
256,192,43070,1,0,0:0:0:0:
256,192,43885,1,8,0:0:0:0:
256,192,44537,1,0,0:0:0:0:
256,192,45189,1,8,0:0:0:0:
256,192,45679,1,8,0:0:0:0:
256,192,46494,1,0,0:0:0:0:
256,192,47146,1,8,0:0:0:0:
256,192,48124,1,0,0:0:0:0:
256,192,48776,1,8,0:0:0:0:
256,192,49429,1,0,0:0:0:0:
256,192,50733,1,8,0:0:0:0:
256,192,51059,1,8,0:0:0:0:
256,192,52363,1,0,0:0:0:0:
256,192,53342,1,8,0:0:0:0:
256,192,54320,1,0,0:0:0:0:
256,192,54972,1,8,0:0:0:0:
256,192,55950,1,8,0:0:0:0:
256,192,56929,1,0,0:0:0:0:
256,192,57581,1,8,0:0:0:0:
256,192,58559,1,0,0:0:0:0:
256,192,59211,1,8,0:0:0:0:
256,192,59863,1,8,0:0:0:0:
256,192,60516,1,0,0:0:0:0:
256,192,61168,1,0,0:0:0:0:
256,192,62798,1,8,0:0:0:0:
256,192,63776,1,0,0:0:0:0:
256,192,64755,1,8,0:0:0:0:
256,192,65407,1,0,0:0:0:0:
256,192,66385,1,8,0:0:0:0:
256,192,67363,1,0,0:0:0:0:
256,192,68016,1,8,0:0:0:0:
256,192,68994,1,8,0:0:0:0:
256,192,69646,1,8,0:0:0:0:
256,192,70298,1,0,0:0:0:0:
256,192,71276,1,8,0:0:0:0:
256,192,71929,1,0,0:0:0:0:
256,192,73233,1,0,0:0:0:0:
256,192,73885,1,8,0:0:0:0:
256,192,74374,1,8,0:0:0:0:
256,192,75189,1,0,0:0:0:0:
256,192,75842,1,0,0:0:0:0:
256,192,76494,1,8,0:0:0:0:
256,192,76983,1,8,0:0:0:0:
256,192,77798,1,0,0:0:0:0:
256,192,78450,1,8,0:0:0:0:
256,192,79429,1,0,0:0:0:0:
256,192,80081,1,8,0:0:0:0:
256,192,80733,1,0,0:0:0:0:
256,192,82037,1,8,0:0:0:0:
256,192,82363,1,8,0:0:0:0:
256,192,83668,1,8,0:0:0:0:
256,192,84646,1,8,0:0:0:0:
256,192,85624,1,0,0:0:0:0:
256,192,86276,1,8,0:0:0:0:
256,192,87255,1,0,0:0:0:0:
256,192,88233,8,0,90189,0:0:0:0:
256,192,91005,8,0,93124,0:0:0:0:
