osu file format v14

[General]
AudioFilename: audio.mp3
AudioLeadIn: 0
PreviewTime: 1326
Countdown: 1
SampleSet: Normal
StackLeniency: 0.5
Mode: 0
LetterboxInBreaks: 0
WidescreenStoryboard: 0

[Editor]
DistanceSpacing: 1.5
BeatDivisor: 4
GridSize: 8
TimelineZoom: 1.700001

[Metadata]
Title:Today is Gonna be a Great Day (TV Size)
TitleUnicode:Today is Gonna be a Great Day (TV Size)
Artist:Bowling for Soup
ArtistUnicode:Bowling for Soup
Creator:Im Yuuki
Version:Summer
Source:Phineas and Ferb
Tags:Phineas and Ferb Theme Song, Disney Channel XD, [-naniwa-], naniwa
BeatmapID:1720940
BeatmapSetID:821029

[Difficulty]
HPDrainRate:7
CircleSize:4
OverallDifficulty:9
ApproachRate:9
SliderMultiplier:1.6
SliderTickRate:1

[Events]
//Background and Video events
0,0,"A_Boring_Day.jpg",0,0
//Break Periods
2,51251,55118
//Storyboard Layer 0 (Background)
//Storyboard Layer 1 (Fail)
//Storyboard Layer 2 (Pass)
//Storyboard Layer 3 (Foreground)
//Storyboard Layer 4 (Overlay)
//Storyboard Sound Samples

[TimingPoints]
1326,355.029585798817,4,1,0,100,1,0
1326,-133.333333333333,4,2,0,60,0,0
1703,355.029585798817,4,2,0,60,1,0
2235,-133.333333333333,4,2,0,60,0,0
5929,355.029585798817,4,2,0,60,1,0
11609,-200,4,2,0,60,0,0
13029,332.409972299169,4,2,0,60,1,0
14275,-66.6666666666667,4,1,0,60,0,0
15522,-66.6666666666667,4,1,0,40,0,0
15854,-66.6666666666667,4,1,0,60,0,0
19482,-66.6666666666667,4,1,0,60,0,0
22363,-66.6666666666667,4,1,0,60,0,0
24029,-66.6666666666667,4,1,0,60,0,0
25330,335.195530726257,4,1,0,60,1,0
25330,-66.6666666666667,4,1,0,60,0,0
29017,-133.333333333333,4,1,0,60,0,0
30386,331.491712707182,4,1,0,100,1,0
30386,-66.6666666666667,4,1,0,60,0,0
34695,-71.4285714285714,4,1,0,60,0,0
35026,-76.9230769230769,4,1,0,60,0,0
35689,335.195530726257,4,1,0,60,1,0
35855,-66.6666666666667,4,1,0,60,0,0
41052,333.333333333333,4,1,0,60,1,0
41052,-50,4,1,0,60,0,0
45051,-200,4,1,0,60,0,0
45718,-133.333333333333,4,1,0,60,0,0
46385,-133.333333333333,4,1,0,60,0,1
51051,-200,4,1,0,60,0,0
55718,-200,4,1,0,5,0,0

[HitObjects]
422,161,1326,6,0,P|447:180|467:219,1,60.0000022888184
409,272,1681,2,0,P|381:225|310:194,1,120.000004577637,4|0,0:0|0:0,0:0:0:0:
248,168,2235,2,0,P|292:125|351:122,1,120.000004577637
145,46,2945,1,0,0:0:0:0:
145,46,3123,6,0,L|75:41,2,60.0000022888184,4|0|0,0:0|0:0|0:0,0:0:0:0:
112,117,3655,2,0,P|99:194|121:251,1,120.000004577637
424,278,4365,1,0,0:0:0:0:
424,278,4543,6,0,L|431:212,2,60.0000022888184,4|0|0,0:0|0:0|0:0,0:0:0:0:
329,315,5075,2,0,B|259:336|223:271,1,120.000004577637
312,172,5785,1,0,0:0:0:0:
312,172,5929,2,0,P|340:88|419:43,2,160,4|0|0,0:0|0:0|0:0,0:0:0:0:
81,43,6994,2,0,L|172:68,1,80
247,51,7349,5,4,0:0:0:0:
247,51,7526,2,0,P|231:122|195:140,1,80
163,183,7881,2,0,P|246:154|314:205,1,160
336,101,8591,5,0,0:0:0:0:
336,101,8769,2,0,P|364:128|374:167,1,80,4|0,0:0|0:0,0:0:0:0:
463,190,9124,1,0,0:0:0:0:
463,190,9301,2,0,P|385:195|341:258,1,160
207,346,10011,1,0,0:0:0:0:
207,346,10189,6,0,L|141:280,1,80,4|0,0:0|0:0,0:0:0:0:
73,247,10544,2,0,P|98:220|148:208,1,80
227,237,11076,1,0,0:0:0:0:
386,93,11431,1,0,0:0:0:0:
386,93,11609,6,0,B|336:97|310:73|310:73|227:93|186:61|186:61|145:78|113:142,1,320,4|0,0:0|0:0,0:0:0:0:
298,222,13361,6,0,L|371:273,1,80
230,151,13693,2,0,L|340:141,1,80
141,157,14026,2,0,L|189:61,1,80
176,85,14275,1,0,0:0:0:0:
176,85,14358,5,0,0:0:0:0:
281,45,14524,1,0,0:0:0:0:
337,129,14691,2,0,P|310:189|319:244,1,120.000004577637,0|0,0:0|0:2,0:0:0:0:
412,339,15023,2,0,P|439:279|427:223,1,120.000004577637,4|0,0:0|0:2,0:0:0:0:
429,227,15355,1,0,0:0:0:0:
386,59,15522,1,0,0:0:0:0:
386,59,15605,1,0,0:0:0:0:
386,59,15688,5,0,0:0:0:0:
208,68,15854,1,0,0:0:0:0:
141,150,16020,1,0,0:0:0:0:
109,63,16186,2,0,P|52:141|65:199,1,120.000004577637,0|4,0:0|0:0,0:0:0:0:
85,247,16519,2,0,P|142:169|129:111,1,120.000004577637
234,75,16851,1,0,0:0:0:0:
234,75,17017,6,0,L|356:48,1,120.000004577637
446,108,17350,1,0,0:0:0:0:
435,215,17516,1,0,0:0:0:0:
435,215,17682,2,0,P|366:214|302:278,1,120.000004577637,4|0,0:0|0:0,0:0:0:0:
278,322,18015,2,0,P|347:323|411:259,1,120.000004577637
388,296,18347,1,0,0:0:0:0:
136,204,18513,6,0,L|76:160,2,60.0000022888184,0|0|0,3:0|3:0|3:0,3:0:0:0:
212,112,18846,2,0,L|168:52,2,60.0000022888184,0|0|0,3:0|3:0|3:0,3:0:0:0:
320,88,19178,2,0,L|312:28,2,60.0000022888184,0|0|0,3:0|3:0|3:0,3:0:0:0:
286,275,19510,1,0,0:0:0:0:
286,275,19677,6,0,P|219:245|161:253,1,120.000004577637,4|0,0:0|0:0,0:0:0:0:
48,288,20009,2,0,P|81:207|145:176,1,120.000004577637
211,154,20342,2,0,P|160:100|78:104,1,120.000004577637
272,63,20674,1,0,0:0:0:0:
346,177,20840,1,0,0:0:0:0:
345,303,21006,6,0,P|425:276|449:236,1,120.000004577637,4|0,0:0|0:0,0:0:0:0:
444,123,21339,2,0,P|364:150|340:190,1,120.000004577637
206,262,21671,1,0,0:0:0:0:
79,156,21837,1,0,0:0:0:0:
136,311,22004,1,0,0:0:0:0:
165,119,22170,1,0,0:0:0:0:
165,119,22336,6,0,P|246:150|285:147,1,120.000004577637,4|0,0:0|0:0,0:0:0:0:
394,132,22668,2,0,P|369:92|305:56,1,120.000004577637
186,43,23001,2,0,P|191:128|247:180,1,120.000004577637
297,227,23333,1,0,0:0:0:0:
407,256,23499,1,0,0:0:0:0:
407,256,23583,1,0,0:0:0:0:
407,256,23666,6,0,P|423:192|398:119,1,120.000004577637
357,38,23998,1,0,0:0:0:0:
263,88,24164,1,0,0:0:0:0:
263,88,24330,2,0,P|229:156|149:152,1,120.000004577637
100,133,24663,2,0,P|95:203|168:268,1,120.000004577637
221,257,24995,2,0,P|181:321|98:310,1,120.000004577637
434,314,25330,6,0,P|384:268|376:198,1,120.000004577637
412,97,25665,2,0,P|462:143|470:213,1,120.000004577637,4|0,0:0|0:0,0:0:0:0:
315,288,26000,1,0,0:0:0:0:
197,186,26168,1,0,0:0:0:0:
373,219,26335,5,0,0:0:0:0:
143,255,26503,1,0,0:0:0:0:
66,167,26670,2,0,P|131:72|172:70,1,120.000004577637
292,60,27005,1,4,0:0:0:0:
292,60,27173,2,0,P|284:124|233:168,1,120.000004577637
143,255,27508,2,0,P|227:285|308:268,1,120.000004577637
392,232,27844,1,0,0:0:0:0:
433,104,28011,5,0,0:0:0:0:
292,60,28179,2,0,P|288:159|239:193,1,120.000004577637,0|4,0:0|0:0,0:0:0:0:
278,170,28514,1,0,0:0:0:0:
206,250,28682,2,0,P|158:196|170:113,1,120.000004577637
221,42,29017,6,0,B|247:78|305:57|305:57|304:123|352:144|352:144,1,180.000006866455
380,284,29687,2,0,B|358:253|281:265|281:265|281:173|225:149,1,240.000009155274
158,250,30551,5,0,0:0:0:0:
162,253,30717,2,0,P|138:185|163:135,1,120.000004577637
273,58,31048,2,0,P|311:134|294:183,1,120.000004577637,4|0,0:0|0:0,0:0:0:0:
228,128,31380,1,0,0:0:0:0:
350,238,31546,1,0,0:0:0:0:
246,298,31711,6,0,P|201:224|131:192,1,120.000004577637
74,143,32043,2,0,P|54:224|86:293,1,120.000004577637
140,328,32374,1,4,0:0:0:0:
308,309,32540,1,0,0:0:0:0:
308,309,32706,2,0,P|383:273|416:218,1,120.000004577637
411,129,33037,2,0,P|351:129|298:156,1,120.000004577637,0|4,0:0|0:0,0:0:0:0:
221,264,33369,1,0,0:0:0:0:
221,264,33535,2,0,P|161:268|106:245,1,120.000004577637,0|4,0:0|0:0,0:0:0:0:
108,99,33866,1,0,0:0:0:0:
108,99,34032,2,0,P|166:83|224:95,1,120.000004577637,0|4,0:0|0:0,0:0:0:0:
324,153,34363,6,0,P|350:124|365:87,2,80.0000030517579,0|0|0,0:3|0:3|0:3,0:3:0:0:
215,234,34695,2,0,P|191:208|177:171,2,74.6666643880209,0|0|0,0:3|0:3|0:3,0:3:0:0:
363,288,35026,2,0,P|341:317|306:336,2,69.3333301595054,0|0|0,0:3|0:3|0:3,0:3:0:0:
366,87,35358,1,0,0:3:0:0:
384,282,35689,5,0,0:0:0:0:
448,160,35856,1,0,0:0:0:0:
384,282,36024,2,0,P|280:223|240:228,1,120.000004577637
88,235,36359,2,0,P|192:294|232:289,1,120.000004577637,4|0,0:0|0:0,0:0:0:0:
373,181,36694,1,0,0:0:0:0:
245,94,36862,1,0,0:0:0:0:
373,181,37029,6,0,P|356:108|313:77,1,120.000004577637
175,49,37364,1,0,0:0:0:0:
175,49,37532,2,0,P|181:139|242:180,1,120.000004577637,0|4,0:0|0:0,0:0:0:0:
256,300,37867,1,0,0:0:0:0:
128,328,38035,1,0,0:0:0:0:
77,226,38202,1,0,0:0:0:0:
77,226,38370,6,0,P|167:173|185:117,1,120.000004577637
189,39,38705,2,0,P|99:92|81:148,1,120.000004577637
93,102,39040,1,4,0:0:0:0:
264,139,39208,1,0,0:0:0:0:
172,162,39376,1,0,0:0:0:0:
347,84,39543,6,0,P|387:210|342:336,1,240.000009155274
82,231,40046,1,8,0:0:0:0:
253,302,40214,1,8,0:0:0:0:
109,155,40381,1,8,0:0:0:0:
184,346,40549,1,8,0:0:0:0:
174,107,40716,1,8,0:0:0:0:
101,331,40884,1,8,0:0:0:0:
361,288,41052,5,0,0:0:0:0:
192,184,41218,1,0,0:0:0:0:
443,228,41385,1,0,0:0:0:0:
248,272,41552,1,0,0:0:0:0:
381,137,41718,6,0,L|217:15,1,160,4|0,0:0|0:0,0:0:0:0:
151,103,42052,2,0,L|284:214,1,160
440,306,42385,5,12,0:0:0:0:
311,142,42552,1,8,0:0:0:0:
354,328,42718,1,8,0:0:0:0:
409,124,42885,1,8,0:0:0:0:
234,318,43052,6,0,L|149:150,1,160,12|0,0:0|0:0,0:0:0:0:
88,43,43385,2,0,L|16:243,1,160
154,256,43718,5,4,0:0:0:0:
341,331,43885,1,0,0:0:0:0:
96,317,44052,1,0,0:0:0:0:
372,260,44218,1,0,0:0:0:0:
161,175,44385,6,0,L|363:130,1,160,4|0,0:0|0:0,0:0:0:0:
446,90,44718,2,0,L|232:27,1,160
64,40,45051,5,0,0:0:0:0:
69,59,45134,1,0,0:0:0:0:
77,77,45217,1,0,0:0:0:0:
87,94,45301,1,0,0:0:0:0:
99,110,45384,1,0,0:0:0:0:
113,125,45467,1,0,0:0:0:0:
128,137,45551,1,0,0:0:0:0:
145,148,45634,1,0,0:0:0:0:
211,144,45718,2,0,L|235:168,3,30.0000011444092
184,192,46051,2,0,L|176:228,3,30.0000011444092
64,288,46385,5,8,0:0:0:0:
48,64,46551,1,0,0:0:0:0:
192,288,46718,5,8,0:0:0:0:
208,64,46885,1,0,0:0:0:0:
320,288,47051,5,8,0:0:0:0:
304,64,47218,1,0,0:0:0:0:
448,288,47385,5,8,0:0:0:0:
464,64,47551,1,0,0:0:0:0:
336,224,47718,5,8,0:0:0:0:
80,144,47885,1,0,0:0:0:0:
352,128,48051,5,8,0:0:0:0:
128,224,48218,1,0,0:0:0:0:
416,208,48385,5,8,0:0:0:0:
160,96,48551,1,0,0:0:0:0:
448,128,48718,5,8,0:0:0:0:
208,272,48885,1,0,0:0:0:0:
368,80,49051,5,8,0:0:0:0:
272,320,49218,1,0,0:0:0:0:
288,48,49385,5,8,0:0:0:0:
352,304,49551,1,0,0:0:0:0:
208,32,49718,5,8,0:0:0:0:
416,256,49885,1,0,0:0:0:0:
128,64,50051,5,8,0:0:0:0:
432,176,50218,1,0,0:0:0:0:
224,240,50385,5,0,0:0:0:0:
243,236,50468,1,0,0:0:0:0:
263,237,50551,1,0,0:0:0:0:
283,240,50635,1,0,0:0:0:0:
302,247,50718,1,0,0:0:0:0:
319,257,50801,1,0,0:0:0:0:
334,270,50885,1,0,0:0:0:0:
347,285,50968,1,0,0:0:0:0:
358,302,51051,1,0,0:0:0:0:
256,192,55718,12,0,56718,0:0:0:0:
