osu file format v14

[General]
AudioFilename: audio.mp3
AudioLeadIn: 0
PreviewTime: 1326
Countdown: 1
SampleSet: Normal
StackLeniency: 0.5
Mode: 0
LetterboxInBreaks: 0
WidescreenStoryboard: 1

[Editor]
DistanceSpacing: 1.5
BeatDivisor: 4
GridSize: 8
TimelineZoom: 1.700001

[Metadata]
Title:Today is Gonna be a Great Day (TV Size)
TitleUnicode:Today is Gonna be a Great Day (TV Size)
Artist:Bowling for Soup
ArtistUnicode:Bowling for Soup
Creator:Im Yuuki
Version:Hard
Source:Phineas and Ferb
Tags:Phineas and Ferb Theme Song, Disney Channel XD, [-naniwa-], naniwa
BeatmapID:1721918
BeatmapSetID:821029

[Difficulty]
HPDrainRate:4
CircleSize:3.5
OverallDifficulty:6
ApproachRate:8
SliderMultiplier:1.6
SliderTickRate:1

[Events]
//Background and Video events
0,0,"A_Boring_Day.jpg",0,0
//Break Periods
2,51417,54968
//Storyboard Layer 0 (Background)
//Storyboard Layer 1 (Fail)
//Storyboard Layer 2 (Pass)
//Storyboard Layer 3 (Foreground)
//Storyboard Layer 4 (Overlay)
//Storyboard Sound Samples

[TimingPoints]
1326,355.029585798817,4,1,0,100,1,0
1326,-200,4,2,0,60,0,0
1703,355.029585798817,4,2,0,60,1,0
2235,-200,4,2,0,60,0,0
3123,-133.333333333333,4,2,0,60,0,0
3655,-200,4,2,0,60,0,0
4543,-133.333333333333,4,2,0,60,0,0
5075,-200,4,2,0,60,0,0
5929,355.029585798817,4,2,0,60,1,0
5929,-200,4,2,0,60,0,0
7171,-133.333333333333,4,2,0,60,0,0
7881,-200,4,2,0,60,0,0
8769,-133.333333333333,4,2,0,60,0,0
9301,-200,4,2,0,60,0,0
10189,-133.333333333333,4,2,0,60,0,0
10721,-200,4,2,0,60,0,0
11609,-200,4,2,0,60,0,0
13029,332.409972299169,4,2,0,60,1,0
14275,-100,4,1,0,60,0,0
15522,-100,4,1,0,40,0,0
15854,-100,4,1,0,60,0,0
19677,-100,4,1,0,60,0,0
22835,-100,4,1,0,60,0,0
23998,-100,4,1,0,60,0,0
25330,335.195530726257,4,1,0,60,1,0
25330,-100,4,1,0,60,0,0
29017,-133.333333333333,4,1,0,60,0,0
30386,331.491712707182,4,1,0,100,1,0
30386,-100,4,1,0,60,0,0
35689,335.195530726257,4,1,0,60,1,0
35855,-100,4,1,0,60,0,0
41052,333.333333333333,4,1,0,60,1,0
41052,-66.6666666666667,4,1,0,60,0,0
45051,-133.333333333333,4,1,0,60,0,0
46385,-66.6666666666667,4,1,0,60,0,1
50218,-66.6666666666667,4,1,0,60,0,0
51218,-66.6666666666667,4,1,0,5,0,0

[HitObjects]
465,280,1326,6,0,P|466:240|484:205,1,80,0|4,0:0|0:0,0:0:0:0:
384,216,2058,1,0,0:0:0:0:
361,304,2235,2,0,P|284:293|271:284,1,80
126,246,2945,5,0,0:0:0:0:
126,246,3123,2,0,L|70:303,2,60.0000022888184,4|0|0,0:0|0:0|0:0,0:0:0:0:
136,152,3655,2,0,P|157:85|171:74,1,80
404,261,4365,5,0,0:0:0:0:
404,261,4543,2,0,L|462:325,2,60.0000022888184,4|0|0,0:0|0:0|0:0,0:0:0:0:
330,309,5075,2,0,P|310:252|324:226,1,80
320,128,5785,1,0,0:0:0:0:
314,127,5929,2,0,P|268:134|236:155,1,80,4|0,0:0|0:0,0:0:0:0:
156,295,6994,5,0,0:0:0:0:
156,295,7171,1,0,0:0:0:0:
156,295,7349,2,0,L|106:262,1,60.0000022888184,4|0,0:0|0:0,0:0:0:0:
82,168,7704,1,0,0:0:0:0:
39,90,7881,2,0,P|85:79|130:97,1,80
362,164,8592,5,0,0:0:0:0:
362,164,8769,2,0,L|393:81,2,60.0000022888184,4|0|0,0:0|0:0|0:0,0:0:0:0:
358,272,9301,2,0,P|325:257|272:263,1,80
109,135,10011,5,0,0:0:0:0:
109,135,10189,2,0,L|78:70,2,60.0000022888184,4|0|0,0:0|0:0|0:0,0:0:0:0:
205,189,10721,2,0,P|207:141|231:112,1,80
386,131,11432,1,0,0:0:0:0:
446,228,11609,2,0,P|348:243|300:186,1,160,4|0,0:0|3:0,0:0:0:0:
191,121,13361,6,0,L|0:72,2,160
394,80,14192,2,0,P|422:132|405:182,1,80
384,248,14524,2,0,P|419:230|457:240,1,80
328,324,14856,2,0,P|292:341|254:331,1,80,0|4,0:0|0:0,0:0:0:0:
249,225,15188,1,0,0:0:0:0:
167,246,15355,1,0,0:0:0:0:
66,154,15522,5,0,0:0:0:0:
66,154,15688,2,0,L|45:47,2,80
151,146,16186,2,0,P|238:56|291:69,1,160
403,153,16851,1,0,0:0:0:0:
403,153,17017,2,0,L|443:70,2,80
387,251,17516,1,0,0:0:0:0:
305,307,17682,2,0,P|236:319|216:286,1,80,4|0,0:0|0:0,0:0:0:0:
158,239,18015,1,0,0:0:0:0:
249,229,18181,2,0,P|205:154|110:171,1,160
271,45,18679,6,0,L|357:73,1,80
343,155,19012,2,0,L|417:208,1,80
339,274,19344,2,0,L|391:349,1,80
212,323,19677,5,0,0:0:0:0:
121,281,19843,2,0,P|168:222|166:187,1,80
82,199,20175,2,0,P|151:136|228:164,1,160,4|0,0:0|0:0,0:0:0:0:
358,244,20840,1,0,0:0:0:0:
358,244,21006,2,0,L|424:332,2,80
414,166,21505,2,0,P|408:82|324:66,1,160
143,116,22170,5,0,0:0:0:0:
143,116,22336,2,0,L|51:63,2,80,4|0|0,0:0|0:0|0:0,0:0:0:0:
136,222,22835,2,0,P|230:235|264:298,1,160
375,314,23333,1,0,0:0:0:0:
456,225,23499,2,0,P|414:221|367:177,1,80
231,73,23998,6,0,L|81:142,1,160
117,248,24663,2,0,L|295:164,1,160
447,283,25330,6,0,P|403:208|384:204,1,80
313,180,25665,2,0,P|357:255|369:255,1,80
250,322,26000,1,4,0:0:0:0:
149,283,26167,2,0,P|148:243|131:207,1,80
126,68,26503,5,0,0:0:0:0:
126,68,26670,2,0,L|40:52,2,80
329,119,27173,2,0,P|322:48|298:19,1,80,0|4,0:0|0:0,0:0:0:0:
234,125,27508,2,0,P|241:196|265:225,1,80
348,269,27843,5,0,0:0:0:0:
348,269,28011,2,0,L|447:248,2,80
225,319,28514,2,0,P|182:313|147:287,1,80,0|4,0:0|0:0,0:0:0:0:
85,192,28849,1,0,0:0:0:0:
207,193,29017,2,0,P|285:159|301:62,1,180.000006866455
304,72,29687,1,0,0:0:0:0:
208,96,30022,1,0,0:2:0:0:
176,263,30551,5,0,0:0:0:0:
176,263,30717,2,0,L|65:288,2,80
272,304,31214,1,0,0:0:0:0:
404,312,31380,2,0,P|437:245|435:211,1,80,4|0,0:0|0:0,0:0:0:0:
388,148,31711,1,0,0:0:0:0:
336,233,31877,1,0,0:0:0:0:
283,303,32043,6,0,P|214:291|194:274,1,80
176,194,32374,2,0,P|245:206|265:223,1,80
112,273,32706,2,0,P|71:214|75:175,1,80,4|0,0:0|0:0,0:0:0:0:
144,83,33037,2,0,L|40:53,2,80
236,75,33535,2,0,P|295:108|376:62,1,160
433,210,34032,2,0,P|374:177|293:223,1,160
256,192,34529,12,0,35358,0:0:0:0:
286,93,35689,5,0,0:0:0:0:
184,48,35856,1,0,0:0:0:0:
286,93,36024,2,0,L|396:76,2,80,0|0|4,0:0|0:0|0:0,0:0:0:0:
210,166,36526,1,0,0:0:0:0:
170,256,36694,6,0,L|83:247,2,80
274,285,37197,1,0,0:0:0:0:
385,229,37364,2,0,P|344:195|339:152,1,80
384,98,37700,1,4,0:0:0:0:
279,49,37867,2,0,P|273:112|259:127,1,80
151,156,38202,1,0,0:0:0:0:
98,278,38370,2,0,P|149:309|190:312,1,80
284,270,38705,2,0,P|233:239|192:236,1,80
137,94,39040,5,4,0:0:0:0:
137,94,39208,2,0,L|55:73,2,80
251,77,39711,1,0,0:0:0:0:
340,37,39878,1,0,0:0:0:0:
389,124,40046,2,0,L|430:202,1,80
318,208,40382,2,0,L|332:300,1,80
221,273,40717,2,0,L|192:353,1,80
112,200,41052,5,0,0:0:0:0:
126,77,41385,2,0,L|255:84,1,120.000004577637
371,164,41718,2,0,L|228:178,1,120.000004577637
140,282,42052,1,0,0:0:0:0:
377,288,42385,6,8,L|432:167,1,120.000004577637
350,83,42718,2,8,L|274:225,1,120.000004577637
236,280,43052,1,8,0:0:0:0:
136,256,43385,1,0,0:0:0:0:
143,168,43718,6,0,L|72:72,1,120.000004577637
175,58,44052,2,0,L|242:158,1,120.000004577637
310,247,44385,6,0,L|378:148,1,120.000004577637
445,251,44718,2,0,L|358:334,1,120.000004577637
256,192,45051,12,0,46051,0:0:0:0:
84,164,46385,5,8,0:0:0:0:
180,260,46551,1,0,0:0:0:0:
168,152,46718,5,8,0:0:0:0:
100,272,46885,1,0,0:0:0:0:
336,176,47051,6,0,L|264:304,1,120.000004577637,8|0,0:0|0:0,0:0:0:0:
368,288,47385,2,0,L|436:164,1,120.000004577637,8|0,0:0|0:0,0:0:0:0:
184,84,47718,5,8,0:0:0:0:
72,168,47885,1,0,0:0:0:0:
184,172,48051,5,8,0:0:0:0:
72,80,48218,1,0,0:0:0:0:
128,248,48385,6,0,L|224:320,1,120.000004577637,8|0,0:0|0:0,0:0:0:0:
320,288,48718,2,0,L|220:218,1,120.000004577637,8|0,0:0|0:0,0:0:0:0:
368,224,49051,5,8,0:0:0:0:
436,120,49218,1,0,0:0:0:0:
332,152,49385,5,8,0:0:0:0:
468,192,49551,1,0,0:0:0:0:
221,220,49718,6,0,L|186:100,1,120.000004577637,8|0,0:0|0:0,0:0:0:0:
77,100,50051,2,0,L|108:236,1,120.000004577637,8|0,0:0|0:0,0:0:0:0:
307,286,50385,6,0,L|412:213,1,120.000004577637
267,201,50718,2,0,L|339:92,1,120.000004577637
207,120,51051,2,0,L|247:-4,1,120.000004577637
256,192,55718,12,4,56718,0:0:0:0:
