osu file format v14

[General]
AudioFilename: audio.mp3
AudioLeadIn: 0
PreviewTime: 3
Countdown: 0
SampleSet: Soft
StackLeniency: 0.4
Mode: 0
LetterboxInBreaks: 0
WidescreenStoryboard: 1

[Editor]
DistanceSpacing: 1
BeatDivisor: 4
GridSize: 32
TimelineZoom: 1.6

[Metadata]
Title:Today is Gonna be a Great Day (TV Size)
TitleUnicode:Today is Gonna be a Great Day (TV Size)
Artist:Bowling For Soup
ArtistUnicode:Bowling For Soup
Creator:Smoke
Version:Normal
Source:Phineas and Ferb
Tags:english rock cartoon disney channel nymphe kuki1537 browiec Kiyoshi Guarden perry the platypus
BeatmapID:2518846
BeatmapSetID:1209835

[Difficulty]
HPDrainRate:4
CircleSize:3.2
OverallDifficulty:4.5
ApproachRate:5.5
SliderMultiplier:0.999999999999999
SliderTickRate:1

[Events]
//Background and Video events
0,0,"phineas and ferb.jpg",0,0
Video,-430,"vid.mp4"
//Break Periods
2,50483,53239
//Storyboard Layer 0 (Background)
//Storyboard Layer 1 (Fail)
//Storyboard Layer 2 (Pass)
//Storyboard Layer 3 (Foreground)
//Storyboard Layer 4 (Overlay)
//Storyboard Sound Samples

[TimingPoints]
9,382.165605095541,4,2,1,70,1,0
391,357.142857142857,4,2,1,70,1,0
926,372.670807453416,4,2,1,70,1,0
1298,368.098159509202,4,2,1,70,1,0
1850,335.195530726257,4,2,1,70,1,0
2185,372.670807453416,4,2,1,70,1,0
2744,357.142857142857,4,2,1,70,1,0
3279,333.333333333333,4,2,1,70,1,0
3612,344.827586206897,4,2,1,70,1,0
4646,344.827586206897,4,2,1,70,1,0
4990,372.670807453416,4,2,1,70,1,0
5176,322.58064516129,4,2,1,70,1,0
5659,350.877192982456,4,2,1,70,1,0
6009,382.165605095541,4,2,1,70,1,0
6582,370.37037037037,4,2,1,70,1,0
6952,340.909090909091,4,2,1,70,1,0
7463,355.029585798817,4,2,1,70,1,0
7995,372.670807453416,4,2,1,70,1,0
8367,324.324324324324,4,2,1,70,1,0
8691,357.142857142857,4,2,1,70,1,0
8869,342.857142857143,4,2,1,70,1,0
10069,480,4,2,1,70,1,0
10309,677.966101694915,4,2,1,70,1,0
12003,338.983050847458,4,2,1,70,1,0
12680,419.58041958042,4,2,1,70,1,0
12889,314.13612565445,4,2,1,70,1,0
12889,-100,4,2,1,70,0,0
13046,331.491712707182,4,2,1,65,1,0
13046,-100,4,2,1,65,0,0
13543,297.029702970297,4,2,1,70,1,0
13543,-100,4,2,1,65,0,0
13691,340.909090909091,4,2,1,70,1,0
13691,-100,4,2,1,65,0,0
14372,331.491712707182,4,2,1,70,1,0
14372,-100,4,2,1,65,0,0
21001,335.195530726257,4,2,1,65,1,0
21001,-100,4,2,1,65,0,0
22341,327.868852459016,4,2,1,65,1,0
22341,-100,4,2,1,65,0,0
22668,-90.9090909090909,4,2,1,80,0,0
23652,340.909090909091,4,2,1,75,1,0
23652,-90.9090909090909,4,2,1,75,0,0
25015,333.333333333333,4,2,1,75,1,0
25015,-90.9090909090909,4,2,1,75,0,0
26015,350.877192982456,4,2,1,75,1,0
26015,-90.9090909090909,4,2,1,75,0,0
26365,329.67032967033,4,2,1,75,1,0
26365,-90.9090909090909,4,2,1,75,0,0
27354,333.333333333333,4,2,1,70,1,0
27354,-90.9090909090909,4,2,1,75,0,0
27687,332.409972299169,4,2,1,70,1,0
27687,-90.9090909090909,4,2,1,70,0,0
29016,333.333333333333,4,2,1,75,1,0
29016,-90.9090909090909,4,2,1,75,0,0
33682,315.789473684211,4,2,1,75,1,0
33682,-90.9090909090909,4,2,1,75,0,0
33997,337.078651685393,4,2,1,75,1,0
33997,-90.9090909090909,4,2,1,75,0,0
34334,357.142857142857,4,2,1,65,1,0
34334,-100,4,2,1,65,0,0
34691,324.324324324324,4,2,1,65,1,0
34691,-100,4,2,1,65,0,0
35015,336.511497476164,4,2,1,70,1,0
35015,-100,4,2,1,65,0,0
35688,342.857142857143,4,2,1,65,1,0
35688,-100,4,2,1,65,0,0
36373,326.086956521739,4,2,1,65,1,0
36373,-100,4,2,1,65,0,0
37025,333.333333333333,4,2,1,65,1,0
37025,-100,4,2,1,65,0,0
39025,329.67032967033,4,2,1,65,1,0
39025,-100,4,2,1,65,0,0
39354,-100,4,2,1,70,0,0
39684,333.333333333333,4,2,1,80,1,0
39684,-90.9090909090909,4,2,1,80,0,0
42350,340.909090909091,4,2,1,80,1,0
42350,-90.9090909090909,4,2,1,80,0,0
43031,326.086956521739,4,2,1,80,1,0
43031,-90.9090909090909,4,2,1,80,0,0
43683,331.491712707182,4,2,1,80,1,0
43683,-90.9090909090909,4,2,1,80,0,0
44014,319.148936170213,4,2,1,80,1,0
44014,-90.9090909090909,4,2,1,80,0,0
44333,342.857142857143,4,2,1,80,1,0
44333,-90.9090909090909,4,2,1,80,0,0
45018,333.333333333333,4,2,1,85,1,0
45018,-90.9090909090909,4,2,1,85,0,0
45684,338.983050847458,4,2,1,85,1,0
45684,-90.9090909090909,4,2,1,85,0,0
46361,340.909090909091,4,2,1,85,1,0
46361,-90.9090909090909,4,2,1,85,0,0
47042,333.333333333333,4,2,1,70,1,0
47042,-90.9090909090909,4,2,1,85,0,0
47708,327.868852459016,4,2,1,70,1,0
47708,-90.9090909090909,4,2,1,85,0,0
48691,336.134453781513,4,2,1,70,1,0
48691,-90.9090909090909,4,2,1,85,0,0
49027,326.086956521739,4,2,1,85,1,0
49027,-90.9090909090909,4,2,1,85,0,0
49354,-90.9090909090909,4,2,1,85,0,0
49679,402.684563758389,4,2,1,70,1,0
49679,-100,4,2,1,70,0,0
50283,-125,4,2,1,5,0,0
54364,400,4,2,1,70,1,0
54364,-100,4,2,1,70,0,0
54964,-125,4,2,1,5,0,0

[Colours]
Combo1 : 57,154,213
Combo2 : 39,240,11
Combo3 : 58,215,248
Combo4 : 46,190,20

[HitObjects]
68,299,12889,6,0,P|111:277|162:285,1,103,14|2,0:0|0:0,0:0:0:0:
205,305,13377,2,0,P|227:308|267:289,1,50,2|2,3:2|0:0,0:0:0:0:
298,278,13691,1,10,0:0:0:0:
381,333,14031,1,2,3:2:0:0:
459,271,14372,2,0,L|442:215,1,50,2|2,3:2|0:0,0:0:0:0:
410,185,14703,1,2,3:2:0:0:
410,185,14869,2,0,L|426:78,1,99.9999999999999,2|2,0:0|0:0,0:0:0:0:
345,34,15532,1,10,0:0:0:0:
345,34,15697,6,0,L|280:49,1,50,2|2,3:2|0:0,0:0:0:0:
247,57,16029,1,2,3:2:0:0:
158,11,16360,2,0,L|98:26,1,50,10|2,0:0|0:0,0:0:0:0:
35,90,16858,2,0,L|24:151,1,50,2|0,0:0|3:2,0:0:0:0:
48,184,17189,1,10,0:0:0:0:
132,247,17521,1,8,3:3:0:0:
132,247,17686,2,0,L|195:232,1,50,2|10,3:2|3:3,0:0:0:0:
229,221,18018,1,2,3:2:0:0:
301,153,18349,6,0,P|293:124|268:100,2,50,6|2|2,0:0|0:0|3:2,0:0:0:0:
338,186,18847,1,2,0:0:0:0:
314,282,19178,1,2,0:0:0:0:
404,335,19510,1,2,0:0:0:0:
404,335,19675,2,0,L|387:401,2,50,2|2|2,3:2|0:0|3:2,0:0:0:0:
446,308,20173,2,0,B|481:271|481:271|459:167,1,150,2|0,0:0|3:2,0:0:0:0:
483,76,21001,6,0,L|430:71,1,50,2|2,3:2|0:0,0:0:0:0:
388,63,21336,1,2,3:2:0:0:
388,63,21503,2,0,L|271:82,1,99.9999999999999,2|2,0:0|0:0,0:0:0:0:
240,90,22006,2,0,P|273:127|277:195,1,99.9999999999999,2|2,3:2|3:2,0:0:0:0:
224,269,22668,5,4,3:1:0:0:
134,206,22996,1,4,3:1:0:0:
38,257,23324,1,4,3:1:0:0:
0,156,23652,5,4,3:1:0:0:
65,68,23992,2,0,P|94:65|132:83,1,55.0000016784668,10|2,0:0|0:0,0:0:0:0:
162,105,24333,2,0,P|191:108|229:90,1,55.0000016784668,2|2,3:2|3:2,0:0:0:0:
251,59,24674,2,0,P|301:33|370:58,1,110.000003356934,10|0,0:0|3:2,0:0:0:0:
437,112,25348,2,0,L|418:179,1,55.0000016784668,10|2,0:0|0:0,0:0:0:0:
379,199,25681,2,0,L|398:266,1,55.0000016784668,2|2,3:2|3:2,0:0:0:0:
409,304,26015,1,10,0:0:0:0:
316,366,26365,6,0,P|283:377|245:367,1,55.0000016784668,2|2,3:2|3:2,0:0:0:0:
226,341,26694,1,10,0:0:0:0:
226,341,26859,2,0,B|177:313|177:313|116:331,1,110.000003356934,2|2,0:0|3:2,0:0:0:0:
73,345,27354,1,10,0:0:0:0:
8,256,27687,2,0,L|228:192,1,220.000006713867,2|0,3:2|0:0,0:0:0:0:
398,322,29016,5,4,3:2:0:0:
473,243,29349,2,0,P|475:215|465:190,1,55.0000016784668,10|2,0:0|0:0,0:0:0:0:
423,154,29682,2,0,P|421:126|431:101,1,55.0000016784668,2|2,3:2|3:2,0:0:0:0:
454,51,30016,2,0,B|409:21|409:21|345:38,1,110.000003356934,10|0,0:0|3:2,0:0:0:0:
272,108,30682,2,0,L|199:96,1,55.0000016784668,10|2,0:0|0:0,0:0:0:0:
171,68,31015,2,0,L|98:80,1,55.0000016784668,2|2,3:2|3:2,0:0:0:0:
62,85,31349,1,10,0:0:0:0:
7,180,31682,6,0,L|75:194,1,55.0000016784668,2|2,3:2|3:2,0:0:0:0:
98,231,32015,1,10,0:0:0:0:
98,231,32182,2,0,P|143:207|203:225,1,110.000003356934,2|2,0:0|3:2,0:0:0:0:
243,250,32682,1,10,0:0:0:0:
347,215,33015,2,0,B|378:67|378:67|415:131,1,220.000006713867,10|10,3:3|3:3,0:0:0:0:
466,222,33997,1,10,3:3:0:0:
511,310,34334,5,4,3:1:0:0:
425,362,34691,2,0,P|399:361|366:341,1,50,2|2,3:2|0:0,0:0:0:0:
337,320,35015,1,10,0:0:0:0:
241,289,35351,2,0,L|179:304,1,50,2|10,3:2|0:0,0:0:0:0:
143,313,35688,1,2,3:2:0:0:
64,373,36030,1,2,3:2:0:0:
64,373,36202,2,0,P|43:332|57:263,1,97.5,2|2,0:0|0:0,0:0:0:0:
72,235,36699,2,0,L|61:182,1,50,2|2,3:2|0:0,0:0:0:0:
52,136,37025,5,2,3:2:0:0:
32,38,37358,1,2,3:2:0:0:
129,61,37691,1,10,0:0:0:0:
129,61,37858,2,0,L|229:38,1,99.9999999999999,2|10,0:0|0:0,0:0:0:0:
275,26,38358,1,0,3:2:0:0:
352,89,38691,2,0,P|351:120|331:149,1,50,2|2,3:2|0:0,0:0:0:0:
304,168,39025,2,0,P|305:199|325:228,1,50,10|10,0:0|0:0,0:0:0:0:
343,255,39354,1,0,3:2:0:0:
308,359,39684,5,4,3:2:0:0:
415,381,40017,2,0,P|438:381|467:364,1,55.0000016784668,10|2,0:0|0:0,0:0:0:0:
496,320,40350,1,2,3:2:0:0:
431,230,40684,1,10,0:0:0:0:
458,123,41017,2,0,P|485:117|519:112,2,55.0000016784668,2|2|10,3:2|3:2|0:0,0:0:0:0:
416,95,41517,1,2,0:0:0:0:
416,95,41684,2,0,P|365:80|298:64,1,110.000003356934,2|10,3:2|0:0,0:0:0:0:
230,16,42350,5,2,3:2:0:0:
230,16,42520,2,0,L|204:133,1,110.000003356934,2|0,3:2|0:0,0:0:0:0:
170,157,43031,1,2,3:2:0:0:
170,157,43194,2,0,L|196:274,1,110.000003356934,2|0,3:2|3:2,0:0:0:0:
206,312,43683,1,10,0:0:0:0:
125,368,44014,1,2,3:2:0:0:
44,311,44333,1,8,3:3:0:0:
78,218,44675,1,8,0:0:0:0:
21,123,45018,6,0,P|20:96|35:53,1,55.0000016784668,8|2,0:0|3:2,0:0:0:0:
67,32,45351,2,0,P|95:42|123:50,1,55.0000016784668,10|2,0:0|3:2,0:0:0:0:
171,66,45684,1,10,0:0:0:0:
270,19,46022,1,10,0:0:0:0:
330,110,46361,2,0,P|318:145|311:176,1,55.0000016784668,10|2,0:0|3:2,0:0:0:0:
272,199,46701,2,0,P|284:234|291:265,1,55.0000016784668,10|2,0:0|3:2,0:0:0:0:
332,284,47042,2,0,P|380:294|433:255,1,110.000003356934,10|10,0:0|0:0,0:0:0:0:
488,169,47708,5,10,0:0:0:0:
488,169,47871,2,0,P|471:108|451:47,1,110.000003356934,2|0,3:2|3:2,0:0:0:0:
411,44,48363,1,10,0:0:0:0:
411,44,48527,2,0,B|377:65|377:65|305:52,1,112,2|0,3:2|3:2,0:0:0:0:
255,35,49027,1,10,3:2:0:0:
189,118,49353,1,8,3:2:0:0:
247,209,49679,2,0,B|234:260|234:260|248:304|248:304|232:368,1,150,12|0,3:2|0:0,0:0:0:0:
235,353,54364,6,0,B|248:304|248:304|234:260|234:260|247:209,1,150,4|0,3:1|0:0,0:0:0:0:
