osu file format v14

[General]
AudioFilename: audio.mp3
AudioLeadIn: 0
PreviewTime: 3
Countdown: 0
SampleSet: Soft
StackLeniency: 0.4
Mode: 0
LetterboxInBreaks: 0
WidescreenStoryboard: 1

[Editor]
DistanceSpacing: 1
BeatDivisor: 3
GridSize: 32
TimelineZoom: 1.6

[Metadata]
Title:Today is Gonna be a Great Day (TV Size)
TitleUnicode:Today is Gonna be a Great Day (TV Size)
Artist:Bowling For Soup
ArtistUnicode:Bowling For Soup
Creator:Smoke
Version:Kuki's Extra
Source:Phineas and Ferb
Tags:english rock cartoon disney channel nymphe kuki1537 browiec Kiyoshi Guarden perry the platypus
BeatmapID:2518845
BeatmapSetID:1209835

[Difficulty]
HPDrainRate:5.4
CircleSize:3.8
OverallDifficulty:9.1
ApproachRate:9.2
SliderMultiplier:1.8
SliderTickRate:1

[Events]
//Background and Video events
0,0,"phineas and ferb.jpg",0,0
Video,-430,"vid.mp4"
//Break Periods
2,50483,53794
//Storyboard Layer 0 (Background)
//Storyboard Layer 1 (Fail)
//Storyboard Layer 2 (Pass)
//Storyboard Layer 3 (Foreground)
//Storyboard Layer 4 (Overlay)
//Storyboard Sound Samples

[TimingPoints]
9,382.165605095541,4,2,1,70,1,0
391,357.142857142857,4,2,1,70,1,0
926,372.670807453416,4,2,1,70,1,0
1298,368.098159509202,4,2,1,70,1,0
1850,335.195530726257,4,2,1,70,1,0
2185,372.670807453416,4,2,1,70,1,0
2744,357.142857142857,4,2,1,70,1,0
3279,333.333333333333,4,2,1,70,1,0
3612,344.827586206897,4,2,1,70,1,0
4646,344.827586206897,4,2,1,70,1,0
4990,372.670807453416,4,2,1,70,1,0
5176,322.58064516129,4,2,1,70,1,0
5659,350.877192982456,4,2,1,70,1,0
6009,382.165605095541,4,2,1,70,1,0
6582,370.37037037037,4,2,1,70,1,0
6952,340.909090909091,4,2,1,70,1,0
7463,355.029585798817,4,2,1,70,1,0
7995,372.670807453416,4,2,1,70,1,0
8367,324.324324324324,4,2,1,70,1,0
8691,357.142857142857,4,2,1,70,1,0
8869,342.857142857143,4,2,1,70,1,0
10069,480,4,2,1,70,1,0
10309,677.966101694915,4,2,1,70,1,0
12003,338.983050847458,4,2,1,70,1,0
12680,419.58041958042,4,2,1,70,1,0
12889,314.13612565445,4,2,1,70,1,0
12889,-133.333333333333,4,2,1,65,0,0
13046,331.491712707182,4,2,1,65,1,0
13046,-133.333333333333,4,2,1,65,0,0
13543,297.029702970297,4,2,1,70,1,0
13543,-133.333333333333,4,2,1,65,0,0
13691,340.909090909091,4,2,1,70,1,0
13691,-133.333333333333,4,2,1,65,0,0
14372,331.491712707182,4,2,1,70,1,0
14372,-133.333333333333,4,2,1,65,0,0
18349,-117.647058823529,4,2,1,70,0,0
21001,335.195530726257,4,2,1,65,1,0
21001,-117.647058823529,4,2,1,70,0,0
22341,327.868852459016,4,2,1,65,1,0
22341,-166.666666666667,4,2,1,70,0,0
22586,-166.666666666667,4,2,1,5,0,0
22668,-83.3333333333333,4,2,1,80,0,0
22914,-83.3333333333333,4,2,1,5,0,0
22996,-100,4,2,1,80,0,0
23242,-100,4,2,1,5,0,0
23324,-125,4,2,1,80,0,0
23570,-125,4,2,1,5,0,0
23652,340.909090909091,4,2,1,75,1,0
23652,-105.263157894737,4,2,1,75,0,0
25015,333.333333333333,4,2,1,75,1,0
25015,-105.263157894737,4,2,1,75,0,0
26015,350.877192982456,4,2,1,75,1,0
26015,-105.263157894737,4,2,1,75,0,0
26365,329.67032967033,4,2,1,75,1,0
26365,-105.263157894737,4,2,1,75,0,0
27354,333.333333333333,4,2,1,70,1,0
27354,-105.263157894737,4,2,1,75,0,0
27687,332.409972299169,4,2,1,70,1,0
27687,-142.857142857143,4,2,1,70,0,0
29016,333.333333333333,4,2,1,75,1,0
29016,-105.263157894737,4,2,1,75,0,0
33015,-133.333333333333,4,2,1,75,0,0
33682,315.789473684211,4,2,1,75,1,0
33682,-133.333333333333,4,2,1,75,0,0
33997,337.078651685393,4,2,1,75,1,0
33997,-133.333333333333,4,2,1,75,0,0
34334,357.142857142857,4,2,1,65,1,0
34334,-133.333333333334,4,2,1,65,0,0
34691,324.324324324324,4,2,1,65,1,0
34691,-133.333333333334,4,2,1,65,0,0
35015,336.511497476164,4,2,1,70,1,0
35015,-133.333333333334,4,2,1,65,0,0
35688,342.857142857143,4,2,1,65,1,0
35688,-133.333333333334,4,2,1,65,0,0
36373,326.086956521739,4,2,1,65,1,0
36373,-133.333333333334,4,2,1,65,0,0
37025,333.333333333333,4,2,1,65,1,0
37025,-133.333333333334,4,2,1,65,0,0
39025,329.67032967033,4,2,1,65,1,0
39025,-133.333333333334,4,2,1,65,0,0
39354,-133.333333333334,4,2,1,70,0,0
39601,-133.333333333334,4,2,1,5,0,0
39684,333.333333333333,4,2,1,80,1,0
39684,-105.263157894737,4,2,1,80,0,0
42350,340.909090909091,4,2,1,80,1,0
42350,-105.263157894737,4,2,1,80,0,0
43031,326.086956521739,4,2,1,80,1,0
43031,-105.263157894737,4,2,1,80,0,0
43683,331.491712707182,4,2,1,80,1,0
43683,-105.263157894737,4,2,1,80,0,0
44014,319.148936170213,4,2,1,80,1,0
44014,-105.263157894737,4,2,1,80,0,0
44333,342.857142857143,4,2,1,80,1,0
44333,-105.263157894737,4,2,1,80,0,0
45018,333.333333333333,4,2,1,85,1,0
45018,-90.9090909090909,4,2,1,85,0,0
45684,338.983050847458,4,2,1,85,1,0
45684,-90.9090909090909,4,2,1,85,0,0
46361,340.909090909091,4,2,1,85,1,0
46361,-90.9090909090909,4,2,1,85,0,0
47042,333.333333333333,4,2,1,70,1,0
47042,-90.9090909090909,4,2,1,85,0,0
47708,327.868852459016,4,2,1,70,1,0
47708,-90.9090909090909,4,2,1,85,0,0
48691,336.134453781513,4,2,1,70,1,0
48691,-90.9090909090909,4,2,1,85,0,0
49027,326.086956521739,4,2,1,85,1,0
49027,-90.9090909090909,4,2,1,85,0,0
49354,-90.9090909090909,4,2,1,85,0,0
49679,402.684563758389,4,2,1,70,1,0
49679,-111.111111111111,4,2,1,70,0,0
50283,-111.111111111111,4,2,1,5,0,0
54364,400,4,2,1,70,1,0
54364,-111.111111111111,4,2,1,70,0,0
54964,-125,4,2,1,5,0,0

[Colours]
Combo1 : 57,154,213
Combo2 : 39,240,11
Combo3 : 58,215,248
Combo4 : 46,190,20

[HitObjects]
119,97,12889,6,0,P|162:77|203:86,1,67.5000025749208,14|0,0:0|3:2,0:0:0:0:
329,232,13211,1,2,0:0:0:0:
172,167,13377,1,2,3:2:0:0:
316,83,13543,1,2,0:0:0:0:
230,247,13691,2,0,L|152:257,1,67.5000025749208,10|0,0:0|0:0,0:0:0:0:
85,212,14031,1,2,3:2:0:0:
205,357,14202,1,2,0:0:0:0:
260,171,14372,5,2,3:2:0:0:
203,337,14537,1,2,0:0:0:0:
157,144,14703,1,2,3:2:0:0:
286,301,14869,2,0,P|324:315|367:305,1,67.5000025749208,2|8,0:0|0:0,0:0:0:0:
268,104,15200,2,0,L|260:174,1,67.5000025749208,2|2,0:0|3:2,0:0:0:0:
447,211,15532,5,10,0:0:0:0:
351,63,15697,1,2,3:2:0:0:
329,232,15863,1,2,0:0:0:0:
448,93,16029,1,2,3:2:0:0:
399,288,16195,1,2,0:0:0:0:
296,130,16360,1,10,0:0:0:0:
459,235,16526,2,0,P|498:246|549:233,1,67.5000025749208,2|0,0:0|3:2,0:0:0:0:
448,93,16858,6,0,P|414:90|382:101,1,67.5000025749208,2|0,0:0|3:2,0:0:0:0:
234,207,17189,1,10,0:0:0:0:
234,207,17272,1,8,0:0:0:0:
234,207,17355,1,0,3:2:0:0:
188,41,17521,2,0,L|140:47,1,33.7500012874604,8|8,3:3|3:3,0:0:0:0:
57,117,17686,2,0,L|95:121,1,33.7500012874604,2|0,3:2|0:0,0:0:0:0:
213,187,17852,2,0,L|165:193,1,33.7500012874604,10|8,3:3|3:3,0:0:0:0:
82,263,18018,2,0,L|120:267,1,33.7500012874604,2|0,3:2|0:0,0:0:0:0:
225,349,18184,1,10,0:0:0:0:
317,206,18349,6,0,P|351:187|404:191,1,76.5000014591217,6|2,0:0|0:0,0:0:0:0:
380,336,18681,1,2,3:2:0:0:
221,262,18847,2,0,L|212:184,1,76.5000014591217,2|8,0:0|0:0,0:0:0:0:
294,40,19178,2,0,L|285:115,1,76.5000014591217,2|0,0:0|3:2,0:0:0:0:
126,218,19510,1,2,0:0:0:0:
50,44,19675,5,2,3:2:0:0:
131,243,19841,1,2,0:0:0:0:
196,60,20007,1,2,3:2:0:0:
35,236,20173,2,0,P|35:191|60:148,1,76.5000014591217,2|8,0:0|0:0,0:0:0:0:
257,121,20504,2,0,P|218:143|168:143,1,76.5000014591217,2|0,0:0|3:2,0:0:0:0:
126,0,20836,1,2,0:0:0:0:
334,65,21001,6,0,L|346:148,1,76.5000014591217,2|2,3:2|0:0,0:0:0:0:
272,297,21336,1,2,3:2:0:0:
425,188,21503,2,0,P|471:182|515:203,1,76.5000014591217,2|8,0:0|0:0,0:0:0:0:
389,361,21838,1,2,0:0:0:0:
304,213,22006,2,0,P|258:207|214:228,1,76.5000014591217,2|8,3:2|0:0,0:0:0:0:
73,280,22341,6,0,L|65:197,1,80.9999975280763,2|0,3:2|0:0,0:0:0:0:
25,119,22668,6,0,B|124:85|91:165|223:119,1,161.999995056153,4|0,3:1|0:0,0:0:0:0:
280,47,22996,6,0,P|262:96|335:147,1,135,4|0,3:1|0:0,0:0:0:0:
399,200,23324,6,0,B|364:231|364:231|384:313,1,108,4|0,3:1|0:0,0:0:0:0:
318,374,23652,6,0,P|274:354|218:358,1,85.4999977169037,4|0,3:1|0:0,0:0:0:0:
34,339,23992,1,10,0:0:0:0:
232,190,24163,1,2,0:0:0:0:
132,384,24333,1,2,3:2:0:0:
68,171,24504,1,2,3:2:0:0:
237,353,24674,2,0,L|248:262,1,85.4999977169037,10|0,0:0|0:0,0:0:0:0:
126,59,25015,5,0,3:2:0:0:
162,252,25181,1,2,3:2:0:0:
300,81,25348,1,10,0:0:0:0:
84,152,25515,1,2,0:0:0:0:
333,170,25681,1,2,3:2:0:0:
204,4,25848,1,2,3:2:0:0:
267,248,26015,1,10,0:0:0:0:
383,46,26190,1,2,0:0:0:0:
168,167,26365,5,2,3:2:0:0:
408,233,26529,1,2,3:2:0:0:
183,142,26694,1,10,0:0:0:0:
405,69,26859,2,0,P|452:57|501:76,1,85.4999977169037,2|0,0:0|3:2,0:0:0:0:
419,258,27189,1,2,3:2:0:0:
303,127,27354,2,0,L|292:31,1,85.4999977169037,10|0,0:0|0:0,0:0:0:0:
183,142,27687,6,0,B|100:144|57:251|133:336|229:304|251:256|251:256|218:275|176:259,1,377.999988464356,2|4,3:2|0:0,0:0:0:0:
194,264,29016,6,0,L|92:277,1,85.4999977169037,4|2,3:2|0:0,0:0:0:0:
10,95,29349,1,10,0:0:0:0:
247,173,29516,1,2,0:0:0:0:
12,195,29682,1,2,3:2:0:0:
209,42,29849,1,2,3:2:0:0:
84,253,30016,2,0,P|69:299|181:372,1,170.999995433807,10|0,0:0|3:2,0:0:0:0:
339,240,30516,5,2,3:2:0:0:
110,125,30682,1,10,0:0:0:0:
374,154,30849,1,2,0:0:0:0:
151,298,31015,1,2,3:2:0:0:
330,72,31182,1,2,3:2:0:0:
265,322,31349,1,10,0:0:0:0:
176,60,31515,1,2,0:0:0:0:
409,285,31682,5,2,3:2:0:0:
102,222,31849,1,2,3:2:0:0:
355,49,32015,1,10,0:0:0:0:
265,322,32182,2,0,L|255:236,1,85.4999977169037,2|0,0:0|3:2,0:0:0:0:
262,0,32515,1,2,3:2:0:0:
459,214,32682,2,0,P|420:197|363:206,1,85.4999977169037,10|0,0:0|0:0,0:0:0:0:
126,141,33015,6,0,L|194:149,2,45.0000017166138,10|8|8,3:3|3:3|3:3,0:0:0:0:
330,72,33349,6,0,L|276:78,2,45.0000017166138,10|8|8,3:3|3:3|3:3,0:0:0:0:
253,178,33682,5,10,3:3:0:0:
236,211,33787,5,8,3:3:0:0:
203,232,33892,5,8,3:3:0:0:
167,238,33997,6,0,L|106:230,2,45.0000017166138,10|8|8,3:3|3:3|3:3,0:0:0:0:
253,314,34334,6,0,P|287:297|340:303,1,67.5000025749208,4|2,3:1|0:0,0:0:0:0:
482,248,34691,1,2,3:2:0:0:
417,365,34853,1,2,0:0:0:0:
371,228,35015,2,0,B|351:133|351:133|367:98,1,135.000005149842,10|2,0:0|3:2,0:0:0:0:
458,0,35519,1,10,0:0:0:0:
445,163,35688,5,2,3:2:0:0:
318,31,35859,1,2,0:0:0:0:
484,83,36030,1,2,3:2:0:0:
328,158,36202,2,0,P|294:169|249:161,1,67.5000025749208,2|8,0:0|0:0,0:0:0:0:
152,56,36536,1,2,0:0:0:0:
182,189,36699,1,2,3:2:0:0:
60,140,36862,1,2,0:0:0:0:
60,140,36943,1,2,0:0:0:0:
60,140,37025,6,0,L|71:227,1,67.5000025749208,2|0,3:2|0:0,0:0:0:0:
189,350,37358,2,0,L|200:263,1,67.5000025749208,2|0,3:2|0:0,0:0:0:0:
293,131,37691,1,10,0:0:0:0:
164,209,37858,2,0,P|214:202|250:222,1,67.5000025749208,2|0,0:0|3:2,0:0:0:0:
335,332,38191,6,0,P|308:290|355:201,1,135.000005149842,10|2,0:0|0:0,0:0:0:0:
488,165,38691,1,2,3:2:0:0:
388,274,38858,1,2,0:0:0:0:
388,100,39025,1,10,0:0:0:0:
388,100,39107,1,8,0:0:0:0:
388,100,39189,2,0,L|394:143,1,33.7500012874604,10|8,0:0|0:0,0:0:0:0:
451,36,39354,2,0,P|390:10|328:29,1,101.250003862381,0|0,3:2|0:0,0:0:0:0:
299,80,39684,6,0,L|206:73,1,85.4999977169037,4|2,3:2|0:0,0:0:0:0:
38,66,40017,1,10,0:0:0:0:
174,222,40184,1,2,0:0:0:0:
150,9,40350,2,0,P|125:66|139:117,1,85.4999977169037,2|0,3:2|3:2,0:0:0:0:
242,284,40684,2,0,P|267:227|253:176,1,85.4999977169037,10|0,0:0|0:0,0:0:0:0:
59,155,41017,5,2,3:2:0:0:
299,80,41184,1,2,3:2:0:0:
82,259,41350,1,10,0:0:0:0:
327,302,41517,1,2,0:0:0:0:
158,101,41684,2,0,L|148:189,1,85.4999977169037,2|0,3:2|3:2,0:0:0:0:
251,368,42017,2,0,L|241:280,1,85.4999977169037,10|0,0:0|0:0,0:0:0:0:
314,62,42350,5,2,3:2:0:0:
409,280,42520,1,2,3:2:0:0:
243,115,42690,2,0,L|233:203,1,85.4999977169037,8|0,0:0|0:0,0:0:0:0:
387,365,43031,1,2,3:2:0:0:
446,144,43194,1,2,3:2:0:0:
277,276,43357,2,0,P|229:288|172:267,1,85.4999977169037,8|0,0:0|3:2,0:0:0:0:
117,124,43683,5,10,0:0:0:0:
117,124,43765,1,8,0:0:0:0:
117,124,43848,2,0,L|165:117,1,42.7499988584519,8|8,0:0|0:0,0:0:0:0:
90,234,44014,2,0,L|42:228,3,42.7499988584519,2|0|0|0,3:2|3:2|3:2|3:2,0:0:0:0:
181,244,44333,6,0,P|167:293|123:325,1,85.4999977169037,8|8,3:3|3:3,0:0:0:0:
242,165,44675,2,0,P|278:222|277:262,1,85.4999977169037,8|0,0:0|3:2,0:0:0:0:
241,64,45018,5,8,0:0:0:0:
349,299,45184,1,2,3:2:0:0:
341,39,45351,5,10,0:0:0:0:
264,334,45518,1,2,3:2:0:0:
451,106,45684,5,10,0:0:0:0:
161,221,45853,1,0,3:2:0:0:
435,265,46022,5,10,0:0:0:0:
220,41,46192,1,0,3:2:0:0:
264,334,46361,5,10,0:0:0:0:
369,35,46531,1,2,3:2:0:0:
421,350,46701,5,10,0:0:0:0:
131,137,46872,1,2,3:2:0:0:
486,186,47042,5,10,0:0:0:0:
157,319,47208,1,0,3:2:0:0:
393,50,47375,6,0,P|365:107|377:163,1,99.0000030212403,10|0,0:0|3:2,0:0:0:0:
421,350,47708,5,10,0:0:0:0:
368,141,47871,1,2,3:2:0:0:
241,295,48035,5,8,0:0:0:0:
294,86,48199,1,0,3:2:0:0:
159,343,48363,5,10,0:0:0:0:
106,134,48527,1,2,3:2:0:0:
240,384,48691,5,8,0:0:0:0:
293,175,48859,1,0,3:2:0:0:
367,357,49027,5,10,3:2:0:0:
367,357,49108,1,8,0:0:0:0:
367,357,49190,2,0,L|420:350,1,49.5000015106202,8|8,0:0|0:0,0:0:0:0:
510,260,49353,2,0,L|460:253,3,49.5000015106202,8|8|8|8,3:2|0:0|0:0|0:0,0:0:0:0:
413,140,49679,6,0,B|275:88|304:207|162:153,1,242.999992584229,12|0,3:2|0:0,0:0:0:0:
181,159,54364,6,0,B|304:207|275:88|413:140,1,242.999992584229,4|0,3:1|0:0,0:0:0:0:
