osu file format v14

[General]
AudioFilename: audio.mp3
AudioLeadIn: 0
PreviewTime: 111380
Countdown: 0
SampleSet: Soft
StackLeniency: 0.7
Mode: 0
LetterboxInBreaks: 0
WidescreenStoryboard: 1

[Editor]
Bookmarks: 19380
DistanceSpacing: 1
BeatDivisor: 4
GridSize: 32
TimelineZoom: 1.6

[Metadata]
Title:1985
TitleUnicode:1985
Artist:Bowling for Soup
ArtistUnicode:Bowling for Soup
Creator:-scy-
Version:Party
Source:
Tags:
BeatmapID:1602989
BeatmapSetID:762421

[Difficulty]
HPDrainRate:5
CircleSize:4
OverallDifficulty:6
ApproachRate:8
SliderMultiplier:1.7
SliderTickRate:1

[Events]
//Background and Video events
0,0,"1985.png",0,0
//Break Periods
2,71080,78130
2,131080,138130
//Storyboard Layer 0 (Background)
//Storyboard Layer 1 (Fail)
//Storyboard Layer 2 (Pass)
//Storyboard Layer 3 (Foreground)
//Storyboard Sound Samples

[TimingPoints]
880,500,4,2,0,50,1,0
52880,-83.3333333333333,4,2,0,50,0,1
70880,-100,4,2,0,50,0,0
112880,-83.3333333333333,4,2,0,50,0,1
130880,-100,4,2,0,50,0,0
157880,-83.3333333333333,4,2,0,50,0,1
191880,-100,4,2,0,50,0,0

[HitObjects]
256,192,19380,5,0,0:0:0:0:
320,192,19505,1,0,0:0:0:0:
384,192,19630,1,0,0:0:0:0:
256,32,19880,1,0,0:0:0:0:
96,192,20130,1,0,0:0:0:0:
256,352,20380,1,0,0:0:0:0:
96,192,20880,5,0,0:0:0:0:
96,192,21130,1,0,0:0:0:0:
160,32,21380,1,0,0:0:0:0:
224,64,21505,1,0,0:0:0:0:
256,128,21630,1,0,0:0:0:0:
256,256,21880,1,0,0:0:0:0:
288,320,22005,1,0,0:0:0:0:
352,352,22130,1,0,0:0:0:0:
416,192,22380,1,0,0:0:0:0:
256,192,22880,5,0,0:0:0:0:
256,192,23130,1,0,0:0:0:0:
128,32,23380,1,0,0:0:0:0:
96,32,23505,1,0,0:0:0:0:
128,32,23630,1,0,0:0:0:0:
384,32,23880,1,0,0:0:0:0:
416,32,24005,1,0,0:0:0:0:
384,32,24130,1,0,0:0:0:0:
384,192,24380,1,0,0:0:0:0:
160,320,24880,5,0,0:0:0:0:
160,320,25130,1,0,0:0:0:0:
64,192,25380,1,0,0:0:0:0:
160,192,25630,1,0,0:0:0:0:
256,192,25880,1,0,0:0:0:0:
288,160,26005,1,0,0:0:0:0:
320,192,26130,1,0,0:0:0:0:
384,256,26380,1,0,0:0:0:0:
416,288,26505,1,0,0:0:0:0:
448,256,26630,1,0,0:0:0:0:
512,192,26880,5,0,0:0:0:0:
448,96,27130,1,0,0:0:0:0:
352,160,27380,1,0,0:0:0:0:
288,192,27505,1,0,0:0:0:0:
288,128,27630,1,0,0:0:0:0:
192,96,27880,1,0,0:0:0:0:
128,64,28005,1,0,0:0:0:0:
128,128,28130,1,0,0:0:0:0:
128,256,28380,1,0,0:0:0:0:
384,256,28880,5,0,0:0:0:0:
384,256,29130,1,0,0:0:0:0:
480,256,29380,1,0,0:0:0:0:
384,160,29630,1,0,0:0:0:0:
256,160,29880,1,0,0:0:0:0:
256,224,30005,1,0,0:0:0:0:
256,288,30130,1,0,0:0:0:0:
160,352,30380,1,0,0:0:0:0:
160,288,30505,1,0,0:0:0:0:
160,224,30630,1,0,0:0:0:0:
160,32,30880,5,0,0:0:0:0:
256,32,31130,1,0,0:0:0:0:
256,128,31380,1,0,0:0:0:0:
256,128,31505,1,0,0:0:0:0:
256,160,31630,1,0,0:0:0:0:
256,256,31880,1,0,0:0:0:0:
256,256,32005,1,0,0:0:0:0:
256,288,32130,1,0,0:0:0:0:
384,288,32380,1,0,0:0:0:0:
384,64,32880,5,0,0:0:0:0:
384,64,33130,1,0,0:0:0:0:
160,64,33380,1,0,0:0:0:0:
96,64,33505,1,0,0:0:0:0:
96,128,33630,1,0,0:0:0:0:
96,256,33880,1,0,0:0:0:0:
96,320,34005,1,0,0:0:0:0:
160,320,34130,1,0,0:0:0:0:
384,320,34380,1,0,0:0:0:0:
384,192,34880,5,0,0:0:0:0:
384,192,35130,1,0,0:0:0:0:
288,192,35380,1,0,0:0:0:0:
224,192,35505,1,0,0:0:0:0:
224,192,35630,1,0,0:0:0:0:
160,192,35755,1,0,0:0:0:0:
96,192,35880,1,0,0:0:0:0:
96,192,36005,1,0,0:0:0:0:
32,192,36130,1,0,0:0:0:0:
32,256,36255,1,0,0:0:0:0:
32,256,36380,1,0,0:0:0:0:
96,256,36505,1,0,0:0:0:0:
160,256,36630,1,0,0:0:0:0:
160,256,36755,1,0,0:0:0:0:
224,256,36880,1,0,0:0:0:0:
384,256,37380,5,0,0:0:0:0:
384,224,37505,1,0,0:0:0:0:
384,192,37630,1,0,0:0:0:0:
384,160,37755,1,0,0:0:0:0:
384,128,37880,1,0,0:0:0:0:
384,160,38005,1,0,0:0:0:0:
384,192,38130,1,0,0:0:0:0:
384,224,38255,1,0,0:0:0:0:
384,256,38380,1,0,0:0:0:0:
384,352,39380,5,0,0:0:0:0:
320,352,39505,1,0,0:0:0:0:
256,352,39630,1,0,0:0:0:0:
192,352,39755,1,0,0:0:0:0:
160,288,39880,1,0,0:0:0:0:
224,288,40005,1,0,0:0:0:0:
288,288,40130,1,0,0:0:0:0:
352,288,40255,1,0,0:0:0:0:
416,288,40380,1,0,0:0:0:0:
416,128,41130,5,0,0:0:0:0:
416,128,41255,1,0,0:0:0:0:
416,128,41380,1,0,0:0:0:0:
256,96,41630,1,0,0:0:0:0:
256,128,41755,1,0,0:0:0:0:
256,160,41880,1,0,0:0:0:0:
96,128,42130,1,0,0:0:0:0:
64,128,42255,1,0,0:0:0:0:
32,128,42380,1,0,0:0:0:0:
32,288,43130,5,0,0:0:0:0:
32,288,43380,1,0,0:0:0:0:
160,288,43630,1,0,0:0:0:0:
128,320,43755,1,0,0:0:0:0:
96,352,43880,1,0,0:0:0:0:
256,288,44130,1,0,0:0:0:0:
288,320,44255,1,0,0:0:0:0:
320,352,44380,1,0,0:0:0:0:
384,288,44630,1,0,0:0:0:0:
384,288,44880,1,0,0:0:0:0:
480,192,45130,5,0,0:0:0:0:
448,128,45255,1,0,0:0:0:0:
416,64,45380,1,0,0:0:0:0:
384,128,45505,1,0,0:0:0:0:
352,192,45630,1,0,0:0:0:0:
320,128,45755,1,0,0:0:0:0:
256,128,45880,1,0,0:0:0:0:
224,192,46005,1,0,0:0:0:0:
160,192,46130,1,0,0:0:0:0:
192,128,46255,1,0,0:0:0:0:
224,64,46380,1,0,0:0:0:0:
64,64,47130,5,0,0:0:0:0:
64,64,47380,1,0,0:0:0:0:
64,192,47630,1,0,0:0:0:0:
64,320,47880,1,0,0:0:0:0:
256,320,48130,1,0,0:0:0:0:
480,320,48380,1,0,0:0:0:0:
256,64,48880,5,0,0:0:0:0:
256,64,49130,1,0,0:0:0:0:
256,320,49380,5,0,0:0:0:0:
256,320,49630,1,0,0:0:0:0:
32,192,49880,5,0,0:0:0:0:
32,192,50130,1,0,0:0:0:0:
480,192,50380,5,0,0:0:0:0:
480,192,50630,1,0,0:0:0:0:
256,192,50880,5,0,0:0:0:0:
256,192,51380,1,0,0:0:0:0:
256,192,51880,1,0,0:0:0:0:
128,96,52380,5,0,0:0:0:0:
128,192,52630,1,0,0:0:0:0:
128,288,52880,5,0,0:0:0:0:
192,288,53005,1,0,0:0:0:0:
256,288,53130,1,0,0:0:0:0:
320,288,53255,1,0,0:0:0:0:
384,288,53380,1,0,0:0:0:0:
480,64,53630,5,0,0:0:0:0:
416,64,53755,1,0,0:0:0:0:
352,64,53880,1,0,0:0:0:0:
288,64,54005,1,0,0:0:0:0:
224,64,54130,1,0,0:0:0:0:
64,64,54380,1,0,0:0:0:0:
64,64,54630,1,0,0:0:0:0:
64,224,54880,5,0,0:0:0:0:
96,288,55005,1,0,0:0:0:0:
160,288,55130,1,0,0:0:0:0:
192,224,55255,1,0,0:0:0:0:
160,160,55380,1,0,0:0:0:0:
96,160,55505,1,0,0:0:0:0:
64,224,55630,1,0,0:0:0:0:
96,288,55755,1,0,0:0:0:0:
160,288,55880,1,0,0:0:0:0:
224,288,56005,1,0,0:0:0:0:
288,288,56130,1,0,0:0:0:0:
320,32,56380,5,0,0:0:0:0:
192,32,56630,1,0,0:0:0:0:
160,192,56880,5,0,0:0:0:0:
128,256,57005,1,0,0:0:0:0:
64,256,57130,1,0,0:0:0:0:
32,192,57255,1,0,0:0:0:0:
96,192,57380,1,0,0:0:0:0:
96,352,57630,5,0,0:0:0:0:
192,352,57880,5,0,0:0:0:0:
256,352,58005,1,0,0:0:0:0:
256,352,58130,1,0,0:0:0:0:
256,352,58255,1,0,0:0:0:0:
320,352,58380,1,0,0:0:0:0:
416,352,58630,5,0,0:0:0:0:
480,256,58880,5,0,0:0:0:0:
480,192,59005,1,0,0:0:0:0:
480,128,59130,1,0,0:0:0:0:
480,64,59255,1,0,0:0:0:0:
416,64,59380,1,0,0:0:0:0:
352,96,59505,1,0,0:0:0:0:
320,160,59630,1,0,0:0:0:0:
320,224,59755,1,0,0:0:0:0:
320,288,59880,1,0,0:0:0:0:
192,320,60130,1,0,0:0:0:0:
32,320,60380,1,0,0:0:0:0:
32,256,60505,1,0,0:0:0:0:
32,192,60630,1,0,0:0:0:0:
32,64,60880,5,0,0:0:0:0:
96,64,61005,1,0,0:0:0:0:
128,128,61130,1,0,0:0:0:0:
128,192,61255,1,0,0:0:0:0:
160,256,61380,1,0,0:0:0:0:
224,256,61505,1,0,0:0:0:0:
256,192,61630,1,0,0:0:0:0:
256,128,61755,1,0,0:0:0:0:
288,64,61880,1,0,0:0:0:0:
352,64,62005,1,0,0:0:0:0:
416,64,62130,1,0,0:0:0:0:
480,160,62380,5,0,0:0:0:0:
480,256,62630,1,0,0:0:0:0:
480,352,62880,5,0,0:0:0:0:
416,352,63005,1,0,0:0:0:0:
352,352,63130,1,0,0:0:0:0:
320,288,63255,1,0,0:0:0:0:
256,256,63380,1,0,0:0:0:0:
192,288,63505,1,0,0:0:0:0:
160,352,63630,1,0,0:0:0:0:
96,352,63755,1,0,0:0:0:0:
32,352,63880,1,0,0:0:0:0:
32,192,64130,1,0,0:0:0:0:
32,32,64630,5,0,0:0:0:0:
32,32,64755,1,0,0:0:0:0:
32,32,64880,1,0,0:0:0:0:
160,32,65130,1,0,0:0:0:0:
160,64,65255,1,0,0:0:0:0:
160,96,65380,1,0,0:0:0:0:
288,32,65630,1,0,0:0:0:0:
288,96,65755,1,0,0:0:0:0:
288,160,65880,1,0,0:0:0:0:
416,32,66130,1,0,0:0:0:0:
416,128,66255,1,0,0:0:0:0:
416,224,66380,1,0,0:0:0:0:
416,352,66880,5,0,0:0:0:0:
224,224,67380,5,0,0:0:0:0:
224,160,67505,1,0,0:0:0:0:
288,160,67630,1,0,0:0:0:0:
288,224,67755,1,0,0:0:0:0:
288,288,67880,1,0,0:0:0:0:
224,288,68005,1,0,0:0:0:0:
160,288,68130,1,0,0:0:0:0:
160,224,68255,1,0,0:0:0:0:
160,160,68380,1,0,0:0:0:0:
160,96,68505,1,0,0:0:0:0:
224,96,68630,1,0,0:0:0:0:
288,96,68755,1,0,0:0:0:0:
352,96,68880,1,0,0:0:0:0:
352,160,69005,1,0,0:0:0:0:
352,224,69130,1,0,0:0:0:0:
352,288,69255,1,0,0:0:0:0:
288,288,69380,1,0,0:0:0:0:
224,288,69505,1,0,0:0:0:0:
224,224,69630,1,0,0:0:0:0:
224,160,69755,1,0,0:0:0:0:
288,160,69880,1,0,0:0:0:0:
288,224,70005,1,0,0:0:0:0:
256,192,70130,1,0,0:0:0:0:
256,192,70255,1,0,0:0:0:0:
256,192,70380,1,0,0:0:0:0:
256,192,70880,5,0,0:0:0:0:
128,96,78880,5,0,0:0:0:0:
128,96,79005,1,0,0:0:0:0:
128,96,79130,1,0,0:0:0:0:
128,288,79380,1,0,0:0:0:0:
384,288,79630,1,0,0:0:0:0:
384,288,79755,1,0,0:0:0:0:
384,288,79880,1,0,0:0:0:0:
384,96,80130,1,0,0:0:0:0:
256,32,80380,5,0,0:0:0:0:
256,96,80505,1,0,0:0:0:0:
256,160,80630,1,0,0:0:0:0:
256,224,80755,1,0,0:0:0:0:
256,288,80880,1,0,0:0:0:0:
384,352,81130,5,0,0:0:0:0:
128,352,81380,1,0,0:0:0:0:
128,192,81630,1,0,0:0:0:0:
128,192,81755,1,0,0:0:0:0:
128,192,81880,1,0,0:0:0:0:
128,32,82130,1,0,0:0:0:0:
256,32,82380,5,0,0:0:0:0:
256,96,82505,1,0,0:0:0:0:
256,160,82630,1,0,0:0:0:0:
256,224,82755,1,0,0:0:0:0:
320,224,82880,1,0,0:0:0:0:
448,224,83130,5,0,0:0:0:0:
448,224,83255,1,0,0:0:0:0:
448,224,83380,1,0,0:0:0:0:
448,64,83630,1,0,0:0:0:0:
448,64,83755,1,0,0:0:0:0:
448,64,83880,1,0,0:0:0:0:
288,64,84130,1,0,0:0:0:0:
288,64,84255,1,0,0:0:0:0:
288,64,84380,1,0,0:0:0:0:
128,64,84630,5,0,0:0:0:0:
128,192,84880,1,0,0:0:0:0:
128,320,85130,1,0,0:0:0:0:
256,320,85380,1,0,0:0:0:0:
384,320,85630,1,0,0:0:0:0:
256,192,85880,1,0,0:0:0:0:
384,192,86130,1,0,0:0:0:0:
512,192,86380,5,0,0:0:0:0:
480,128,86505,1,0,0:0:0:0:
448,64,86630,1,0,0:0:0:0:
384,64,86755,1,0,0:0:0:0:
320,64,86880,1,0,0:0:0:0:
288,128,87005,1,0,0:0:0:0:
256,192,87130,1,0,0:0:0:0:
64,96,87380,5,0,0:0:0:0:
64,256,87630,1,0,0:0:0:0:
64,256,87755,1,0,0:0:0:0:
64,256,87880,1,0,0:0:0:0:
192,96,88130,1,0,0:0:0:0:
192,256,88380,1,0,0:0:0:0:
320,256,88880,5,0,0:0:0:0:
320,256,89130,1,0,0:0:0:0:
320,256,89255,1,0,0:0:0:0:
320,256,89380,1,0,0:0:0:0:
320,96,89630,1,0,0:0:0:0:
320,128,89755,1,0,0:0:0:0:
320,128,89880,1,0,0:0:0:0:
480,96,90130,1,0,0:0:0:0:
448,256,90380,5,0,0:0:0:0:
416,320,90505,1,0,0:0:0:0:
352,320,90630,1,0,0:0:0:0:
384,256,90755,1,0,0:0:0:0:
448,256,90880,1,0,0:0:0:0:
416,320,91005,1,0,0:0:0:0:
352,320,91130,1,0,0:0:0:0:
192,288,91380,5,0,0:0:0:0:
64,224,91630,1,0,0:0:0:0:
192,160,91880,1,0,0:0:0:0:
320,224,92130,1,0,0:0:0:0:
128,64,92380,5,0,0:0:0:0:
64,64,92505,1,0,0:0:0:0:
128,64,92630,1,0,0:0:0:0:
64,64,92755,1,0,0:0:0:0:
128,64,92880,1,0,0:0:0:0:
256,64,93130,5,0,0:0:0:0:
256,64,93255,1,0,0:0:0:0:
256,64,93380,1,0,0:0:0:0:
320,64,93505,1,0,0:0:0:0:
384,64,93630,1,0,0:0:0:0:
480,64,93880,5,0,0:0:0:0:
480,128,94005,1,0,0:0:0:0:
480,192,94130,1,0,0:0:0:0:
416,224,94255,1,0,0:0:0:0:
480,256,94380,1,0,0:0:0:0:
256,320,95380,5,0,0:0:0:0:
256,288,95505,1,0,0:0:0:0:
256,256,95630,1,0,0:0:0:0:
256,192,95880,1,0,0:0:0:0:
256,64,96130,1,0,0:0:0:0:
256,192,96380,1,0,0:0:0:0:
256,224,96505,1,0,0:0:0:0:
256,256,96630,1,0,0:0:0:0:
256,320,96880,1,0,0:0:0:0:
256,256,97130,5,0,0:0:0:0:
256,224,97255,1,0,0:0:0:0:
256,192,97380,1,0,0:0:0:0:
256,96,97630,1,0,0:0:0:0:
256,64,97755,1,0,0:0:0:0:
256,32,97880,1,0,0:0:0:0:
256,320,98130,1,0,0:0:0:0:
256,192,98380,1,0,0:0:0:0:
256,64,98630,1,0,0:0:0:0:
256,320,98880,1,0,0:0:0:0:
96,128,99130,5,0,0:0:0:0:
122,319,99380,1,0,0:0:0:0:
24,199,99630,1,0,0:0:0:0:
232,290,99880,1,0,0:0:0:0:
30,321,100130,1,0,0:0:0:0:
170,164,100380,1,0,0:0:0:0:
136,324,100630,1,0,0:0:0:0:
57,151,100880,1,0,0:0:0:0:
300,306,101130,1,0,0:0:0:0:
32,259,101380,1,0,0:0:0:0:
289,126,101630,1,0,0:0:0:0:
26,157,101880,1,0,0:0:0:0:
161,318,102130,5,0,0:0:0:0:
225,318,102255,1,0,0:0:0:0:
289,318,102380,1,0,0:0:0:0:
289,254,102505,1,0,0:0:0:0:
289,190,102630,1,0,0:0:0:0:
289,126,102755,1,0,0:0:0:0:
289,62,102880,1,0,0:0:0:0:
448,96,103130,5,0,0:0:0:0:
448,96,103255,1,0,0:0:0:0:
448,96,103380,1,0,0:0:0:0:
256,96,103630,1,0,0:0:0:0:
256,96,103755,1,0,0:0:0:0:
256,96,103880,1,0,0:0:0:0:
64,96,104130,1,0,0:0:0:0:
64,96,104255,1,0,0:0:0:0:
64,96,104380,1,0,0:0:0:0:
64,96,104505,1,0,0:0:0:0:
64,96,104630,1,0,0:0:0:0:
64,96,104755,1,0,0:0:0:0:
64,96,104880,1,0,0:0:0:0:
64,320,105130,5,0,0:0:0:0:
256,320,105380,1,0,0:0:0:0:
64,320,105630,1,0,0:0:0:0:
448,320,105880,1,0,0:0:0:0:
256,320,106130,1,0,0:0:0:0:
256,320,106380,1,0,0:0:0:0:
64,192,107130,5,0,0:0:0:0:
96,192,107255,1,0,0:0:0:0:
128,192,107380,1,0,0:0:0:0:
448,192,107630,1,0,0:0:0:0:
416,192,107755,1,0,0:0:0:0:
384,192,107880,1,0,0:0:0:0:
256,192,108130,1,0,0:0:0:0:
256,192,108380,1,0,0:0:0:0:
64,64,108880,5,0,0:0:0:0:
448,64,109130,1,0,0:0:0:0:
64,192,109380,1,0,0:0:0:0:
448,192,109630,1,0,0:0:0:0:
64,320,109880,1,0,0:0:0:0:
448,320,110130,1,0,0:0:0:0:
64,192,110380,1,0,0:0:0:0:
448,64,110630,1,0,0:0:0:0:
256,192,111130,12,0,112630,0:0:0:0:
64,64,112880,5,0,0:0:0:0:
128,64,113005,1,0,0:0:0:0:
128,128,113130,1,0,0:0:0:0:
192,128,113255,1,0,0:0:0:0:
192,192,113380,1,0,0:0:0:0:
192,288,113630,1,0,0:0:0:0:
288,288,113880,5,0,0:0:0:0:
320,224,114005,1,0,0:0:0:0:
352,160,114130,1,0,0:0:0:0:
384,224,114255,1,0,0:0:0:0:
416,288,114380,1,0,0:0:0:0:
480,192,114630,1,0,0:0:0:0:
448,96,114880,5,0,0:0:0:0:
416,48,115005,1,0,0:0:0:0:
384,96,115130,1,0,0:0:0:0:
352,48,115255,1,0,0:0:0:0:
320,96,115380,1,0,0:0:0:0:
288,48,115505,1,0,0:0:0:0:
256,96,115630,1,0,0:0:0:0:
224,48,115755,1,0,0:0:0:0:
192,96,115880,1,0,0:0:0:0:
160,48,116005,1,0,0:0:0:0:
128,96,116130,1,0,0:0:0:0:
32,96,116380,1,0,0:0:0:0:
32,288,116630,1,0,0:0:0:0:
224,288,116880,5,0,0:0:0:0:
288,288,117005,1,0,0:0:0:0:
352,288,117130,1,0,0:0:0:0:
416,288,117255,1,0,0:0:0:0:
384,224,117380,1,0,0:0:0:0:
320,224,117505,1,0,0:0:0:0:
256,224,117630,1,0,0:0:0:0:
192,224,117755,1,0,0:0:0:0:
192,160,117880,1,0,0:0:0:0:
192,224,118005,1,0,0:0:0:0:
192,288,118130,1,0,0:0:0:0:
32,224,118380,1,0,0:0:0:0:
32,64,118630,1,0,0:0:0:0:
160,64,118880,5,0,0:0:0:0:
160,96,119005,1,0,0:0:0:0:
192,64,119130,1,0,0:0:0:0:
192,96,119255,1,0,0:0:0:0:
224,64,119380,1,0,0:0:0:0:
224,96,119505,1,0,0:0:0:0:
256,64,119630,1,0,0:0:0:0:
256,96,119755,1,0,0:0:0:0:
288,64,119880,1,0,0:0:0:0:
416,64,120130,1,0,0:0:0:0:
416,320,120380,1,0,0:0:0:0:
352,320,120505,1,0,0:0:0:0:
288,320,120630,1,0,0:0:0:0:
96,224,120880,5,0,0:0:0:0:
96,288,121005,1,0,0:0:0:0:
96,352,121130,1,0,0:0:0:0:
96,64,121380,1,0,0:0:0:0:
96,64,121630,1,0,0:0:0:0:
288,64,121880,1,0,0:0:0:0:
352,64,122005,1,0,0:0:0:0:
416,64,122130,1,0,0:0:0:0:
352,224,122380,1,0,0:0:0:0:
352,224,122630,1,0,0:0:0:0:
160,224,122880,5,0,0:0:0:0:
192,224,123005,1,0,0:0:0:0:
160,224,123130,1,0,0:0:0:0:
128,224,123255,1,0,0:0:0:0:
160,224,123380,1,0,0:0:0:0:
160,192,123505,1,0,0:0:0:0:
160,224,123630,1,0,0:0:0:0:
160,256,123755,1,0,0:0:0:0:
160,288,123880,1,0,0:0:0:0:
192,288,124005,1,0,0:0:0:0:
224,288,124130,1,0,0:0:0:0:
352,288,124630,5,0,0:0:0:0:
352,288,124755,1,0,0:0:0:0:
352,288,124880,1,0,0:0:0:0:
480,288,125130,1,0,0:0:0:0:
480,160,125380,1,0,0:0:0:0:
480,160,125505,1,0,0:0:0:0:
480,160,125630,1,0,0:0:0:0:
352,160,125880,1,0,0:0:0:0:
352,160,126005,1,0,0:0:0:0:
352,160,126130,1,0,0:0:0:0:
352,160,126255,1,0,0:0:0:0:
352,160,126380,1,0,0:0:0:0:
192,160,126880,5,0,0:0:0:0:
192,160,127130,1,0,0:0:0:0:
64,160,127380,5,0,0:0:0:0:
64,224,127505,1,0,0:0:0:0:
64,288,127630,1,0,0:0:0:0:
64,352,127755,1,0,0:0:0:0:
160,352,127880,1,0,0:0:0:0:
160,288,128005,1,0,0:0:0:0:
160,224,128130,1,0,0:0:0:0:
160,160,128255,1,0,0:0:0:0:
256,160,128380,1,0,0:0:0:0:
256,224,128505,1,0,0:0:0:0:
256,288,128630,1,0,0:0:0:0:
256,352,128755,1,0,0:0:0:0:
352,352,128880,1,0,0:0:0:0:
352,288,129005,1,0,0:0:0:0:
352,224,129130,1,0,0:0:0:0:
352,160,129255,1,0,0:0:0:0:
448,160,129380,1,0,0:0:0:0:
448,224,129505,1,0,0:0:0:0:
448,288,129630,1,0,0:0:0:0:
448,352,129755,1,0,0:0:0:0:
448,288,129880,1,0,0:0:0:0:
448,224,130005,1,0,0:0:0:0:
448,160,130130,1,0,0:0:0:0:
448,96,130255,1,0,0:0:0:0:
448,32,130380,1,0,0:0:0:0:
256,192,130880,5,0,0:0:0:0:
256,192,138880,5,0,0:0:0:0:
256,192,139005,1,0,0:0:0:0:
256,192,139130,1,0,0:0:0:0:
352,192,139380,1,0,0:0:0:0:
352,192,139505,1,0,0:0:0:0:
352,192,139630,1,0,0:0:0:0:
256,192,139880,1,0,0:0:0:0:
256,192,140005,1,0,0:0:0:0:
256,192,140130,1,0,0:0:0:0:
160,192,140380,1,0,0:0:0:0:
160,192,140505,1,0,0:0:0:0:
160,192,140630,1,0,0:0:0:0:
256,288,140880,1,0,0:0:0:0:
256,96,141130,1,0,0:0:0:0:
160,96,141380,5,0,0:0:0:0:
128,96,141505,1,0,0:0:0:0:
96,96,141630,1,0,0:0:0:0:
352,96,141880,1,0,0:0:0:0:
384,96,142005,1,0,0:0:0:0:
416,96,142130,1,0,0:0:0:0:
256,192,142380,1,0,0:0:0:0:
77,315,142880,5,0,0:0:0:0:
283,312,143130,1,0,0:0:0:0:
72,207,143380,1,0,0:0:0:0:
194,335,143630,1,0,0:0:0:0:
258,184,143880,1,0,0:0:0:0:
75,299,144130,1,0,0:0:0:0:
111,141,144380,1,0,0:0:0:0:
284,309,144630,1,0,0:0:0:0:
32,224,144880,5,0,0:0:0:0:
256,224,145130,1,0,0:0:0:0:
480,224,145380,1,0,0:0:0:0:
256,32,145630,1,0,0:0:0:0:
256,320,145880,1,0,0:0:0:0:
256,128,146380,5,0,0:0:0:0:
256,192,146630,1,0,0:0:0:0:
256,256,146880,1,0,0:0:0:0:
96,96,147130,5,0,0:0:0:0:
96,96,147255,1,0,0:0:0:0:
96,96,147380,1,0,0:0:0:0:
96,192,147630,1,0,0:0:0:0:
96,192,147755,1,0,0:0:0:0:
96,192,147880,1,0,0:0:0:0:
96,288,148130,1,0,0:0:0:0:
96,288,148255,1,0,0:0:0:0:
96,288,148380,1,0,0:0:0:0:
256,288,148630,5,0,0:0:0:0:
352,288,148880,1,0,0:0:0:0:
256,192,149130,1,0,0:0:0:0:
352,192,149380,1,0,0:0:0:0:
256,96,149630,1,0,0:0:0:0:
352,96,149880,1,0,0:0:0:0:
448,288,150380,1,0,0:0:0:0:
256,192,151380,5,0,0:0:0:0:
32,192,151880,1,0,0:0:0:0:
480,192,152380,1,0,0:0:0:0:
384,352,152880,5,0,0:0:0:0:
384,256,153130,1,0,0:0:0:0:
384,160,153380,1,0,0:0:0:0:
384,64,153630,1,0,0:0:0:0:
288,64,153880,1,0,0:0:0:0:
192,64,154130,1,0,0:0:0:0:
96,64,154380,1,0,0:0:0:0:
96,192,154630,1,0,0:0:0:0:
96,320,154880,1,0,0:0:0:0:
256,320,155130,1,0,0:0:0:0:
256,192,155380,1,0,0:0:0:0:
256,320,157130,5,0,0:0:0:0:
256,64,157380,1,0,0:0:0:0:
256,192,157630,1,0,0:0:0:0:
64,96,157880,5,0,0:0:0:0:
64,160,158005,1,0,0:0:0:0:
64,224,158130,1,0,0:0:0:0:
192,320,158380,1,0,0:0:0:0:
192,256,158505,1,0,0:0:0:0:
192,192,158630,1,0,0:0:0:0:
192,64,158880,1,0,0:0:0:0:
320,64,159130,1,0,0:0:0:0:
320,192,159380,1,0,0:0:0:0:
320,320,159630,1,0,0:0:0:0:
448,320,159880,5,0,0:0:0:0:
448,256,160005,1,0,0:0:0:0:
448,192,160130,1,0,0:0:0:0:
448,128,160255,1,0,0:0:0:0:
448,64,160380,1,0,0:0:0:0:
448,128,160505,1,0,0:0:0:0:
448,192,160630,1,0,0:0:0:0:
448,256,160755,1,0,0:0:0:0:
448,320,160880,1,0,0:0:0:0:
352,128,161130,1,0,0:0:0:0:
256,256,161380,5,0,0:0:0:0:
128,256,161630,1,0,0:0:0:0:
192,96,161880,5,0,0:0:0:0:
128,96,162005,1,0,0:0:0:0:
64,96,162130,1,0,0:0:0:0:
256,192,162380,1,0,0:0:0:0:
256,32,162630,1,0,0:0:0:0:
320,128,162880,1,0,0:0:0:0:
384,128,163005,1,0,0:0:0:0:
448,128,163130,1,0,0:0:0:0:
448,288,163380,1,0,0:0:0:0:
256,288,163630,1,0,0:0:0:0:
96,288,163880,5,0,0:0:0:0:
64,224,164005,1,0,0:0:0:0:
96,160,164130,1,0,0:0:0:0:
128,224,164255,1,0,0:0:0:0:
160,288,164380,1,0,0:0:0:0:
192,224,164505,1,0,0:0:0:0:
160,160,164630,1,0,0:0:0:0:
224,160,164755,1,0,0:0:0:0:
256,224,164880,1,0,0:0:0:0:
384,224,165130,1,0,0:0:0:0:
384,96,165380,5,0,0:0:0:0:
384,96,165505,1,0,0:0:0:0:
384,96,165630,1,0,0:0:0:0:
256,32,165880,1,0,0:0:0:0:
256,96,166005,1,0,0:0:0:0:
256,160,166130,1,0,0:0:0:0:
128,32,166380,1,0,0:0:0:0:
128,128,166505,1,0,0:0:0:0:
128,224,166630,1,0,0:0:0:0:
256,320,166880,1,0,0:0:0:0:
256,320,167005,1,0,0:0:0:0:
256,320,167130,1,0,0:0:0:0:
384,320,167380,1,0,0:0:0:0:
128,320,167630,1,0,0:0:0:0:
256,224,167880,5,0,0:0:0:0:
192,224,168005,1,0,0:0:0:0:
128,192,168130,1,0,0:0:0:0:
96,128,168255,1,0,0:0:0:0:
128,64,168380,1,0,0:0:0:0:
160,128,168505,1,0,0:0:0:0:
224,160,168630,1,0,0:0:0:0:
288,160,168755,1,0,0:0:0:0:
352,160,168880,1,0,0:0:0:0:
480,160,169130,1,0,0:0:0:0:
416,256,169380,5,0,0:0:0:0:
288,256,169630,1,0,0:0:0:0:
288,256,169755,1,0,0:0:0:0:
288,256,169880,1,0,0:0:0:0:
160,256,170130,1,0,0:0:0:0:
64,96,170380,1,0,0:0:0:0:
64,96,170505,1,0,0:0:0:0:
64,96,170630,1,0,0:0:0:0:
64,96,170755,1,0,0:0:0:0:
64,96,170880,1,0,0:0:0:0:
64,96,171005,1,0,0:0:0:0:
64,96,171130,1,0,0:0:0:0:
64,96,171255,1,0,0:0:0:0:
64,96,171380,1,0,0:0:0:0:
256,96,171880,5,0,0:0:0:0:
320,96,172005,1,0,0:0:0:0:
384,96,172130,1,0,0:0:0:0:
320,96,172255,1,0,0:0:0:0:
256,96,172380,1,0,0:0:0:0:
320,96,172505,1,0,0:0:0:0:
384,96,172630,1,0,0:0:0:0:
480,96,172880,1,0,0:0:0:0:
480,192,173130,1,0,0:0:0:0:
480,320,173380,1,0,0:0:0:0:
352,320,173630,5,0,0:0:0:0:
192,320,173880,1,0,0:0:0:0:
128,288,174005,1,0,0:0:0:0:
160,224,174130,1,0,0:0:0:0:
256,128,174380,1,0,0:0:0:0:
256,64,174505,1,0,0:0:0:0:
192,32,174630,1,0,0:0:0:0:
32,96,174880,1,0,0:0:0:0:
32,288,175130,1,0,0:0:0:0:
224,288,175380,1,0,0:0:0:0:
384,288,175630,1,0,0:0:0:0:
480,128,175880,5,0,0:0:0:0:
448,96,176005,1,0,0:0:0:0:
416,96,176130,1,0,0:0:0:0:
384,128,176255,1,0,0:0:0:0:
352,192,176380,1,0,0:0:0:0:
352,256,176505,1,0,0:0:0:0:
320,320,176630,1,0,0:0:0:0:
224,352,176755,1,0,0:0:0:0:
160,288,176880,1,0,0:0:0:0:
160,192,177005,1,0,0:0:0:0:
192,160,177130,1,0,0:0:0:0:
224,160,177255,1,0,0:0:0:0:
256,128,177380,1,0,0:0:0:0:
160,32,177630,5,0,0:0:0:0:
64,128,177880,1,0,0:0:0:0:
32,192,178005,1,0,0:0:0:0:
32,256,178130,1,0,0:0:0:0:
64,320,178255,1,0,0:0:0:0:
128,352,178380,1,0,0:0:0:0:
192,320,178505,1,0,0:0:0:0:
224,256,178630,1,0,0:0:0:0:
224,192,178755,1,0,0:0:0:0:
192,128,178880,1,0,0:0:0:0:
128,256,179130,1,0,0:0:0:0:
320,256,179380,1,0,0:0:0:0:
480,256,179630,1,0,0:0:0:0:
480,64,179880,5,0,0:0:0:0:
416,64,180005,1,0,0:0:0:0:
352,64,180130,1,0,0:0:0:0:
288,64,180255,1,0,0:0:0:0:
224,64,180380,1,0,0:0:0:0:
160,64,180505,1,0,0:0:0:0:
96,64,180630,1,0,0:0:0:0:
32,64,180755,1,0,0:0:0:0:
32,128,180880,1,0,0:0:0:0:
32,192,181005,1,0,0:0:0:0:
32,256,181130,1,0,0:0:0:0:
32,320,181255,1,0,0:0:0:0:
96,320,181380,1,0,0:0:0:0:
256,320,181630,5,0,0:0:0:0:
256,320,181755,1,0,0:0:0:0:
256,320,181880,1,0,0:0:0:0:
416,320,182130,1,0,0:0:0:0:
416,160,182380,1,0,0:0:0:0:
256,160,182630,1,0,0:0:0:0:
256,160,182755,1,0,0:0:0:0:
256,160,182880,1,0,0:0:0:0:
96,160,183130,1,0,0:0:0:0:
96,160,183380,1,0,0:0:0:0:
256,160,183630,1,0,0:0:0:0:
256,256,183880,5,0,0:0:0:0:
320,256,184005,1,0,0:0:0:0:
384,256,184130,1,0,0:0:0:0:
320,320,184255,1,0,0:0:0:0:
256,320,184380,1,0,0:0:0:0:
192,320,184505,1,0,0:0:0:0:
160,256,184630,1,0,0:0:0:0:
96,256,184755,1,0,0:0:0:0:
32,256,184880,1,0,0:0:0:0:
32,96,185130,1,0,0:0:0:0:
160,96,185380,1,0,0:0:0:0:
288,96,185630,5,0,0:0:0:0:
288,96,185755,1,0,0:0:0:0:
288,96,185880,1,0,0:0:0:0:
416,96,186130,1,0,0:0:0:0:
352,192,186380,1,0,0:0:0:0:
256,192,186505,1,0,0:0:0:0:
160,192,186630,1,0,0:0:0:0:
64,192,186755,1,0,0:0:0:0:
64,288,186880,1,0,0:0:0:0:
256,288,187130,1,0,0:0:0:0:
256,288,187380,1,0,0:0:0:0:
256,192,187880,12,0,188005,0:0:0:0:
256,192,188130,12,0,188255,0:0:0:0:
256,192,188380,12,0,188505,0:0:0:0:
256,192,188630,12,0,188755,0:0:0:0:
256,192,188880,12,0,189005,0:0:0:0:
256,192,189130,12,0,189255,0:0:0:0:
256,192,189380,12,0,189505,0:0:0:0:
256,192,189630,12,0,189755,0:0:0:0:
256,64,190380,5,0,0:0:0:0:
256,192,190630,1,0,0:0:0:0:
256,320,190880,1,0,0:0:0:0:
256,192,191130,1,0,0:0:0:0:
256,192,191380,12,0,192880,0:0:0:0:
