osu file format v14

[General]
AudioFilename: audio.mp3
AudioLeadIn: 0
PreviewTime: 3
Countdown: 0
SampleSet: Soft
StackLeniency: 0.4
Mode: 0
LetterboxInBreaks: 0
WidescreenStoryboard: 1

[Editor]
DistanceSpacing: 1
BeatDivisor: 4
GridSize: 4
TimelineZoom: 1.6

[Metadata]
Title:Today is Gonna be a Great Day (TV Size)
TitleUnicode:Today is Gonna be a Great Day (TV Size)
Artist:Bowling For Soup
ArtistUnicode:Bowling For Soup
Creator:Smoke
Version:browiec's Something That Doesn't Exist
Source:Phineas and Ferb
Tags:english rock cartoon disney channel nymphe kuki1537 browiec Kiyoshi Guarden perry the platypus
BeatmapID:2530810
BeatmapSetID:1209835

[Difficulty]
HPDrainRate:5.2
CircleSize:3.8
OverallDifficulty:9.2
ApproachRate:9.3
SliderMultiplier:1.8
SliderTickRate:1

[Events]
//Background and Video events
0,0,"phineas and ferb.jpg",0,0
Video,-430,"vid.mp4"
//Break Periods
2,50483,53810
//Storyboard Layer 0 (Background)
//Storyboard Layer 1 (Fail)
//Storyboard Layer 2 (Pass)
//Storyboard Layer 3 (Foreground)
//Storyboard Layer 4 (Overlay)
//Storyboard Sound Samples

[TimingPoints]
9,382.165605095541,4,2,1,70,1,0
391,357.142857142857,4,2,1,70,1,0
926,372.670807453416,4,2,1,70,1,0
1298,368.098159509202,4,2,1,70,1,0
1850,335.195530726257,4,2,1,70,1,0
2185,372.670807453416,4,2,1,70,1,0
2744,357.142857142857,4,2,1,70,1,0
3279,333.333333333333,4,2,1,70,1,0
3612,344.827586206897,4,2,1,70,1,0
4646,344.827586206897,4,2,1,70,1,0
4990,372.670807453416,4,2,1,70,1,0
5176,322.58064516129,4,2,1,70,1,0
5659,350.877192982456,4,2,1,70,1,0
6009,382.165605095541,4,2,1,70,1,0
6582,370.37037037037,4,2,1,70,1,0
6952,340.909090909091,4,2,1,70,1,0
7463,355.029585798817,4,2,1,70,1,0
7995,372.670807453416,4,2,1,70,1,0
8367,324.324324324324,4,2,1,70,1,0
8691,357.142857142857,4,2,1,70,1,0
8869,342.857142857143,4,2,1,70,1,0
10069,480,4,2,1,70,1,0
10309,677.966101694915,4,2,1,70,1,0
12003,338.983050847458,4,2,1,70,1,0
12680,419.58041958042,4,2,1,70,1,0
12889,314.13612565445,4,2,1,70,1,0
12889,-117.647058823529,4,2,1,70,0,0
13046,331.491712707182,4,2,1,65,1,0
13046,-117.647058823529,4,2,1,65,0,0
13543,297.029702970297,4,2,1,70,1,0
13543,-117.647058823529,4,2,1,65,0,0
13691,340.909090909091,4,2,1,70,1,0
13691,-117.647058823529,4,2,1,65,0,0
14372,331.491712707182,4,2,1,70,1,0
14372,-117.647058823529,4,2,1,65,0,0
21001,335.195530726257,4,2,1,65,1,0
21001,-117.647058823529,4,2,1,65,0,0
22341,327.868852459016,4,2,1,65,1,0
22341,-117.647058823529,4,2,1,65,0,0
22668,-100,4,2,1,80,0,0
22914,-100,4,2,1,5,0,0
22996,-100,4,2,1,80,0,0
23242,-100,4,2,1,5,0,0
23324,-100,4,2,1,80,0,0
23570,-100,4,2,1,5,0,0
23652,340.909090909091,4,2,1,75,1,0
23652,-95.2380952380952,4,2,1,75,0,0
25015,333.333333333333,4,2,1,75,1,0
25015,-95.2380952380952,4,2,1,75,0,0
26015,350.877192982456,4,2,1,75,1,0
26015,-95.2380952380952,4,2,1,75,0,0
26365,329.67032967033,4,2,1,75,1,0
26365,-95.2380952380952,4,2,1,75,0,0
27354,333.333333333333,4,2,1,70,1,0
27354,-95.2380952380952,4,2,1,75,0,0
27687,332.409972299169,4,2,1,70,1,0
27687,-100,4,2,1,70,0,0
29016,333.333333333333,4,2,1,75,1,0
29016,-100,4,2,1,75,0,0
33682,315.789473684211,4,2,1,75,1,0
33682,-111.111111111111,4,2,1,75,0,0
33997,337.078651685393,4,2,1,75,1,0
33997,-111.111111111111,4,2,1,75,0,0
34334,357.142857142857,4,2,1,65,1,0
34334,-117.647058823529,4,2,1,65,0,0
34691,324.324324324324,4,2,1,65,1,0
34691,-117.647058823529,4,2,1,65,0,0
35015,336.511497476164,4,2,1,70,1,0
35015,-117.647058823529,4,2,1,65,0,0
35688,342.857142857143,4,2,1,65,1,0
35688,-117.647058823529,4,2,1,65,0,0
36373,326.086956521739,4,2,1,65,1,0
36373,-117.647058823529,4,2,1,65,0,0
37025,333.333333333333,4,2,1,65,1,0
37025,-117.647058823529,4,2,1,65,0,0
39025,329.67032967033,4,2,1,65,1,0
39025,-117.647058823529,4,2,1,65,0,0
39354,-117.647058823529,4,2,1,70,0,0
39601,-117.647058823529,4,2,1,5,0,0
39684,333.333333333333,4,2,1,80,1,0
39684,-95.2380952380952,4,2,1,80,0,0
42350,340.909090909091,4,2,1,80,1,0
42350,-95.2380952380952,4,2,1,80,0,0
43031,326.086956521739,4,2,1,80,1,0
43031,-95.2380952380952,4,2,1,80,0,0
43683,331.491712707182,4,2,1,80,1,0
43683,-95.2380952380952,4,2,1,80,0,0
44014,319.148936170213,4,2,1,80,1,0
44014,-95.2380952380952,4,2,1,80,0,0
44333,342.857142857143,4,2,1,80,1,0
44333,-95.2380952380952,4,2,1,80,0,0
45018,333.333333333333,4,2,1,85,1,0
45018,-95.2380952380952,4,2,1,85,0,0
45684,338.983050847458,4,2,1,85,1,0
45684,-95.2380952380952,4,2,1,85,0,0
46361,340.909090909091,4,2,1,85,1,0
46361,-95.2380952380952,4,2,1,85,0,0
47042,333.333333333333,4,2,1,70,1,0
47042,-95.2380952380952,4,2,1,85,0,0
47708,327.868852459016,4,2,1,70,1,0
47708,-95.2380952380952,4,2,1,85,0,0
48691,336.134453781513,4,2,1,70,1,0
48691,-95.2380952380952,4,2,1,85,0,0
49027,326.086956521739,4,2,1,85,1,0
49027,-95.2380952380952,4,2,1,85,0,0
49354,-95.2380952380952,4,2,1,85,0,0
49679,402.684563758389,4,2,1,70,1,0
49679,-95.2380952380952,4,2,1,70,0,0
50283,-125,4,2,1,5,0,0
54364,400,4,2,1,70,1,0
54364,-95.2380952380952,4,2,1,70,0,0
54964,-125,4,2,1,5,0,0

[Colours]
Combo1 : 57,154,213
Combo2 : 39,240,11
Combo3 : 58,215,248
Combo4 : 46,190,20

[HitObjects]
368,32,12889,6,0,L|360:116,1,76.5000014591217,14|0,0:0|3:2,0:0:0:0:
292,276,13211,1,2,0:0:0:0:
216,120,13377,1,2,3:2:0:0:
172,296,13543,1,2,0:0:0:0:
312,192,13691,2,0,P|352:184|396:196,1,76.5000014591217,10|0,0:0|0:0,0:0:0:0:
332,368,14031,1,2,3:2:0:0:
232,212,14202,1,2,0:0:0:0:
396,308,14372,5,2,3:2:0:0:
360,100,14537,1,2,0:0:0:0:
268,292,14703,1,2,3:2:0:0:
456,216,14869,2,0,L|464:140,1,76.5000014591217,2|8,0:0|0:0,0:0:0:0:
264,40,15200,2,0,L|272:116,1,76.5000014591217,2|2,0:0|3:2,0:0:0:0:
256,316,15532,1,10,0:0:0:0:
160,140,15697,5,2,3:2:0:0:
88,336,15863,1,2,0:0:0:0:
232,192,16029,1,2,3:2:0:0:
176,372,16195,1,2,0:0:0:0:
80,184,16360,1,10,0:0:0:0:
256,316,16526,2,0,P|300:324|348:312,1,76.5000014591217,2|0,0:0|3:2,0:0:0:0:
432,152,16858,6,0,L|424:252,1,76.5000014591217,2|0,0:0|3:2,0:0:0:0:
240,112,17189,1,10,0:0:0:0:
240,112,17272,1,8,0:0:0:0:
240,112,17355,1,0,3:2:0:0:
432,60,17521,2,0,L|480:68,2,38.2500007295609,8|8|2,3:3|3:3|3:2,0:0:0:0:
312,208,17852,1,10,3:3:0:0:
312,208,17935,1,8,3:3:0:0:
312,208,18018,1,2,3:2:0:0:
248,8,18184,1,10,0:0:0:0:
432,152,18349,5,6,0:0:0:0:
212,208,18515,1,2,0:0:0:0:
340,48,18681,1,2,3:2:0:0:
388,256,18847,2,0,L|380:336,1,76.5000014591217,2|8,0:0|0:0,0:0:0:0:
200,188,19178,2,0,L|192:108,1,76.5000014591217,2|0,0:0|3:2,0:0:0:0:
116,328,19510,1,2,0:0:0:0:
296,228,19675,5,2,3:2:0:0:
88,160,19841,1,2,0:0:0:0:
212,340,20007,1,2,3:2:0:0:
276,136,20173,2,0,B|364:116|344:180|432:156,1,153.000002918243,2|2,0:0|0:0,0:0:0:0:
302,304,20670,2,0,L|294:216,1,76.5000014591217,0|2,3:2|0:0,0:0:0:0:
172,0,21001,5,2,3:2:0:0:
132,204,21168,1,2,0:0:0:0:
268,52,21336,1,2,3:2:0:0:
48,112,21503,2,0,L|128:120,1,76.5000014591217,2|8,0:0|0:0,0:0:0:0:
344,176,21838,1,2,0:0:0:0:
160,280,22006,1,2,3:2:0:0:
264,80,22174,1,8,0:0:0:0:
264,80,22257,1,8,0:0:0:0:
264,80,22341,2,0,L|256:168,1,76.5000014591217,2|0,3:2|0:0,0:0:0:0:
400,312,22668,6,0,B|356:340|356:340|268:308,1,135,4|0,3:1|0:0,0:0:0:0:
208,360,22996,6,0,B|156:368|156:368|124:352|124:352|44:360,1,135,4|0,3:1|0:0,0:0:0:0:
16,296,23324,6,0,L|32:160,1,135,4|0,3:1|0:0,0:0:0:0:
72,88,23652,6,0,P|120:76|168:96,1,94.499997116089,4|0,3:1|0:0,0:0:0:0:
264,296,23992,1,10,0:0:0:0:
332,72,24163,1,2,0:0:0:0:
180,256,24333,1,2,3:2:0:0:
148,0,24504,1,2,3:2:0:0:
360,168,24674,2,0,L|352:264,1,94.499997116089,10|0,0:0|0:0,0:0:0:0:
92,208,25015,5,0,3:2:0:0:
316,88,25181,1,2,3:2:0:0:
152,292,25348,1,10,0:0:0:0:
216,32,25515,1,2,0:0:0:0:
260,320,25681,1,2,3:2:0:0:
112,100,25848,1,2,3:2:0:0:
360,256,26015,2,0,P|416:264|456:252,1,94.499997116089,10|2,0:0|0:0,0:0:0:0:
352,20,26365,5,2,3:2:0:0:
224,236,26529,1,2,3:2:0:0:
460,160,26694,1,10,0:0:0:0:
216,32,26859,2,0,L|229:134,1,94.499997116089,2|0,0:0|3:2,0:0:0:0:
272,332,27189,1,2,3:2:0:0:
376,108,27354,2,0,L|364:209,1,94.499997116089,10|0,0:0|0:0,0:0:0:0:
184,352,27687,6,0,P|116:372|196:260,1,360,2|0,3:2|0:0,0:0:0:0:
188,249,29016,5,4,3:2:0:0:
352,96,29182,1,2,0:0:0:0:
328,320,29349,1,10,0:0:0:0:
172,104,29516,1,2,0:0:0:0:
420,232,29682,1,2,3:2:0:0:
152,332,29849,1,2,3:2:0:0:
368,112,30016,2,0,P|424:100|472:116,1,90,10|0,0:0|0:0,0:0:0:0:
344,340,30349,5,0,3:2:0:0:
248,80,30516,1,2,3:2:0:0:
232,372,30682,1,10,0:0:0:0:
120,104,30849,1,2,0:0:0:0:
328,320,31015,1,2,3:2:0:0:
324,16,31182,1,2,3:2:0:0:
96,224,31349,2,0,P|40:236|-8:220,1,90,10|2,0:0|0:0,0:0:0:0:
208,0,31682,5,2,3:2:0:0:
312,300,31849,1,2,3:2:0:0:
48,144,32015,1,10,0:0:0:0:
388,72,32182,2,0,L|376:176,1,90,2|0,0:0|3:2,0:0:0:0:
312,384,32515,1,2,3:2:0:0:
192,96,32682,2,0,L|204:200,1,90,10|0,0:0|0:0,0:0:0:0:
424,376,33015,6,0,L|428:312,2,60,10|8|8,3:3|3:3|3:3,0:0:0:0:
320,232,33349,6,0,L|324:296,2,60,10|8|8,3:3|3:3|3:3,0:0:0:0:
432,216,33682,6,0,L|436:154,2,53.9999983520508,10|8|8,3:3|3:3|3:3,0:0:0:0:
328,72,33997,6,0,L|333:135,2,53.9999983520508,10|8|8,3:3|3:3|3:3,0:0:0:0:
200,4,34334,6,0,B|192:64|192:64|212:100|212:100|204:160,1,153.000002918243,4|2,3:1|3:2,0:0:0:0:
164,312,34853,1,2,0:0:0:0:
92,144,35015,2,0,L|100:232,1,76.5000014591217,10|0,0:0|0:0,0:0:0:0:
240,360,35351,1,2,3:2:0:0:
192,184,35519,1,10,0:0:0:0:
88,352,35688,5,2,3:2:0:0:
288,272,35859,1,2,0:0:0:0:
92,144,36030,1,2,3:2:0:0:
240,360,36202,2,0,P|280:368|320:360,1,76.5000014591217,2|8,0:0|0:0,0:0:0:0:
372,168,36536,1,2,0:0:0:0:
180,260,36699,1,2,3:2:0:0:
392,328,36862,1,2,0:0:0:0:
276,128,37025,6,0,L|284:208,1,76.5000014591217,2|0,3:2|0:0,0:0:0:0:
152,344,37358,2,0,L|160:264,1,76.5000014591217,2|0,3:2|0:0,0:0:0:0:
196,64,37691,1,10,0:0:0:0:
296,224,37858,2,0,P|340:236|384:224,1,76.5000014591217,2|0,0:0|3:2,0:0:0:0:
400,60,38191,6,0,B|360:44|360:44|316:84|340:152,1,153.000002918243,10|2,0:0|0:0,0:0:0:0:
460,288,38691,2,0,L|468:204,1,76.5000014591217,2|2,3:2|0:0,0:0:0:0:
272,248,39025,1,10,0:0:0:0:
272,248,39107,1,8,0:0:0:0:
272,248,39189,2,0,L|324:252,1,38.2500007295609,10|8,0:0|0:0,0:0:0:0:
388,336,39354,2,0,B|328:324|344:368|264:356,1,114.750002188683,0|0,3:2|0:0,0:0:0:0:
204,320,39684,5,4,3:2:0:0:
136,84,39850,1,2,0:0:0:0:
288,272,40017,1,10,0:0:0:0:
328,20,40184,1,2,0:0:0:0:
136,216,40350,2,0,L|40:228,1,94.499997116089,2|0,3:2|3:2,0:0:0:0:
152,4,40684,2,0,L|248:16,1,94.499997116089,10|0,0:0|0:0,0:0:0:0:
368,280,41017,5,2,3:2:0:0:
136,84,41184,1,2,3:2:0:0:
252,348,41350,1,10,0:0:0:0:
364,84,41517,1,2,0:0:0:0:
116,240,41684,2,0,B|104:288|104:288|120:332,1,94.499997116089,2|0,3:2|3:2,0:0:0:0:
388,264,42017,2,0,B|400:216|400:216|384:172,1,94.499997116089,10|0,0:0|0:0,0:0:0:0:
100,92,42350,5,2,3:2:0:0:
320,8,42520,2,0,B|392:0|392:0|436:24|436:24|512:16,1,188.999994232178,2|0,3:2|0:0,0:0:0:0:
408,288,43031,1,2,3:2:0:0:
264,72,43194,1,2,3:2:0:0:
512,192,43357,2,0,L|504:300,1,94.499997116089,8|0,0:0|3:2,0:0:0:0:
280,368,43683,5,10,0:0:0:0:
280,368,43765,1,8,0:0:0:0:
280,368,43848,2,0,L|272:316,1,47.2499985580445,8|8,0:0|0:0,0:0:0:0:
384,108,44014,2,0,L|376:160,1,47.2499985580445,2|0,3:2|3:2,0:0:0:0:
440,380,44173,1,0,3:2:0:0:
268,176,44333,2,0,P|224:164|172:180,1,94.499997116089,8|8,3:3|3:3,0:0:0:0:
60,368,44675,2,0,P|104:380|156:364,1,94.499997116089,8|0,0:0|3:2,0:0:0:0:
276,68,45018,5,8,0:0:0:0:
344,344,45184,1,2,3:2:0:0:
420,40,45351,5,10,0:0:0:0:
272,296,45518,1,2,3:2:0:0:
192,4,45684,5,10,0:0:0:0:
392,268,45853,1,0,3:2:0:0:
84,172,46022,5,10,0:0:0:0:
404,56,46192,1,0,3:2:0:0:
208,364,46361,5,10,0:0:0:0:
96,44,46531,1,2,3:2:0:0:
284,320,46701,5,10,0:0:0:0:
340,16,46872,1,2,3:2:0:0:
128,340,47042,5,10,0:0:0:0:
184,36,47208,1,0,3:2:0:0:
360,364,47375,6,0,P|412:372|457:356,1,94.499997116089,10|0,0:0|3:2,0:0:0:0:
352,4,47708,5,10,0:0:0:0:
104,248,47871,1,2,3:2:0:0:
476,192,48035,5,8,0:0:0:0:
168,20,48199,1,0,3:2:0:0:
272,352,48363,5,10,0:0:0:0:
432,68,48527,1,2,3:2:0:0:
96,264,48691,5,8,0:0:0:0:
464,176,48859,1,0,3:2:0:0:
144,20,49027,5,10,3:2:0:0:
144,20,49108,1,8,0:0:0:0:
144,20,49190,2,0,L|196:24,1,47.2499985580445,8|8,0:0|0:0,0:0:0:0:
352,152,49353,2,0,L|300:156,3,47.2499985580445,8|8|8|8,3:2|0:0|0:0|0:0,0:0:0:0:
168,292,49679,6,0,B|-12:276|-12:276|48:288|64:344,1,283.499991348267,12|0,3:2|0:0,0:0:0:0:
128,200,54364,6,0,B|188:164|244:204|244:204|264:180|264:180|324:220|384:180,1,283.499991348267,4|0,3:1|0:0,0:0:0:0:
