osu file format v14

[General]
AudioFilename: audio.mp3
AudioLeadIn: 0
PreviewTime: 3
Countdown: 0
SampleSet: Soft
StackLeniency: 0.4
Mode: 0
LetterboxInBreaks: 0
WidescreenStoryboard: 0

[Editor]
DistanceSpacing: 1
BeatDivisor: 4
GridSize: 32
TimelineZoom: 1.6

[Metadata]
Title:Today is Gonna be a Great Day (TV Size)
TitleUnicode:Today is Gonna be a Great Day (TV Size)
Artist:Bowling For Soup
ArtistUnicode:Bowling For Soup
Creator:Smoke
Version:Turtle Unicorn
Source:Phineas and Ferb
Tags:english rock cartoon disney channel nymphe kuki1537 browiec Kiyoshi Guarden perry the platypus
BeatmapID:2518847
BeatmapSetID:1209835

[Difficulty]
HPDrainRate:5.6
CircleSize:4
OverallDifficulty:9.3
ApproachRate:9.3
SliderMultiplier:1.8
SliderTickRate:1

[Events]
//Background and Video events
0,0,"phineas and ferb.jpg",0,0
Video,-430,"vid.mp4"
//Break Periods
2,50483,53810
//Storyboard Layer 0 (Background)
//Storyboard Layer 1 (Fail)
//Storyboard Layer 2 (Pass)
//Storyboard Layer 3 (Foreground)
//Storyboard Layer 4 (Overlay)
//Storyboard Sound Samples

[TimingPoints]
9,382.165605095541,4,2,1,70,1,0
391,357.142857142857,4,2,1,70,1,0
926,372.670807453416,4,2,1,70,1,0
1298,368.098159509202,4,2,1,70,1,0
1850,335.195530726257,4,2,1,70,1,0
2185,372.670807453416,4,2,1,70,1,0
2744,357.142857142857,4,2,1,70,1,0
3279,333.333333333333,4,2,1,70,1,0
3612,344.827586206897,4,2,1,70,1,0
4646,344.827586206897,4,2,1,70,1,0
4990,372.670807453416,4,2,1,70,1,0
5176,322.58064516129,4,2,1,70,1,0
5659,350.877192982456,4,2,1,70,1,0
6009,382.165605095541,4,2,1,70,1,0
6582,370.37037037037,4,2,1,70,1,0
6952,340.909090909091,4,2,1,70,1,0
7463,355.029585798817,4,2,1,70,1,0
7995,372.670807453416,4,2,1,70,1,0
8367,324.324324324324,4,2,1,70,1,0
8691,357.142857142857,4,2,1,70,1,0
8869,342.857142857143,4,2,1,70,1,0
10069,480,4,2,1,70,1,0
10309,677.966101694915,4,2,1,70,1,0
12003,338.983050847458,4,2,1,70,1,0
12680,419.58041958042,4,2,1,70,1,0
12889,314.13612565445,4,2,1,70,1,0
12889,-111.111111111111,4,2,1,70,0,0
13046,331.491712707182,4,2,1,65,1,0
13046,-111.111111111111,4,2,1,65,0,0
13543,297.029702970297,4,2,1,70,1,0
13543,-111.111111111111,4,2,1,65,0,0
13691,340.909090909091,4,2,1,70,1,0
13691,-111.111111111111,4,2,1,65,0,0
14372,331.491712707182,4,2,1,70,1,0
14372,-111.111111111111,4,2,1,65,0,0
21001,335.195530726257,4,2,1,65,1,0
21001,-111.111111111111,4,2,1,65,0,0
22341,327.868852459016,4,2,1,65,1,0
22341,-111.111111111111,4,2,1,65,0,0
22668,-90.9090909090909,4,2,1,80,0,0
22914,-90.9090909090909,4,2,1,5,0,0
22996,-90.9090909090909,4,2,1,80,0,0
23242,-90.9090909090909,4,2,1,5,0,0
23324,-90.9090909090909,4,2,1,80,0,0
23570,-90.9090909090909,4,2,1,5,0,0
23652,340.909090909091,4,2,1,75,1,0
23652,-100,4,2,1,75,0,0
25015,333.333333333333,4,2,1,75,1,0
25015,-100,4,2,1,75,0,0
26015,350.877192982456,4,2,1,75,1,0
26015,-100,4,2,1,75,0,0
26365,329.67032967033,4,2,1,75,1,0
26365,-100,4,2,1,75,0,0
27354,333.333333333333,4,2,1,70,1,0
27354,-100,4,2,1,75,0,0
27687,332.409972299169,4,2,1,70,1,0
27687,-142.857142857143,4,2,1,70,0,0
29016,333.333333333333,4,2,1,75,1,0
29016,-90.9090909090909,4,2,1,75,0,0
33015,-111.111111111111,4,2,1,75,0,0
33682,315.789473684211,4,2,1,75,1,0
33682,-111.111111111111,4,2,1,75,0,0
33997,337.078651685393,4,2,1,75,1,0
33997,-111.111111111111,4,2,1,75,0,0
34334,357.142857142857,4,2,1,65,1,0
34334,-111.111111111111,4,2,1,65,0,0
34691,324.324324324324,4,2,1,65,1,0
34691,-111.111111111111,4,2,1,65,0,0
35015,336.511497476164,4,2,1,70,1,0
35015,-111.111111111111,4,2,1,65,0,0
35688,342.857142857143,4,2,1,65,1,0
35688,-111.111111111111,4,2,1,65,0,0
36373,326.086956521739,4,2,1,65,1,0
36373,-111.111111111111,4,2,1,65,0,0
37025,333.333333333333,4,2,1,65,1,0
37025,-111.111111111111,4,2,1,65,0,0
39025,329.67032967033,4,2,1,65,1,0
39025,-111.111111111111,4,2,1,65,0,0
39354,-142.857142857142,4,2,1,70,0,0
39601,-111.111111111111,4,2,1,5,0,0
39684,333.333333333333,4,2,1,80,1,0
39684,-90.9090909090909,4,2,1,80,0,0
42350,340.909090909091,4,2,1,80,1,0
42350,-90.9090909090909,4,2,1,80,0,0
43031,326.086956521739,4,2,1,80,1,0
43031,-90.9090909090909,4,2,1,80,0,0
43683,331.491712707182,4,2,1,80,1,0
43683,-90.9090909090909,4,2,1,80,0,0
44014,319.148936170213,4,2,1,80,1,0
44014,-90.9090909090909,4,2,1,80,0,0
44333,342.857142857143,4,2,1,80,1,0
44333,-90.9090909090909,4,2,1,80,0,0
45018,333.333333333333,4,2,1,85,1,0
45018,-83.3333333333333,4,2,1,85,0,0
45684,338.983050847458,4,2,1,85,1,0
45684,-83.3333333333333,4,2,1,85,0,0
46361,340.909090909091,4,2,1,85,1,0
46361,-83.3333333333333,4,2,1,85,0,0
47042,333.333333333333,4,2,1,70,1,0
47042,-83.3333333333333,4,2,1,85,0,0
47708,327.868852459016,4,2,1,70,1,0
47708,-83.3333333333333,4,2,1,85,0,0
48691,336.134453781513,4,2,1,70,1,0
48691,-83.3333333333333,4,2,1,85,0,0
49027,326.086956521739,4,2,1,85,1,0
49027,-83.3333333333333,4,2,1,85,0,0
49354,-83.3333333333333,4,2,1,85,0,0
49679,402.684563758389,4,2,1,70,1,0
49679,-125,4,2,1,70,0,0
50283,-125,4,2,1,5,0,0
54364,400,4,2,1,70,1,0
54364,-125,4,2,1,70,0,0
54964,-125,4,2,1,5,0,0

[Colours]
Combo1 : 57,154,213
Combo2 : 39,240,11
Combo3 : 58,215,248
Combo4 : 46,190,20

[HitObjects]
70,94,12889,6,0,L|90:179,1,80.9999975280763,14|0,0:0|3:2,0:0:0:0:
123,357,13211,1,2,0:0:0:0:
192,153,13377,1,2,3:2:0:0:
31,295,13543,1,2,0:0:0:0:
238,260,13691,2,0,L|317:278,1,80.9999975280763,10|0,0:0|0:0,0:0:0:0:
192,153,14031,1,2,3:2:0:0:
254,367,14202,1,2,0:0:0:0:
328,134,14372,5,2,3:2:0:0:
254,353,14537,1,2,0:0:0:0:
180,127,14703,1,2,3:2:0:0:
341,307,14869,2,0,P|359:268|351:215,1,80.9999975280763,2|8,0:0|0:0,0:0:0:0:
180,127,15200,2,0,P|162:163|163:203,1,80.9999975280763,2|2,0:0|3:2,0:0:0:0:
254,353,15532,1,10,0:0:0:0:
310,113,15697,5,2,3:2:0:0:
162,305,15863,1,2,0:0:0:0:
220,46,16029,1,2,3:2:0:0:
326,281,16195,1,2,0:0:0:0:
84,163,16360,1,10,0:0:0:0:
389,128,16526,2,0,L|296:110,1,80.9999975280763,2|0,0:0|3:2,0:0:0:0:
24,224,16858,6,0,P|3:188|11:128,1,80.9999975280763,2|0,0:0|3:2,0:0:0:0:
197,42,17189,2,0,L|185:106,1,40.4999987640381,10|8,0:0|0:0,0:0:0:0:
150,298,17355,1,0,3:2:0:0:
75,56,17521,1,8,3:3:0:0:
75,56,17604,1,8,3:3:0:0:
75,56,17686,1,2,3:2:0:0:
269,206,17852,2,0,L|205:194,1,40.4999987640381,10|8,3:3|3:3,0:0:0:0:
2,149,18018,1,2,3:2:0:0:
276,66,18184,1,10,0:0:0:0:
63,287,18349,5,6,0:0:0:0:
172,37,18515,1,2,0:0:0:0:
58,301,18681,1,2,3:2:0:0:
0,34,18847,2,0,L|93:52,1,80.9999975280763,2|8,0:0|0:0,0:0:0:0:
229,198,19178,2,0,L|136:216,1,80.9999975280763,2|0,0:0|3:2,0:0:0:0:
248,3,19510,1,2,0:0:0:0:
326,244,19675,5,2,3:2:0:0:
167,75,19841,1,2,0:0:0:0:
400,131,20007,1,2,3:2:0:0:
152,73,20173,2,0,B|108:125|108:125|136:226,1,161.999995056153,2|2,0:0|0:0,0:0:0:0:
311,335,20670,2,0,P|350:334|383:311,1,80.9999975280763,0|2,3:2|0:0,0:0:0:0:
278,121,21001,5,2,3:2:0:0:
207,364,21168,1,2,0:0:0:0:
153,108,21336,1,2,3:2:0:0:
311,335,21503,2,0,L|334:241,1,80.9999975280763,2|8,0:0|0:0,0:0:0:0:
375,79,21838,1,2,0:0:0:0:
227,248,22006,2,0,L|204:154,1,80.9999975280763,2|8,3:2|0:0,0:0:0:0:
197,128,22257,1,8,0:0:0:0:
197,128,22341,2,0,P|155:122|108:155,1,80.9999975280763,2|0,3:2|0:0,0:0:0:0:
0,325,22668,6,0,B|46:293|46:293|144:314,1,148.50000453186,4|0,3:1|0:0,0:0:0:0:
208,373,22996,2,0,B|258:374|286:334|256:338|295:291|340:307,1,148.50000453186,4|0,3:1|0:0,0:0:0:0:
430,327,23324,2,0,B|410:248|410:248|376:226|387:177,1,148.50000453186,4|0,3:1|0:0,0:0:0:0:
439,107,23652,6,0,L|338:91,1,90,4|0,3:1|0:0,0:0:0:0:
132,257,23992,1,10,0:0:0:0:
384,189,24163,1,2,0:0:0:0:
145,93,24333,1,2,3:2:0:0:
329,304,24504,1,2,3:2:0:0:
258,31,24674,6,0,L|225:216,1,180,10|0,0:0|3:2,0:0:0:0:
107,361,25181,1,2,3:2:0:0:
59,124,25348,1,10,0:0:0:0:
204,351,25515,1,2,0:0:0:0:
147,77,25681,1,2,3:2:0:0:
22,313,25848,1,2,3:2:0:0:
254,162,26015,2,0,L|346:180,1,90,10|2,0:0|0:0,0:0:0:0:
204,351,26365,5,2,3:2:0:0:
139,94,26529,1,2,3:2:0:0:
207,363,26694,1,10,0:0:0:0:
269,71,26859,2,0,L|361:89,1,90,2|0,0:0|3:2,0:0:0:0:
504,193,27189,1,2,3:2:0:0:
278,266,27354,2,0,P|272:226|295:177,1,90,10|0,0:0|0:0,0:0:0:0:
496,346,27687,6,0,B|420:330|420:330|351:372|351:372|257:354,1,251.999992309571,2|0,3:2|0:0,0:0:0:0:
259,354,29016,6,0,L|237:254,1,99.0000030212403,4|2,3:2|0:0,0:0:0:0:
276,50,29349,1,10,0:0:0:0:
140,288,29516,1,2,0:0:0:0:
90,30,29682,1,2,3:2:0:0:
237,257,29849,1,2,3:2:0:0:
25,154,30016,2,0,B|150:130|150:130|186:158|237:136,1,198.000006042481,10|0,0:0|3:2,0:0:0:0:
402,0,30516,5,2,3:2:0:0:
327,242,30682,1,10,0:0:0:0:
266,10,30849,1,2,0:0:0:0:
453,216,31015,1,2,3:2:0:0:
216,142,31182,1,2,3:2:0:0:
487,17,31349,2,0,P|513:59|503:128,1,99.0000030212403,10|2,0:0|0:0,0:0:0:0:
287,323,31682,5,2,3:2:0:0:
381,27,31849,1,2,3:2:0:0:
471,340,32015,1,10,0:0:0:0:
257,119,32182,2,0,L|160:141,1,99.0000030212403,2|0,0:0|3:2,0:0:0:0:
103,354,32515,1,2,3:2:0:0:
314,215,32682,2,0,L|411:237,1,99.0000030212403,10|0,0:0|0:0,0:0:0:0:
231,351,33015,6,0,L|214:289,2,53.9999983520508,10|8|8,3:3|3:3|3:3,0:0:0:0:
133,245,33349,2,0,L|147:177,2,53.9999983520508,10|8|8,3:3|3:3|3:3,0:0:0:0:
236,131,33682,2,0,L|300:117,2,53.9999983520508,10|8|8,3:3|3:3|3:3,0:0:0:0:
96,87,33997,2,0,L|30:70,2,53.9999983520508,10|8|8,3:3|3:3|3:3,0:0:0:0:
39,189,34334,6,0,L|17:285,1,80.9999975280763,4|0,3:1|0:0,0:0:0:0:
185,357,34691,1,2,3:2:0:0:
136,216,34853,1,2,0:0:0:0:
34,352,35015,2,0,B|89:341|89:341|131:369|131:369|195:355,1,161.999995056153,10|2,0:0|3:2,0:0:0:0:
296,219,35519,1,10,0:0:0:0:
119,263,35688,5,2,3:2:0:0:
288,331,35859,1,2,0:0:0:0:
195,180,36030,1,2,3:2:0:0:
185,357,36202,2,0,L|207:264,1,80.9999975280763,2|8,0:0|0:0,0:0:0:0:
295,132,36536,1,2,0:0:0:0:
119,263,36699,1,2,3:2:0:0:
331,229,36862,1,2,0:0:0:0:
120,157,37025,6,0,P|77:150|36:166,1,80.9999975280763,2|0,3:2|0:0,0:0:0:0:
185,357,37358,2,0,P|223:369|262:361,1,80.9999975280763,2|0,3:2|0:0,0:0:0:0:
211,141,37691,1,10,0:0:0:0:
101,342,37858,2,0,L|118:262,1,80.9999975280763,2|0,0:0|3:2,0:0:0:0:
0,126,38191,2,0,B|92:112|92:112|111:76|159:73,1,161.999995056153,10|2,0:0|0:0,0:0:0:0:
302,210,38691,1,2,3:2:0:0:
256,0,38858,1,2,0:0:0:0:
182,172,39025,1,10,0:0:0:0:
182,172,39107,1,8,0:0:0:0:
182,172,39189,2,0,L|240:160,1,40.4999987640381,10|8,0:0|0:0,0:0:0:0:
365,37,39354,6,0,B|400:43|400:43|415:61|415:61|452:67,1,94.499997116089,0|0,3:2|0:0,0:0:0:0:
512,147,39684,6,0,L|414:161,1,99.0000030212403,4|2,3:2|0:0,0:0:0:0:
169,78,40017,1,10,0:0:0:0:
301,312,40184,1,2,0:0:0:0:
359,47,40350,2,0,L|260:62,1,99.0000030212403,2|0,3:2|3:2,0:0:0:0:
64,275,40684,2,0,L|161:290,1,99.0000030212403,10|0,0:0|0:0,0:0:0:0:
359,47,41017,5,2,3:2:0:0:
270,326,41184,1,2,3:2:0:0:
185,36,41350,1,10,0:0:0:0:
272,339,41517,1,2,0:0:0:0:
363,33,41684,2,0,P|411:29|456:52,1,99.0000030212403,2|0,3:2|3:2,0:0:0:0:
504,255,42017,2,0,P|460:277|411:273,1,99.0000030212403,10|0,0:0|0:0,0:0:0:0:
266,98,42350,5,2,3:2:0:0:
441,183,42520,2,0,B|331:162|331:162|294:199|246:185,1,198.000006042481,2|0,3:2|0:0,0:0:0:0:
75,62,43031,1,2,3:2:0:0:
291,18,43194,1,2,3:2:0:0:
104,152,43357,2,0,P|57:157|6:126,1,99.0000030212403,8|0,0:0|3:2,0:0:0:0:
201,14,43683,5,10,0:0:0:0:
201,14,43765,1,8,0:0:0:0:
201,14,43848,2,0,L|186:65,1,49.5000015106202,8|8,0:0|0:0,0:0:0:0:
125,299,44014,1,2,3:2:0:0:
76,35,44173,1,0,3:2:0:0:
269,250,44333,2,0,P|317:256|360:234,1,99.0000030212403,8|8,3:3|3:3,0:0:0:0:
447,26,44675,2,0,P|404:1|356:6,1,99.0000030212403,8|0,0:0|3:2,0:0:0:0:
75,158,45018,5,8,0:0:0:0:
443,242,45184,1,2,3:2:0:0:
173,41,45351,5,10,0:0:0:0:
293,384,45518,1,2,3:2:0:0:
373,31,45684,5,10,0:0:0:0:
86,265,45853,1,0,3:2:0:0:
439,209,46022,5,10,0:0:0:0:
95,75,46192,1,0,3:2:0:0:
294,373,46361,5,10,0:0:0:0:
373,0,46531,1,2,3:2:0:0:
294,384,46701,5,10,0:0:0:0:
208,0,46872,1,2,3:2:0:0:
429,330,47042,5,10,0:0:0:0:
90,89,47208,1,0,3:2:0:0:
489,153,47375,6,0,L|381:172,1,107.999996704102,10|0,0:0|3:2,0:0:0:0:
95,336,47708,5,10,0:0:0:0:
316,8,47871,1,2,3:2:0:0:
227,384,48035,5,8,0:0:0:0:
86,5,48199,1,0,3:2:0:0:
428,288,48363,5,10,0:0:0:0:
16,121,48527,1,2,3:2:0:0:
453,177,48691,5,8,0:0:0:0:
40,356,48859,1,0,3:2:0:0:
324,16,49027,5,10,3:2:0:0:
324,16,49108,1,8,0:0:0:0:
324,16,49190,2,0,L|311:79,1,53.9999983520508,8|8,0:0|0:0,0:0:0:0:
232,221,49353,2,0,L|222:168,1,53.9999983520508,8|8,3:2|0:0,0:0:0:0:
109,71,49516,1,8,0:0:0:0:
109,71,49597,1,8,0:0:0:0:
109,71,49679,6,0,B|161:29|235:58|198:78|261:101|320:64,1,216,12|0,3:2|0:0,0:0:0:0:
403,313,54364,6,0,B|351:346|288:323|325:303|251:274|200:315,1,216,4|0,3:1|0:0,0:0:0:0:
