osu file format v14

[General]
AudioFilename: audio.mp3
AudioLeadIn: 0
PreviewTime: 3
Countdown: 0
SampleSet: Soft
StackLeniency: 0.4
Mode: 0
LetterboxInBreaks: 0
WidescreenStoryboard: 1

[Editor]
DistanceSpacing: 1
BeatDivisor: 3
GridSize: 32
TimelineZoom: 1.6

[Metadata]
Title:Today is Gonna be a Great Day (TV Size)
TitleUnicode:Today is Gonna be a Great Day (TV Size)
Artist:Bowling For Soup
ArtistUnicode:Bowling For Soup
Creator:Smoke
Version:Nymphe's Another
Source:Phineas and Ferb
Tags:english rock cartoon disney channel nymphe kuki1537 browiec Kiyoshi Guarden perry the platypus
BeatmapID:2521210
BeatmapSetID:1209835

[Difficulty]
HPDrainRate:5.2
CircleSize:4
OverallDifficulty:9
ApproachRate:9
SliderMultiplier:1.82
SliderTickRate:1

[Events]
//Background and Video events
0,0,"phineas and ferb.jpg",0,0
Video,-430,"vid.mp4"
//Break Periods
2,50483,53764
//Storyboard Layer 0 (Background)
//Storyboard Layer 1 (Fail)
//Storyboard Layer 2 (Pass)
//Storyboard Layer 3 (Foreground)
//Storyboard Layer 4 (Overlay)
//Storyboard Sound Samples

[TimingPoints]
9,382.165605095541,4,2,1,70,1,0
391,357.142857142857,4,2,1,70,1,0
926,372.670807453416,4,2,1,70,1,0
1298,368.098159509202,4,2,1,70,1,0
1850,335.195530726257,4,2,1,70,1,0
2185,372.670807453416,4,2,1,70,1,0
2744,357.142857142857,4,2,1,70,1,0
3279,333.333333333333,4,2,1,70,1,0
3612,344.827586206897,4,2,1,70,1,0
4646,344.827586206897,4,2,1,70,1,0
4990,372.670807453416,4,2,1,70,1,0
5176,322.58064516129,4,2,1,70,1,0
5659,350.877192982456,4,2,1,70,1,0
6009,382.165605095541,4,2,1,70,1,0
6582,370.37037037037,4,2,1,70,1,0
6952,340.909090909091,4,2,1,70,1,0
7463,355.029585798817,4,2,1,70,1,0
7995,372.670807453416,4,2,1,70,1,0
8367,324.324324324324,4,2,1,70,1,0
8691,357.142857142857,4,2,1,70,1,0
8869,342.857142857143,4,2,1,70,1,0
10069,480,4,2,1,70,1,0
10309,677.966101694915,4,2,1,70,1,0
12003,338.983050847458,4,2,1,70,1,0
12680,419.58041958042,4,2,1,70,1,0
12889,314.13612565445,4,2,1,70,1,0
12889,-111.111111111111,4,2,1,70,0,0
13046,331.491712707182,4,2,1,65,1,0
13046,-111.111111111111,4,2,1,65,0,0
13543,297.029702970297,4,2,1,70,1,0
13543,-111.111111111111,4,2,1,65,0,0
13691,340.909090909091,4,2,1,70,1,0
13691,-111.111111111111,4,2,1,65,0,0
14372,331.491712707182,4,2,1,70,1,0
14372,-111.111111111111,4,2,1,65,0,0
21001,335.195530726257,4,2,1,65,1,0
21001,-111.111111111111,4,2,1,65,0,0
22341,327.868852459016,4,2,1,65,1,0
22341,-111.111111111111,4,2,1,65,0,0
22668,-90.9090909090909,4,2,1,80,0,0
22914,-90.9090909090909,4,2,1,5,0,0
22996,-90.9090909090909,4,2,1,80,0,0
23242,-90.9090909090909,4,2,1,5,0,0
23324,-90.9090909090909,4,2,1,80,0,0
23570,-90.9090909090909,4,2,1,5,0,0
23652,340.909090909091,4,2,1,75,1,0
23652,-100,4,2,1,75,0,0
25015,333.333333333333,4,2,1,75,1,0
25015,-100,4,2,1,75,0,0
26015,350.877192982456,4,2,1,75,1,0
26015,-100,4,2,1,75,0,0
26365,329.67032967033,4,2,1,75,1,0
26365,-100,4,2,1,75,0,0
27354,333.333333333333,4,2,1,70,1,0
27354,-100,4,2,1,75,0,0
27687,332.409972299169,4,2,1,70,1,0
27687,-166.666666666667,4,2,1,70,0,0
29016,333.333333333333,4,2,1,75,1,0
29016,-90.9090909090909,4,2,1,75,0,0
33682,315.789473684211,4,2,1,75,1,0
33682,-90.9090909090909,4,2,1,75,0,0
33997,337.078651685393,4,2,1,75,1,0
33997,-90.9090909090909,4,2,1,75,0,0
34334,357.142857142857,4,2,1,65,1,0
34334,-111.111111111111,4,2,1,65,0,0
34691,324.324324324324,4,2,1,65,1,0
34691,-111.111111111111,4,2,1,65,0,0
35015,336.511497476164,4,2,1,70,1,0
35015,-111.111111111111,4,2,1,65,0,0
35688,342.857142857143,4,2,1,65,1,0
35688,-111.111111111111,4,2,1,65,0,0
36373,326.086956521739,4,2,1,65,1,0
36373,-111.111111111111,4,2,1,65,0,0
37025,333.333333333333,4,2,1,65,1,0
37025,-111.111111111111,4,2,1,65,0,0
39025,329.67032967033,4,2,1,65,1,0
39025,-111.111111111111,4,2,1,65,0,0
39354,-166.666666666666,4,2,1,70,0,0
39601,-111.111111111111,4,2,1,5,0,0
39684,333.333333333333,4,2,1,80,1,0
39684,-90.9090909090909,4,2,1,80,0,0
42350,340.909090909091,4,2,1,80,1,0
42350,-90.9090909090909,4,2,1,80,0,0
43031,326.086956521739,4,2,1,80,1,0
43031,-90.9090909090909,4,2,1,80,0,0
43683,331.491712707182,4,2,1,80,1,0
43683,-90.9090909090909,4,2,1,80,0,0
44014,319.148936170213,4,2,1,80,1,0
44014,-90.9090909090909,4,2,1,80,0,0
44333,342.857142857143,4,2,1,80,1,0
44333,-90.9090909090909,4,2,1,80,0,0
45018,333.333333333333,4,2,1,85,1,0
45018,-83.3333333333333,4,2,1,85,0,0
45684,338.983050847458,4,2,1,85,1,0
45684,-83.3333333333333,4,2,1,85,0,0
46361,340.909090909091,4,2,1,85,1,0
46361,-83.3333333333333,4,2,1,85,0,0
47042,333.333333333333,4,2,1,70,1,0
47042,-83.3333333333333,4,2,1,85,0,0
47708,327.868852459016,4,2,1,70,1,0
47708,-83.3333333333333,4,2,1,85,0,0
48691,336.134453781513,4,2,1,70,1,0
48691,-83.3333333333333,4,2,1,85,0,0
49027,326.086956521739,4,2,1,85,1,0
49027,-83.3333333333333,4,2,1,85,0,0
49354,-83.3333333333333,4,2,1,85,0,0
49679,402.684563758389,4,2,1,70,1,0
49679,-125,4,2,1,70,0,0
50283,-125,4,2,1,5,0,0
54364,400,4,2,1,70,1,0
54364,-90.9090909090909,4,2,1,70,0,0
54964,-125,4,2,1,5,0,0

[Colours]
Combo1 : 57,154,213
Combo2 : 39,240,11
Combo3 : 58,215,248
Combo4 : 46,190,20

[HitObjects]
92,117,12889,6,0,L|100:211,1,81.8999975006104,14|0,0:0|3:2,0:0:0:0:
91,331,13211,1,2,0:0:0:0:
190,226,13377,1,2,3:2:0:0:
7,300,13543,1,2,0:0:0:0:
184,370,13691,2,0,L|278:358,1,81.8999975006104,10|0,0:0|0:0,0:0:0:0:
327,318,13946,1,2,0:0:0:0:
333,306,14031,2,0,P|346:260|327:217,1,81.8999975006104,2|2,3:2|0:0,0:0:0:0:
174,151,14372,5,2,3:2:0:0:
250,277,14537,1,2,0:0:0:0:
220,77,14703,1,2,3:2:0:0:
115,243,14869,2,0,L|28:211,1,81.8999975006104,2|8,0:0|0:0,0:0:0:0:
257,158,15200,2,0,B|304:136|349:165|320:191|362:217|421:204,1,163.799995001221,2|10,0:0|0:0,0:0:0:0:
454,0,15697,6,0,P|429:38|429:99,1,81.8999975006104,2|2,3:2|0:0,0:0:0:0:
512,222,16029,2,0,P|511:180|487:144,1,81.8999975006104,2|2,3:2|0:0,0:0:0:0:
329,251,16360,1,10,0:0:0:0:
406,111,16526,1,2,0:0:0:0:
432,299,16692,1,0,3:2:0:0:
334,152,16858,1,2,0:0:0:0:
284,345,17023,5,0,3:2:0:0:
404,214,17189,2,0,L|444:198,2,40.9499987503052,10|8|0,0:0|0:0|3:2,0:0:0:0:
242,265,17521,1,8,3:3:0:0:
242,265,17604,1,8,3:3:0:0:
242,265,17686,2,0,L|135:245,1,81.8999975006104,2|10,3:2|3:3,0:0:0:0:
279,148,18018,1,2,3:2:0:0:
354,317,18184,1,10,0:0:0:0:
344,81,18349,6,0,P|305:53|257:59,1,81.8999975006104,6|2,0:0|0:0,0:0:0:0:
315,232,18681,1,2,3:2:0:0:
423,108,18847,2,0,P|427:60|398:21,1,81.8999975006104,2|8,0:0|0:0,0:0:0:0:
238,182,19178,2,0,P|220:218|226:257,1,81.8999975006104,2|0,0:0|3:2,0:0:0:0:
405,310,19510,1,2,0:0:0:0:
324,149,19675,5,2,3:2:0:0:
343,366,19841,1,2,0:0:0:0:
442,191,20007,1,2,3:2:0:0:
258,338,20173,2,0,B|205:346|171:315|197:292|146:261|86:285,1,163.799995001221,2|2,0:0|0:0,0:0:0:0:
8,358,20670,2,0,P|-3:306|13:249,1,81.8999975006104,0|2,3:2|0:0,0:0:0:0:
107,128,21001,6,0,B|122:150|140:174|140:174|126:223|114:276,1,163.799995001221,2|2,3:2|3:2,0:0:0:0:
20,164,21503,1,2,0:0:0:0:
54,65,21671,2,0,P|99:41|159:57,1,81.8999975006104,8|2,0:0|0:0,0:0:0:0:
220,200,22006,1,2,3:2:0:0:
282,15,22174,1,8,0:0:0:0:
351,202,22341,2,0,L|338:295,1,81.8999975006104,2|0,3:2|0:0,0:0:0:0:
253,94,22668,6,0,B|197:66|158:87|178:114|136:133|88:109,1,150.150004582214,4|0,3:1|0:0,0:0:0:0:
54,65,22996,2,0,B|87:108|87:108|69:147|57:222,1,150.150004582214,4|0,3:1|0:0,0:0:0:0:
13,286,23324,2,0,P|43:230|130:237,1,150.150004582214,4|0,3:1|0:0,0:0:0:0:
166,295,23652,6,0,P|209:314|266:297,1,91,4|0,3:1|0:0,0:0:0:0:
313,134,23992,1,10,0:0:0:0:
427,320,24163,1,2,0:0:0:0:
404,82,24333,1,2,3:2:0:0:
338,278,24504,1,2,3:2:0:0:
254,35,24674,2,0,P|173:37|142:137,1,182,10|0,0:0|3:2,0:0:0:0:
258,271,25181,5,2,3:2:0:0:
352,98,25348,1,10,0:0:0:0:
173,216,25515,1,2,0:0:0:0:
355,337,25681,1,2,3:2:0:0:
256,122,25848,1,2,3:2:0:0:
180,342,26015,2,0,L|84:326,1,91,10|2,0:0|0:0,0:0:0:0:
167,112,26365,5,2,3:2:0:0:
306,255,26529,1,2,3:2:0:0:
230,31,26694,1,10,0:0:0:0:
207,277,26859,2,0,L|223:174,1,91,2|0,0:0|3:2,0:0:0:0:
328,71,27189,1,2,3:2:0:0:
319,344,27354,2,0,L|303:241,1,91,10|0,0:0|0:0,0:0:0:0:
220,70,27687,6,0,B|166:38|97:72|131:103|69:139|20:108,1,218.399993334961,2|0,3:2|0:0,0:0:0:0:
22,109,28684,1,4,0:0:0:0:
22,109,29016,6,0,L|40:211,1,100.10000305481,4|2,3:2|0:0,0:0:0:0:
231,305,29349,1,10,0:0:0:0:
126,115,29516,1,2,0:0:0:0:
156,367,29682,1,2,3:2:0:0:
230,157,29849,1,2,3:2:0:0:
299,369,30016,2,0,P|388:358|411:236,1,200.200006109619,10|0,0:0|3:2,0:0:0:0:
320,61,30516,5,2,3:2:0:0:
162,221,30682,1,10,0:0:0:0:
388,173,30849,1,2,0:0:0:0:
200,42,31015,2,0,P|147:17|86:34,1,100.10000305481,2|2,3:2|3:2,0:0:0:0:
235,280,31349,2,0,P|284:283|327:260,1,100.10000305481,10|2,0:0|0:0,0:0:0:0:
190,150,31682,5,2,3:2:0:0:
116,335,31849,1,2,3:2:0:0:
283,191,32015,1,10,0:0:0:0:
85,111,32182,2,0,L|96:227,1,100.10000305481,2|0,0:0|3:2,0:0:0:0:
206,305,32515,1,2,3:2:0:0:
9,170,32682,2,0,L|-2:286,1,100.10000305481,10|0,0:0|0:0,0:0:0:0:
194,176,33015,6,0,L|185:91,2,66.7333353698731,10|8|8,3:3|3:3|3:3,0:0:0:0:
285,56,33349,6,0,L|277:122,2,66.7333353698731,10|8|8,3:3|3:3|3:3,0:0:0:0:
384,113,33682,5,10,3:3:0:0:
393,123,33787,2,0,L|381:210,1,66.7333353698731,8|8,3:3|3:3,0:0:0:0:
312,237,33997,5,10,3:3:0:0:
303,247,34109,2,0,L|315:334,1,66.7333353698731,8|8,3:3|3:3,0:0:0:0:
375,372,34334,6,0,B|324:382|282:359|314:328|263:308|206:338,1,163.799995001221,4|2,3:1|3:2,0:0:0:0:
133,378,34853,1,2,0:0:0:0:
133,378,35015,2,0,L|139:284,1,81.8999975006104,10|0,0:0|0:0,0:0:0:0:
144,148,35351,1,2,3:2:0:0:
29,251,35519,1,10,0:0:0:0:
222,187,35688,6,0,P|231:135|209:92,1,81.8999975006104,2|2,3:2|0:0,0:0:0:0:
62,119,36030,1,2,3:2:0:0:
216,267,36202,2,0,P|264:258|294:211,1,81.8999975006104,2|8,0:0|0:0,0:0:0:0:
300,26,36536,1,2,0:0:0:0:
144,148,36699,1,2,3:2:0:0:
354,109,36862,1,2,0:0:0:0:
189,12,37025,6,0,P|136:-4|88:10,1,81.8999975006104,2|0,3:2|0:0,0:0:0:0:
257,198,37358,2,0,P|302:199|344:175,1,81.8999975006104,2|0,3:2|0:0,0:0:0:0:
235,77,37691,1,10,0:0:0:0:
144,148,37858,2,0,L|157:250,1,81.8999975006104,2|0,0:0|3:2,0:0:0:0:
217,372,38191,6,0,B|258:337|258:337|367:357,1,163.799995001221,10|2,0:0|0:0,0:0:0:0:
490,384,38691,2,0,L|476:295,1,81.8999975006104,2|2,3:2|0:0,0:0:0:0:
397,184,39025,1,10,0:0:0:0:
390,195,39107,1,8,0:0:0:0:
380,210,39189,1,10,0:0:0:0:
370,230,39272,1,8,0:0:0:0:
361,249,39354,6,0,L|354:155,1,81.8999975006104,0|0,3:2|0:0,0:0:0:0:
331,137,39684,6,0,P|287:109|234:118,1,100.10000305481,4|2,3:2|0:0,0:0:0:0:
148,258,40017,1,10,0:0:0:0:
103,83,40184,1,2,0:0:0:0:
248,307,40350,2,0,L|252:181,1,100.10000305481,2|0,3:2|3:2,0:0:0:0:
37,159,40684,2,0,L|40:259,1,100.10000305481,10|0,0:0|0:0,0:0:0:0:
202,65,41017,5,2,3:2:0:0:
144,277,41184,1,2,3:2:0:0:
88,46,41350,1,10,0:0:0:0:
150,292,41517,1,2,0:0:0:0:
212,34,41684,2,0,P|253:10|315:20,1,100.10000305481,2|0,3:2|3:2,0:0:0:0:
351,252,42017,2,0,P|301:256|259:232,1,100.10000305481,10|0,0:0|0:0,0:0:0:0:
482,105,42350,5,2,3:2:0:0:
482,105,42520,2,0,B|424:75|367:100|399:138|343:161|277:130,1,200.200006109619,2|0,3:2|0:0,0:0:0:0:
155,222,43031,1,2,3:2:0:0:
239,57,43194,1,2,3:2:0:0:
266,332,43357,2,0,L|257:218,1,100.10000305481,8|0,0:0|3:2,0:0:0:0:
66,160,43683,5,10,0:0:0:0:
66,160,43765,1,8,0:0:0:0:
66,160,43848,2,0,L|69:243,1,50.0500015274048,8|8,0:0|0:0,0:0:0:0:
162,148,44014,2,0,L|156:78,3,50.0500015274048,2|0|0|0,3:2|3:2|3:2|3:2,0:0:0:0:
214,221,44333,2,0,L|323:203,1,100.10000305481,8|8,3:3|3:3,0:0:0:0:
410,39,44675,2,0,L|301:21,1,100.10000305481,8|0,0:0|3:2,0:0:0:0:
306,294,45018,5,8,0:0:0:0:
209,94,45184,1,2,3:2:0:0:
206,352,45351,5,10,0:0:0:0:
297,134,45518,1,2,3:2:0:0:
359,374,45684,5,10,0:0:0:0:
172,252,45853,1,0,3:2:0:0:
403,156,46022,5,10,0:0:0:0:
285,327,46192,1,0,3:2:0:0:
283,96,46361,5,10,0:0:0:0:
396,296,46531,1,2,3:2:0:0:
366,41,46701,5,10,0:0:0:0:
258,244,46872,1,2,3:2:0:0:
168,24,47042,5,10,0:0:0:0:
403,156,47208,1,0,3:2:0:0:
143,259,47375,5,10,0:0:0:0:
257,30,47542,1,0,3:2:0:0:
249,321,47708,5,10,0:0:0:0:
144,91,47871,1,2,3:2:0:0:
43,339,48035,2,0,L|35:225,1,109.199996667481,8|0,0:0|3:2,0:0:0:0:
247,302,48363,5,10,0:0:0:0:
148,79,48527,1,2,3:2:0:0:
46,331,48691,2,0,L|38:217,1,109.199996667481,8|0,0:0|3:2,0:0:0:0:
236,138,49027,5,10,3:2:0:0:
236,138,49108,1,8,0:0:0:0:
236,138,49190,2,0,L|231:211,1,54.5999983337403,8|8,0:0|0:0,0:0:0:0:
139,274,49353,2,0,L|143:197,3,54.5999983337403,8|8|8|8,3:2|0:0|0:0|0:0,0:0:0:0:
217,328,49679,6,0,B|264:298|342:332|302:361|362:389|443:368,1,218.4,12|0,3:2|0:0,0:0:0:0:
182,139,54364,6,0,B|301:168|301:168|254:188|244:249|244:249|235:196|174:173,1,300.300009164429,4|0,3:1|0:0,0:0:0:0:
