osu file format v14

[General]
AudioFilename: audio.mp3
AudioLeadIn: 0
PreviewTime: 41071
Countdown: 1
SampleSet: None
StackLeniency: 0.7
Mode: 0
LetterboxInBreaks: 0
WidescreenStoryboard: 0

[Editor]
Bookmarks: 13703,24330
DistanceSpacing: 1.2
BeatDivisor: 4
GridSize: 4
TimelineZoom: 1

[Metadata]
Title:Today is Gonna Be a Great Day (TV Size)
TitleUnicode:Today is Gonna Be a Great Day (TV Size)
Artist:Bowling For Soup
ArtistUnicode:Bowling For Soup
Creator:X4D
Version:Extra
Source:Phineas and Ferb
Tags:phineas and ferb opening theme song short version tv size disney Dan Povenmire Jeff "Swampy" Marsh
BeatmapID:1761251
BeatmapSetID:841631

[Difficulty]
HPDrainRate:6
CircleSize:4
OverallDifficulty:8.5
ApproachRate:9.4
SliderMultiplier:1.4
SliderTickRate:1

[Events]
//Background and Video events
0,0,"pandff.jpg",0,0
//Break Periods
//Storyboard Layer 0 (Background)
//Storyboard Layer 1 (Fail)
//Storyboard Layer 2 (Pass)
//Storyboard Layer 3 (Foreground)
//Storyboard Sound Samples

[TimingPoints]
325,355.029585798817,4,3,2,100,1,0
6893,-100,4,3,2,5,0,0
7026,355.029585798817,4,3,1,100,1,0
7381,355.029585798817,4,3,1,100,1,0
13061,-100,4,3,1,5,0,0
13348,355.029585798817,4,3,1,100,1,0
13348,-66.6666666666667,4,3,1,100,0,0
14235,-66.6666666666667,4,3,1,100,0,0
14416,331.491712707182,4,3,1,100,1,0
21844,-66.6666666666667,4,3,1,100,0,0
22341,-100,4,3,1,100,0,0
23999,-50,4,3,1,100,0,0
24247,-50,4,3,1,5,0,0
24330,-55.5555555555556,4,3,1,80,0,0
24579,-55.5555555555556,4,3,1,5,0,0
24662,-66.6666666666667,4,3,1,70,0,0
24910,-55.5555555555556,4,3,1,5,0,0
25025,335.195530726257,4,3,1,100,1,0
25025,-66.6666666666667,4,3,1,100,0,0
29047,-133.333333333333,4,3,1,100,0,0
30388,-66.6666666666667,4,3,1,100,0,0
33073,331.491712707182,4,3,1,100,1,0
33073,-66.6666666666667,4,3,1,100,0,0
35061,-133.333333333333,4,3,1,100,0,0
35738,333.333333333333,4,3,1,100,1,0
39487,-100,4,3,1,5,0,0
39571,-100,4,3,1,100,0,0
40737,-200,4,3,1,100,0,0
40987,-200,4,3,1,5,0,0
41071,-74.0740740740741,4,3,1,100,0,0
45737,-66.6666666666667,4,3,1,100,0,0
45987,-66.6666666666667,4,3,1,5,0,0
46071,-66.6666666666667,4,3,1,100,0,0
46321,-66.6666666666667,4,3,1,5,0,0
46404,-66.6666666666667,4,3,1,100,0,0
51071,-133.333333333333,4,3,1,100,0,0
51404,-133.333333333333,4,3,1,45,0,0
54904,-133.333333333333,4,3,1,5,0,0
55737,-200,4,3,1,100,0,0
56404,-200,4,3,1,30,0,0

[Colours]
Combo1 : 33,255,36
Combo2 : 252,96,0
SliderBorder : 235,255,254

[HitObjects]
120,58,1390,5,0,0:0:0:0:
162,130,1567,1,0,0:0:0:0:
106,193,1737,2,2,L|34:177,2,70
166,251,2277,2,2,P|232:235|311:228,2,140,2|2|0,0:0|0:0|0:0,0:0:0:0:
354,299,3165,6,2,P|383:267|392:224,2,70
269,298,3698,2,2,L|281:138,2,140,2|2|0,0:0|0:0|0:0,0:0:0:0:
194,336,4585,5,2,0:0:0:0:
116,302,4763,1,2,0:0:0:0:
44,345,4940,1,2,0:0:0:0:
13,266,5118,2,2,L|2:113,2,140,2|2|0,0:0|0:0|0:0,0:0:0:0:
95,221,6005,6,2,P|132:221|178:239,1,70,2|0,0:0|0:0,0:0:0:0:
342,102,6360,2,0,P|244:102|123:149,1,210,2|0,0:0|0:0,0:0:0:0:
95,221,7026,2,2,L|98:309,1,70
241,338,7381,6,2,P|229:298|199:264,2,70
157,348,7913,6,2,L|322:327,2,140,2|2|0,0:0|0:0|0:0,0:0:0:0:
72,354,8801,1,2,0:0:0:0:
112,280,8978,1,2,0:0:0:0:
99,196,9156,1,2,0:0:0:0:
31,145,9333,2,2,P|110:175|193:175,2,140,2|2|0,0:0|0:0|0:0,0:0:0:0:
13,62,10221,6,2,P|54:44|93:42,1,70
159,18,10576,1,2,0:0:0:0:
159,18,10753,2,0,P|200:36|239:38,1,70,2|0,0:0|0:0,0:0:0:0:
304,12,11108,2,2,L|290:160,1,140
280,235,11641,5,0,0:0:0:0:
256,192,11730,12,0,13061,0:0:0:0:
170,140,13348,6,2,P|154:184|175:251,1,105.000004005432
344,237,13703,2,2,P|356:186|340:137,1,105.000004005432
115,64,14058,1,2,0:0:0:0:
286,343,14235,6,0,P|474:293|474:293,1,183.750007009506,4|0,0:0|0:0,0:0:0:0:
170,140,14747,1,0,0:0:0:0:
125,346,14913,1,0,0:0:0:0:
251,144,15078,2,0,P|238:95|204:65,1,70,8|0,0:0|0:0,0:0:0:0:
71,257,15410,5,0,0:0:0:0:
218,224,15576,1,0,0:0:0:0:
52,171,15741,1,2,0:0:0:0:
265,318,15907,1,0,0:0:0:0:
26,329,16073,1,0,0:0:0:0:
251,144,16239,2,0,L|348:162,1,70,0|8,0:0|0:0,0:0:0:0:
129,64,16570,2,0,L|32:82,1,70
357,19,16902,5,8,0:0:0:0:
357,19,16985,1,8,0:0:0:0:
357,19,17067,1,0,0:0:0:0:
218,224,17233,1,0,0:0:0:0:
216,69,17399,1,0,0:0:0:0:
218,238,17565,1,0,0:0:0:0:
344,9,17730,1,8,0:0:0:0:
306,275,17896,2,0,P|287:306|259:328,1,70
101,313,18228,5,0,0:0:0:0:
218,238,18393,1,0,0:0:0:0:
43,247,18559,1,8,0:0:0:0:
16,291,18641,1,8,0:0:0:0:
11,342,18724,1,8,0:0:0:0:
137,213,18891,1,0,0:0:0:0:
134,188,18974,1,0,0:0:0:0:
121,165,19056,1,0,0:0:0:0:
101,313,19222,6,0,P|125:315|151:309,1,35
284,168,19388,6,0,P|259:164|238:157,1,35,8|0,0:0|0:0,0:0:0:0:
2,112,19554,6,0,P|27:105|46:94,1,35
288,75,19719,6,0,P|195:77|145:51,1,140,4|0,0:0|0:0,0:0:0:0:
334,1,20217,1,0,0:0:0:0:
439,126,20382,2,0,L|415:224,1,70,8|0,0:0|0:0,0:0:0:0:
261,217,20714,1,0,0:0:0:0:
293,350,20880,2,0,P|289:285|256:210,1,140,2|0,0:0|0:0,0:0:0:0:
183,187,21377,1,0,0:0:0:0:
384,294,21543,2,0,L|481:278,1,70,0|8,0:0|0:0,0:0:0:0:
75,183,21874,6,0,L|83:319,1,105.000004005432
152,346,22206,1,0,0:0:0:0:
238,77,22371,5,2,0:0:0:0:
75,183,22537,1,0,0:0:0:0:
251,68,22703,1,0,0:0:0:0:
121,110,22869,2,0,L|41:96,1,70,0|8,0:0|0:0,0:0:0:0:
266,194,23200,1,0,0:0:0:0:
177,7,23366,2,0,L|97:21,1,70,0|8,0:0|0:0,0:0:0:0:
79,27,23614,5,8,0:0:0:0:
79,27,23697,1,0,0:0:0:0:
79,27,24029,6,0,P|114:158|110:250,1,210,4|0,0:0|0:0,0:0:0:0:
171,350,24360,6,0,P|204:223|200:134,1,188.999994232178,4|0,0:0|0:0,0:0:0:0:
261,73,24692,6,0,P|290:183|287:260,1,157.500006008148,4|0,0:0|0:0,0:0:0:0:
270,321,25025,6,0,B|393:289|346:388|470:358,1,210,4|8,0:0|0:0,0:0:0:0:
182,128,25527,1,0,0:0:0:0:
171,350,25695,1,2,0:0:0:0:
261,73,25862,1,0,0:0:0:0:
117,55,26030,2,0,P|80:111|97:191,1,105.000004005432,8|0,0:0|0:0,0:0:0:0:
410,153,26365,5,0,0:0:0:0:
149,219,26533,1,0,0:0:0:0:
324,120,26701,1,8,0:0:0:0:
182,128,26868,1,0,0:0:0:0:
368,226,27036,1,2,0:0:0:0:
79,146,27204,1,0,0:0:0:0:
396,48,27371,2,0,L|410:157,1,105.000004005432,8|0,0:0|0:0,0:0:0:0:
211,289,27706,5,0,0:0:0:0:
368,226,27874,1,0,0:0:0:0:
254,358,28041,1,8,0:0:0:0:
361,355,28209,2,0,P|420:340|488:329,1,105.000004005432,0|2,0:0|0:0,0:0:0:0:
211,289,28544,1,0,0:0:0:0:
368,226,28712,2,0,P|427:241|495:252,1,105.000004005432,8|0,0:0|0:0,0:0:0:0:
383,142,29047,6,0,B|264:125|316:223|179:201,1,210.000008010865
116,168,30052,5,2,0:0:0:0:
56,235,30388,5,4,0:0:0:0:
185,100,30555,1,0,0:0:0:0:
118,309,30723,1,8,0:0:0:0:
106,66,30890,1,0,0:0:0:0:
209,325,31058,1,2,0:0:0:0:
250,51,31226,1,0,0:0:0:0:
34,322,31393,2,0,P|62:374|148:385,1,105.000004005432,8|0,0:0|0:0,0:0:0:0:
361,242,31728,5,0,0:0:0:0:
189,192,31896,1,0,0:0:0:0:
369,131,32064,1,8,0:0:0:0:
172,198,32231,1,0,0:0:0:0:
439,208,32399,1,2,0:0:0:0:
119,126,32566,1,0,0:0:0:0:
395,28,32734,2,0,L|526:48,1,105.000004005432,8|0,0:0|0:0,0:0:0:0:
68,309,33073,5,0,0:0:0:0:
271,33,33238,1,0,0:0:0:0:
462,333,33404,1,8,0:0:0:0:
75,322,33570,2,0,L|-61:329,1,105.000004005432,0|2,0:0|0:0,0:0:0:0:
506,115,33901,1,0,0:0:0:0:
119,126,34067,2,0,L|-17:119,1,105.000004005432,8|0,0:0|0:0,0:0:0:0:
197,102,34398,5,0,0:0:0:0:
198,114,34480,1,0,0:0:0:0:
200,127,34563,1,0,0:0:0:0:
202,140,34646,1,0,0:0:0:0:
204,153,34729,1,0,0:0:0:0:
206,166,34812,1,0,0:0:0:0:
207,179,34895,1,0,0:0:0:0:
209,192,34978,1,0,0:0:0:0:
211,205,35061,6,0,L|219:256,2,35.0000013351441
289,281,35393,6,0,L|281:332,2,35.0000013351441,2|0|0,0:0|0:0|0:0,0:0:0:0:
370,219,35738,5,4,0:0:0:0:
451,297,35904,1,0,0:0:0:0:
379,131,36071,1,0,0:0:0:0:
361,335,36238,1,0,0:0:0:0:
473,116,36404,2,0,P|452:73|424:47,1,70,8|0,0:0|0:0,0:0:0:0:
274,48,36738,1,0,0:0:0:0:
379,131,36904,1,8,0:0:0:0:
180,27,37071,5,2,0:0:0:0:
201,237,37238,1,0,0:0:0:0:
179,18,37404,1,0,0:0:0:0:
112,268,37571,2,0,L|132:344,1,70,0|8,0:0|0:0,0:0:0:0:
306,304,37904,1,0,0:0:0:0:
53,207,38071,1,0,0:0:0:0:
347,231,38238,1,8,0:0:0:0:
98,58,38404,6,0,L|10:84,1,70,2|0,0:0|0:0,0:0:0:0:
269,98,38738,2,0,L|357:124,1,70
133,187,39071,1,8,0:0:0:0:
414,44,39238,2,0,P|443:103|438:155,1,105
388,207,39571,6,0,P|376:250|381:292,1,70,8|2,0:0|0:0,0:0:0:0:
452,337,39904,1,0,0:0:0:0:
296,298,40071,2,0,L|206:311,1,70
97,345,40404,1,8,0:0:0:0:
136,311,40487,1,8,0:0:0:0:
160,264,40570,1,8,0:0:0:0:
163,212,40654,1,8,0:0:0:0:
145,163,40737,6,0,L|86:158,1,52.5
54,141,41071,6,4,L|64:255,1,94.5000003604889,4|0,0:0|0:0,0:0:0:0:
274,101,41404,1,8,0:0:0:0:
117,26,41571,1,0,0:0:0:0:
313,209,41737,2,0,P|388:186|412:160,1,94.5000003604889,2|0,0:0|0:0,0:0:0:0:
403,46,42071,2,0,P|363:20|317:13,1,94.5000003604889,8|0,0:0|0:0,0:0:0:0:
369,351,42404,5,0,0:0:0:0:
274,101,42571,1,0,0:0:0:0:
117,340,42737,1,8,0:0:0:0:
193,56,42904,1,0,0:0:0:0:
465,277,43071,2,0,L|455:378,1,94.5000003604889,2|0,0:0|0:0,0:0:0:0:
255,358,43404,2,0,L|245:257,1,94.5000003604889,8|0,0:0|0:0,0:0:0:0:
379,180,43737,5,0,0:0:0:0:
157,257,43904,1,0,0:0:0:0:
340,71,44071,1,8,0:0:0:0:
119,65,44237,1,0,0:0:0:0:
465,206,44404,5,2,0:0:0:0:
245,263,44571,1,0,0:0:0:0:
418,20,44737,1,8,0:0:0:0:
170,0,44904,1,0,0:0:0:0:
473,286,45071,5,8,0:0:0:0:
455,281,45154,1,8,0:0:0:0:
438,282,45237,1,8,0:0:0:0:
421,287,45321,1,8,0:0:0:0:
406,296,45404,1,8,0:0:0:0:
394,309,45487,1,8,0:0:0:0:
385,324,45571,1,8,0:0:0:0:
381,342,45654,1,8,0:0:0:0:
382,359,45737,6,0,L|365:192,1,157.500006008148,8|0,0:0|0:0,0:0:0:0:
325,129,46071,6,0,L|342:296,1,157.500006008148,8|0,0:0|0:0,0:0:0:0:
448,193,46404,5,12,0:0:0:0:
225,225,46571,1,0,0:0:0:0:
434,74,46737,5,8,0:0:0:0:
141,53,46904,1,0,0:0:0:0:
428,287,47071,5,8,0:0:0:0:
256,6,47237,1,0,0:0:0:0:
332,343,47404,5,8,0:0:0:0:
369,19,47571,1,0,0:0:0:0:
192,322,47737,5,8,0:0:0:0:
385,131,47904,1,0,0:0:0:0:
66,232,48071,5,8,0:0:0:0:
332,343,48237,1,0,0:0:0:0:
97,121,48404,5,8,0:0:0:0:
369,19,48571,1,0,0:0:0:0:
122,20,48737,5,8,0:0:0:0:
302,128,48904,1,0,0:0:0:0:
21,201,49071,5,8,0:0:0:0:
208,73,49237,1,0,0:0:0:0:
0,327,49404,5,8,0:0:0:0:
49,58,49570,1,0,0:0:0:0:
348,291,49737,5,8,0:0:0:0:
302,128,49904,1,0,0:0:0:0:
160,345,50071,5,8,0:0:0:0:
208,73,50237,1,0,0:0:0:0:
431,258,50404,5,8,0:0:0:0:
436,290,50487,1,8,0:0:0:0:
429,322,50570,1,8,0:0:0:0:
412,349,50654,1,8,0:0:0:0:
386,369,50737,1,8,0:0:0:0:
354,378,50820,1,8,0:0:0:0:
322,375,50904,1,8,0:0:0:0:
292,361,50987,1,8,0:0:0:0:
269,338,51071,6,0,L|278:211,1,105.000004005432,8|0,0:0|1:0,0:0:0:0:
256,192,51904,12,0,54904,1:0:0:0:
146,122,55737,6,0,L|132:266,1,140,10|0,0:0|1:0,0:0:0:0:
