osu file format v14

[General]
AudioFilename: audio.mp3
AudioLeadIn: 0
PreviewTime: 13420
Countdown: 1
SampleSet: None
StackLeniency: 0.4
Mode: 0
LetterboxInBreaks: 0
WidescreenStoryboard: 1

[Editor]
Bookmarks: 14589,25196,35862,41225,46558
DistanceSpacing: 0.2
BeatDivisor: 4
GridSize: 8
TimelineZoom: 2.4

[Metadata]
Title:Today is Gonna Be a Great Day (TV Size)
TitleUnicode:Today is Gonna Be a Great Day (TV Size)
Artist:Bowling For Soup
ArtistUnicode:Bowling For Soup
Creator:Dementation
Version:You're Watching Disney Channel
Source:Phineas and Ferb
Tags:
BeatmapID:2033124
BeatmapSetID:970953

[Difficulty]
HPDrainRate:5
CircleSize:3.8
OverallDifficulty:9
ApproachRate:9.3
SliderMultiplier:1.8
SliderTickRate:1

[Events]
//Background and Video events
0,0,"wp1887998.jpg",0,0
//Break Periods
//Storyboard Layer 0 (Background)
//Storyboard Layer 1 (Fail)
//Storyboard Layer 2 (Pass)
//Storyboard Layer 3 (Foreground)
//Storyboard Sound Samples

[TimingPoints]
1930,355.029585798817,4,3,0,80,1,0
1930,-250,4,3,0,80,0,0
7590,352.941176470588,4,3,0,80,1,0
7590,-250,4,3,0,80,0,0
11825,-400,4,3,0,80,0,0
13264,331.491712707182,4,3,0,80,1,0
14424,-50,4,3,0,80,0,0
14589,331.491712707182,4,3,0,80,1,0
14589,-100,4,3,0,80,0,0
15251,-250,4,3,0,80,0,0
15583,-100,4,3,0,80,0,0
16577,-250,4,3,0,80,0,0
16909,-100,4,3,0,80,0,0
17903,-250,4,3,0,80,0,0
18566,-100,4,3,0,80,0,0
20390,-142.857142857143,4,3,0,80,0,0
21053,-100,4,3,0,80,0,0
21881,-250,4,3,0,80,0,0
22544,-100,4,3,0,80,0,0
23207,-250,4,3,0,80,0,0
24202,-50,4,3,0,80,0,0
24533,-71.4285714285714,4,3,0,80,0,0
24865,-125,4,3,0,80,0,0
25196,333.333333333333,4,3,0,80,1,0
25196,-71.4285714285714,4,3,0,80,0,1
35862,335.195530726257,4,3,0,80,1,0
35862,-50,4,3,0,80,0,0
36197,-100,4,3,0,80,0,0
36532,-250,4,3,0,80,0,0
36867,-100,4,3,0,80,0,0
37873,-250,4,3,0,80,0,0
38543,-100,4,3,0,80,0,0
39716,-142.857142857143,4,3,0,80,0,0
41225,333.333333333333,4,3,0,80,1,0
41225,-71.4285714285714,4,3,0,80,0,1
46224,-250,4,3,0,80,0,1
46558,-83.3333333333333,4,3,0,80,0,0
51224,-111.111111111111,4,3,0,80,0,0

[Colours]
Combo1 : 234,254,120
Combo2 : 208,49,28
Combo3 : 58,201,47
Combo4 : 173,119,194

[HitObjects]
18,48,1930,6,0,P|54:54|84:81,1,72
168,126,2462,2,0,P|134:141|112:174,1,72
311,261,3172,1,0,0:0:0:0:
311,261,3350,6,0,P|314:214|321:184,1,72
392,157,3882,2,0,P|382:122|377:87,1,72
204,13,4592,1,0,0:0:0:0:
204,12,4770,6,0,P|170:48|161:85,1,72
116,157,5302,2,0,P|101:124|75:100,1,72
230,317,6012,1,0,0:0:0:0:
230,317,6190,6,0,L|304:322,1,72
439,263,6722,2,0,L|367:268,1,72
57,373,7590,6,0,P|93:367|123:340,1,72
0,249,8119,2,0,P|21:277|54:291,1,72
226,141,8825,1,0,0:0:0:0:
226,141,9001,6,0,P|229:94|236:64,1,72
141,89,9531,2,0,P|130:54|125:18,1,72
512,53,10237,1,0,0:0:0:0:
512,52,10413,6,0,P|478:88|469:125,1,72
424,197,10942,2,0,P|409:164|383:140,1,72
338,213,11560,1,0,0:0:0:0:
311,295,11825,6,0,L|320:387,1,90
87,66,14424,6,0,B|61:62|58:38|58:38|123:28|133:92|107:138,1,180
98,141,14754,6,0,P|101:190|107:247,1,90
123,305,15086,1,0,0:0:0:0:
365,235,15251,6,0,P|339:224|310:224,1,54
296,240,15583,6,0,P|292:289|286:346,1,90
464,106,15914,5,0,0:0:0:0:
392,58,16080,1,0,0:0:0:0:
392,58,16246,2,0,P|347:62|302:66,1,90
148,228,16577,6,0,P|170:210|185:185,1,54
180,149,16909,5,0,0:0:0:0:
256,373,17075,1,0,0:0:0:0:
341,307,17240,1,0,0:0:0:0:
341,307,17406,2,0,L|350:202,1,90
289,87,17738,1,0,0:0:0:0:
70,260,17903,6,0,P|95:297|136:308,1,72
200,277,18401,1,0,0:0:0:0:
126,108,18566,5,0,0:0:0:0:
0,307,18732,1,0,0:0:0:0:
10,364,18815,1,0,0:0:0:0:
34,384,18898,1,0,0:0:0:0:
168,196,19064,1,0,0:0:0:0:
123,233,19147,1,0,0:0:0:0:
118,263,19230,5,0,0:0:0:0:
334,208,19395,1,0,0:0:0:0:
47,196,19561,1,0,0:0:0:0:
430,369,19727,2,0,P|433:320|439:263,1,90
435,162,20058,5,0,0:0:0:0:
435,162,20224,1,0,0:0:0:0:
386,91,20390,2,0,P|354:91|322:107,1,62.9999980773926
244,268,20721,5,0,0:0:0:0:
276,0,20887,1,0,0:0:0:0:
270,293,21053,2,0,L|280:178,1,90
57,3,21384,2,0,L|67:117,1,90
109,203,21716,1,0,0:0:0:0:
109,203,21881,6,0,P|72:228|61:269,1,72
83,333,22379,1,0,0:0:0:0:
211,235,22544,6,0,P|206:190|202:145,1,90
301,59,22876,2,0,P|296:103|292:148,1,90
421,366,23207,6,0,P|446:353|470:308,1,72
413,384,23704,5,0,0:0:0:0:
465,370,23787,1,0,0:0:0:0:
487,310,23870,1,0,0:0:0:0:
163,78,24202,6,0,P|71:153|90:308,1,270
256,107,24533,6,0,P|167:103|83:182,1,188.999994232178
301,165,24865,6,0,P|249:134|188:133,1,108
38,259,25196,6,0,P|46:322|49:394,1,125.999996154785
210,225,25529,2,0,P|182:127|278:-2,1,251.999992309571
339,0,26029,1,0,0:0:0:0:
416,261,26196,2,0,P|445:217|522:195,1,125.999996154785
502,277,26529,5,0,0:0:0:0:
368,123,26696,1,0,0:0:0:0:
197,375,26862,2,0,P|193:312|185:249,1,125.999996154785
101,8,27195,2,0,P|97:70|89:133,1,125.999996154785
403,318,27529,2,0,P|373:274|296:252,1,125.999996154785
197,375,27862,5,0,0:0:0:0:
312,237,28029,1,0,0:0:0:0:
4,180,28195,2,0,L|14:304,1,125.999996154785
277,127,28529,5,0,0:0:0:0:
235,0,28695,1,0,0:0:0:0:
432,326,28862,5,0,0:0:0:0:
476,119,29029,1,0,0:0:0:0:
316,384,29195,5,0,0:0:0:0:
197,375,30529,5,0,0:0:0:0:
374,327,30695,1,0,0:0:0:0:
176,114,30862,2,0,P|172:176|164:239,1,125.999996154785
340,216,31195,1,0,0:0:0:0:
297,61,31362,1,0,0:0:0:0:
130,315,31529,5,0,0:0:0:0:
182,36,31695,2,0,P|194:96|202:159,1,125.999996154785
28,351,32029,5,0,0:0:0:0:
94,80,32195,2,0,P|23:108|-3:158,1,125.999996154785
274,233,32529,1,0,0:0:0:0:
347,4,32695,1,0,0:0:0:0:
443,315,32862,5,0,0:0:0:0:
419,165,33029,1,0,0:0:0:0:
281,361,33195,6,0,P|271:300|257:238,1,125.999996154785
59,373,33529,1,0,0:0:0:0:
86,146,33695,1,0,0:0:0:0:
67,384,33862,1,0,0:0:0:0:
68,112,34029,1,0,0:0:0:0:
297,370,34195,5,0,0:0:0:0:
252,0,34362,1,0,0:0:0:0:
257,237,34529,1,0,0:0:0:0:
269,230,34862,1,0,0:0:0:0:
235,224,35195,1,0,0:0:0:0:
512,97,35529,5,0,0:0:0:0:
468,115,35640,5,0,0:0:0:0:
391,90,35751,5,0,0:0:0:0:
362,11,35862,6,0,B|391:14|404:38|404:38|345:68|278:33,1,180
271,19,36197,6,0,P|274:68|280:125,1,90
92,237,36532,6,0,P|118:248|147:248,1,54
161,232,36867,6,0,P|165:183|171:126,1,90
253,350,37202,1,0,0:0:0:0:
377,337,37370,1,0,0:0:0:0:
264,361,37537,1,0,0:0:0:0:
487,221,37705,5,0,0:0:0:0:
172,102,37873,6,0,P|140:118|122:149,1,72
161,232,38375,1,0,0:0:0:0:
301,141,38543,6,0,L|291:33,1,90
393,189,38878,2,0,L|402:81,1,90
202,383,39213,1,0,0:0:0:0:
207,295,39381,1,0,0:0:0:0:
218,369,39549,1,0,0:0:0:0:
19,131,39716,6,0,P|3:158|0:194,1,62.9999980773926
197,155,40051,5,0,0:0:0:0:
178,29,40219,1,0,0:0:0:0:
184,172,40387,1,0,0:0:0:0:
338,29,40554,5,0,0:0:0:0:
302,229,40722,1,0,0:0:0:0:
274,113,40889,2,0,L|343:119,1,62.9999980773926
120,374,41225,6,0,P|113:301|108:231,1,125.999996154785
255,21,41558,1,0,0:0:0:0:
309,240,41725,1,0,0:0:0:0:
150,133,41891,6,0,P|87:128|24:121,1,125.999996154785
303,275,42225,2,0,P|365:267|428:262,1,125.999996154785
194,227,42558,5,0,0:0:0:0:
226,370,42725,1,0,0:0:0:0:
414,71,42891,5,0,0:0:0:0:
385,244,43058,1,0,0:0:0:0:
370,1,43225,2,0,P|376:63|381:126,1,125.999996154785
91,218,43558,2,0,P|138:147|204:132,1,125.999996154785
24,359,43891,5,0,0:0:0:0:
21,148,44058,1,0,0:0:0:0:
0,384,44225,2,0,P|6:321|11:258,1,125.999996154785
201,39,44558,5,0,0:0:0:0:
198,250,44725,1,0,0:0:0:0:
177,14,44892,2,0,P|183:76|188:139,1,125.999996154785
324,335,45224,5,0,0:0:0:0:
368,353,45308,1,0,0:0:0:0:
420,336,45391,1,0,0:0:0:0:
439,292,45474,1,0,0:0:0:0:
428,253,45558,1,0,0:0:0:0:
407,228,45641,1,0,0:0:0:0:
380,221,45724,1,0,0:0:0:0:
356,228,45808,1,0,0:0:0:0:
330,248,45891,5,0,0:0:0:0:
284,252,45974,1,0,0:0:0:0:
243,206,46058,1,0,0:0:0:0:
263,134,46141,1,0,0:0:0:0:
341,134,46224,6,0,P|356:157|359:188,1,54
228,351,46558,6,0,B|169:361|169:361|111:330,1,107.999996704102
22,147,46891,6,0,L|32:25,1,107.999996704102
231,215,47224,2,0,L|220:93,1,107.999996704102
423,141,47558,2,0,L|433:19,1,107.999996704102
472,334,47891,6,0,L|347:344,1,107.999996704102
203,94,48224,2,0,L|310:103,1,107.999996704102
55,347,48558,6,0,L|43:213,1,107.999996704102
181,384,48891,2,0,L|192:250,1,107.999996704102
324,89,49224,6,0,B|366:66|366:66|425:76,1,107.999996704102
408,358,49558,6,0,L|418:236,1,107.999996704102
225,193,49891,2,0,L|214:71,1,107.999996704102
30,347,50225,2,0,L|40:225,1,107.999996704102
232,100,50558,5,0,0:0:0:0:
255,93,50641,1,0,0:0:0:0:
283,101,50724,1,0,0:0:0:0:
309,130,50808,1,0,0:0:0:0:
316,167,50891,1,0,0:0:0:0:
304,204,50974,1,0,0:0:0:0:
303,244,51058,1,0,0:0:0:0:
334,283,51141,1,0,0:0:0:0:
397,276,51224,6,0,B|404:278|438:287|457:251|431:226|382:214|324:237|296:298|296:303|289:336|247:364|177:347,1,323.999990112305
189,27,55891,6,0,P|186:170|177:350,1,323.999990112305
