osu file format v14

[General]
AudioFilename: Shoushitsu.mp3
AudioLeadIn: 0
PreviewTime: 79999
Countdown: 1
SampleSet: Normal
StackLeniency: 0.7
Mode: 0
LetterboxInBreaks: 1
WidescreenStoryboard: 0

[Editor]
DistanceSpacing: 1
BeatDivisor: 8
GridSize: 16
TimelineZoom: 2.400002

[Metadata]
Title:Hatsune Miku no Shoushitsu (Hommarju Remix)
TitleUnicode:Hatsune Miku no Shoushitsu (Hommarju Remix)
Artist:Bousou-P
ArtistUnicode:暴走P
Creator:Rickput
Version:Shitsu Extreme
Source:Hatsune Miku
Tags:cosmo kuroneko antique hatsune miku vocaloid infinity hommarju
BeatmapID:699331
BeatmapSetID:313245

[Difficulty]
HPDrainRate:3.5
CircleSize:4
OverallDifficulty:9.5
ApproachRate:9.8
SliderMultiplier:2
SliderTickRate:1

[Events]
//Background and Video events
0,0,"hatsunemiku.png",0,0
//Break Periods
2,152999,164770
2,186749,189249
//Storyboard Layer 0 (Background)
//Storyboard Layer 1 (Fail)
//Storyboard Layer 2 (Pass)
//Storyboard Layer 3 (Foreground)
//Storyboard Sound Samples

[TimingPoints]
249.924923974081,500,4,1,0,60,1,0
8624,-100,4,1,0,5,0,0
8749,-100,4,1,0,60,0,0
9624,-100,4,1,0,5,0,0
9749,-100,4,1,0,60,0,0
10624,-100,4,1,0,5,0,0
10749,-100,4,1,0,60,0,0
11624,-100,4,1,0,5,0,0
11749,-100,4,1,0,60,0,0
12749,-100,4,1,0,5,0,0
12874,-100,4,1,0,60,0,0
13749,-100,4,1,0,5,0,0
13874,-100,4,1,0,60,0,0
14249,-100,4,1,0,5,0,0
16249,250,4,1,0,60,1,0
20499,-100,4,1,0,5,0,0
20561,-100,4,1,0,60,0,0
24249,-66.6666666666667,4,1,0,60,0,0
24374,-66.6666666666667,4,1,0,5,0,0
24436,-66.6666666666667,4,1,0,60,0,0
24499,-100,4,1,0,60,0,0
28124,-100,4,1,0,5,0,0
28186,-100,4,1,0,60,0,0
32249,-200,4,1,0,60,0,0
33249,-200,4,1,0,5,0,0
33311,-200,4,1,0,60,0,0
38749,-200,4,1,0,5,0,0
38811,-200,4,1,0,60,0,0
39749,-200,4,1,0,5,0,0
39811,-200,4,1,0,60,0,0
41249,-200,4,1,0,5,0,0
41311,-200,4,1,0,60,0,0
47249,-200,4,1,0,5,0,0
47311,-200,4,1,0,60,0,0
48624,-200,4,1,0,5,0,0
48686,-200,4,1,0,60,0,0
49436,-200,4,1,0,5,0,0
49499,-200,4,1,0,60,0,0
49686,-200,4,1,0,5,0,0
49749,-200,4,1,0,60,0,0
49811,-200,4,1,0,5,0,0
49874,-200,4,1,0,60,0,0
50186,-200,4,1,0,5,0,0
50249,-200,4,1,0,60,0,0
50686,-200,4,1,0,5,0,0
50749,-200,4,1,0,60,0,0
53249,-133.333333333333,4,1,0,60,0,0
53686,-133.333333333333,4,1,0,5,0,0
53749,-200,4,1,0,60,0,0
54186,-200,4,1,0,5,0,0
54249,-133.333333333333,4,1,0,60,0,0
54561,-133.333333333333,4,1,0,5,0,0
54624,-166.666666666667,4,1,0,60,0,0
54936,-166.666666666667,4,1,0,5,0,0
54999,-200,4,1,0,60,0,0
55186,-200,4,1,0,5,0,0
55249,-133.333333333333,4,1,0,60,0,0
55561,-133.333333333333,4,1,0,5,0,0
55624,-133.333333333333,4,1,0,60,0,0
62749,-166.666666666667,4,1,0,60,0,0
63249,-200,4,1,0,60,0,0
63749,-300,4,1,0,60,0,0
63999,-300,4,1,0,5,0,0
64249,-133.333333333333,4,1,0,60,0,0
65874,-300,4,1,0,60,0,0
66124,-300,4,1,0,5,0,0
66499,-133.333333333333,4,1,0,60,0,0
67874,-300,4,1,0,60,0,0
68124,-300,4,1,0,5,0,0
68499,-133.333333333333,4,1,0,60,0,0
69624,-133.333333333333,4,1,0,5,0,0
69686,-133.333333333333,4,1,0,60,0,0
70249,-100,4,1,0,60,0,0
70749,-133.333333333333,4,1,0,60,0,0
71249,-200,4,1,0,60,0,0
71749,-300,4,1,0,60,0,0
71999,-300,4,1,0,5,0,0
72249,-133.333333333333,4,1,0,60,0,0
73249,-133.333333333333,4,1,0,5,0,0
73311,-133.333333333333,4,1,0,60,0,0
74499,-133.333333333333,4,1,0,5,0,0
74561,-133.333333333333,4,1,0,60,0,0
75249,-133.333333333333,4,1,0,5,0,0
75311,-133.333333333333,4,1,0,60,0,0
78249,1000,4,1,0,60,1,0
79249,-200,4,1,0,60,0,0
80249,500,4,1,0,60,1,0
82249,-200,4,1,0,60,0,0
84249,250,4,1,0,70,1,1
84249,-83.3333333333333,4,1,0,70,0,1
88249,500,4,1,0,60,1,0
88249,-66.6666666666667,4,1,0,60,0,0
88749,-100,4,1,0,60,0,0
90249,-133.333333333333,4,1,0,60,0,0
92249,250,4,1,0,70,1,1
95374,-100,4,1,0,5,0,1
95436,-100,4,1,0,70,0,1
95999,-200,4,1,0,70,0,1
96165,-133.333333333333,4,1,0,5,0,1
96249,-200,4,2,0,70,0,1
104165,-200,4,2,0,5,0,1
104249,-133.333333333333,4,2,0,70,0,1
112249,500,4,1,0,60,1,0
112249,-133.333333333333,4,1,0,60,0,0
114249,-133.333333333333,4,1,0,5,0,0
114749,-133.333333333333,4,1,0,60,0,0
118249,-133.333333333333,4,1,0,5,0,0
120249,250,4,1,0,60,1,0
124499,-100,4,1,0,5,0,0
124561,-100,4,1,0,60,0,0
125874,-100,4,1,0,5,0,0
125936,-100,4,1,0,60,0,0
128249,-66.6666666666667,4,1,0,60,0,0
128374,-66.6666666666667,4,1,0,5,0,0
128436,-66.6666666666667,4,1,0,60,0,0
128499,-100,4,1,0,60,0,0
132124,-100,4,1,0,5,0,0
132186,-100,4,1,0,60,0,0
133249,-83.3333333333333,4,1,0,60,0,0
133436,-83.3333333333333,4,1,0,5,0,0
133499,-133.333333333333,4,1,0,60,0,0
133686,-133.333333333333,4,1,0,5,0,0
133749,-90.9090909090909,4,1,0,60,0,0
133936,-90.9090909090909,4,1,0,5,0,0
133999,-100,4,1,0,60,0,0
134124,-100,4,1,0,5,0,0
134186,-100,4,1,0,60,0,0
136249,-200,4,1,0,60,0,0
137249,-200,4,1,0,5,0,0
137311,-400,4,1,0,60,0,0
151749,500,4,1,0,60,1,0
151749,-200,4,1,0,60,0,0
166499,-200,4,1,0,5,0,0
166624,-200,4,1,0,60,0,0
166999,-200,4,1,0,5,0,0
167124,-200,4,1,0,60,0,0
167499,-200,4,1,0,5,0,0
167624,-200,4,1,0,60,0,0
167999,-200,4,1,0,5,0,0
168499,250,4,1,0,60,1,0
168499,-133.333333333333,4,1,0,60,0,0
169374,-133.333333333333,4,1,0,5,0,0
169436,-133.333333333333,4,1,0,60,0,0
169999,-200,4,1,0,60,0,0
170249,-200,4,1,0,5,0,0
170311,-133.333333333333,4,1,0,60,0,0
171999,-200,4,1,0,60,0,0
172249,-200,4,1,0,5,0,0
172311,-133.333333333333,4,1,0,60,0,0
173499,-100,4,1,0,5,0,0
173561,-133.333333333333,4,1,0,60,0,0
174249,-100,4,1,0,60,0,0
174374,-100,4,1,0,5,0,0
174436,-100,4,1,0,60,0,0
174624,-100,4,1,0,5,0,0
174749,-133.333333333333,4,1,0,60,0,0
174874,-133.333333333333,4,1,0,5,0,0
174936,-133.333333333333,4,1,0,60,0,0
175124,-133.333333333333,4,1,0,5,0,0
175249,-166.666666666667,4,1,0,60,0,0
175374,-166.666666666667,4,1,0,5,0,0
175436,-166.666666666667,4,1,0,60,0,0
175624,-166.666666666667,4,1,0,5,0,0
175749,-200,4,1,0,60,0,0
175999,-200,4,1,0,5,0,0
176061,-133.333333333333,4,1,0,60,0,0
177249,-133.333333333333,4,1,0,5,0,0
177311,-133.333333333333,4,1,0,60,0,0
178499,-133.333333333333,4,1,0,5,0,0
178561,-133.333333333333,4,1,0,60,0,0
179249,-133.333333333333,4,1,0,5,0,0
179311,-133.333333333333,4,1,0,60,0,0
182249,500,4,1,0,60,1,0
183332,-100,4,1,0,5,0,0
186249,-100,4,1,0,50,0,0
189749,-50,4,1,0,90,0,0
189874,-100,4,1,0,5,0,0
190249,250,4,1,0,70,1,1
190249,-83.3333333333333,4,1,0,70,0,1
191499,-125,4,1,0,70,0,1
191624,-83.3333333333333,4,1,0,70,0,1
206249,-133.333333333333,4,2,0,70,0,1
221999,-200,4,2,0,70,0,1
222165,-133.333333333333,4,2,0,5,0,0
222249,-133.333333333333,4,2,0,70,0,1
228249,-100,4,2,0,70,0,1
229999,-200,4,2,0,70,0,1
230186,-100,4,1,0,5,0,1
230249,-100,4,1,0,70,0,1
236249,-100,4,1,0,70,0,1
238249,-100,4,1,0,60,0,0
254249,500,4,1,0,60,1,0
254624,-100,4,1,0,5,0,0
254749,-66.6666666666667,4,1,0,60,0,0
254999,-66.6666666666667,4,1,0,5,0,0
255249,-100,4,1,0,60,0,0
255624,-100,4,1,0,5,0,0
255749,-66.6666666666667,4,1,0,60,0,0
255999,-66.6666666666667,4,1,0,5,0,0
256124,-66.6666666666667,4,1,0,60,0,0
258249,-66.6666666666667,4,1,0,5,0,0

[HitObjects]
336,80,312,5,0,0:0:0:0:
236,79,624,1,0,0:0:0:0:
218,198,999,1,0,0:0:0:0:
296,182,1249,1,0,0:0:0:0:
187,132,1624,1,0,0:0:0:0:
282,264,1999,5,0,0:0:0:0:
357,291,2249,2,0,P|413:301|392:379,2,150
296,344,3249,2,0,L|144:336,2,150
151,265,4249,1,0,0:0:0:0:
281,231,4624,1,0,0:0:0:0:
169,156,4999,1,0,0:0:0:0:
89,197,5249,1,0,0:0:0:0:
224,195,5624,1,0,0:0:0:0:
247,333,5999,5,0,0:0:0:0:
247,333,6249,2,0,B|316:310|316:310|376:256,2,150
137,325,7249,2,0,L|88:316,3,50
164,156,7874,1,0,0:0:0:0:
202,124,7999,1,0,0:0:0:0:
241,93,8124,1,0,0:0:0:0:
275,63,8249,6,0,P|314:108|276:203,1,150,8|0,0:0|0:0,0:0:0:0:
238,130,8749,1,2,0:0:0:0:
199,248,8999,1,0,0:0:0:0:
199,248,9249,2,0,P|272:272|320:224,1,150,8|0,0:0|0:0,0:0:0:0:
254,201,9749,1,2,0:0:0:0:
254,201,9999,5,0,0:0:0:0:
339,148,10249,2,0,B|378:109|378:109|413:89|413:89|452:50,1,150,8|0,0:0|0:0,0:0:0:0:
451,50,10749,1,2,0:0:0:0:
392,297,10999,1,0,0:0:0:0:
152,224,11249,2,0,P|86:247|67:323,1,150,8|0,0:0|0:0,0:0:0:0:
142,298,11749,1,2,0:0:0:0:
217,372,11999,5,0,0:0:0:0:
266,99,12249,1,8,0:0:0:0:
266,99,12624,2,0,L|253:151,1,50,2|0,0:0|0:0,0:0:0:0:
246,255,12999,1,0,0:0:0:0:
362,236,13249,1,8,0:0:0:0:
361,235,13624,2,0,L|372:187,1,50,2|0,0:0|0:0,0:0:0:0:
179,121,13999,5,0,0:0:0:0:
256,192,14249,12,0,15999,0:0:0:0:
113,317,16249,6,0,P|162:321|214:298,1,100,8|0,0:0|0:0,0:0:0:0:
297,141,16499,2,0,B|241:190|241:190|251:221,1,100,8|0,0:0|0:0,0:0:0:0:
397,220,16749,2,0,B|445:182|445:182|466:146,1,100,8|0,0:0|0:0,0:0:0:0:
241,278,16999,1,0,0:0:0:0:
469,262,17124,1,8,0:0:0:0:
244,120,17249,6,0,B|193:119|193:119|137:140,1,100
326,257,17499,2,0,L|364:357,1,100,8|0,0:0|0:0,0:0:0:0:
191,170,17749,2,0,B|178:120|178:120|193:68,1,100,8|0,0:0|0:0,0:0:0:0:
393,265,17999,5,8,0:0:0:0:
240,127,18124,1,0,0:0:0:0:
419,208,18249,1,10,0:0:0:0:
419,208,18311,1,2,0:0:0:0:
419,208,18374,1,2,0:0:0:0:
165,219,18499,1,8,0:0:0:0:
486,172,18624,6,0,P|493:227|464:267,1,100,0|8,0:0|0:0,0:0:0:0:
411,85,18874,1,0,0:0:0:0:
501,20,18999,1,8,0:0:0:0:
335,230,19124,1,0,0:0:0:0:
259,90,19249,1,8,0:0:0:0:
313,305,19374,1,0,0:0:0:0:
383,158,19499,5,8,0:0:0:0:
231,187,19624,1,0,0:0:0:0:
459,212,19749,1,8,0:0:0:0:
302,134,19874,1,0,0:0:0:0:
238,310,19999,1,8,0:0:0:0:
373,179,20124,1,0,0:0:0:0:
196,339,20249,6,0,B|143:378|86:339|86:339|108:291|75:256,1,200,8|0,0:0|0:0,0:0:0:0:
176,145,20624,1,0,0:0:0:0:
267,378,20749,1,8,0:0:0:0:
26,304,20874,1,0,0:0:0:0:
298,220,20999,6,0,P|323:264|317:314,1,100,8|0,0:0|0:0,0:0:0:0:
90,231,21249,1,8,0:0:0:0:
383,225,21374,1,2,0:0:0:0:
386,263,21436,1,2,0:0:0:0:
386,298,21499,2,0,P|341:345|305:355,1,100,10|0,0:0|0:0,0:0:0:0:
152,211,21749,5,8,0:0:0:0:
471,196,21874,1,0,0:0:0:0:
267,309,21999,1,8,0:0:0:0:
304,152,22124,1,0,0:0:0:0:
322,348,22249,2,0,P|280:375|224:360,1,100,10|0,0:0|0:0,0:0:0:0:
386,263,22499,5,8,0:0:0:0:
232,193,22624,1,0,0:0:0:0:
404,342,22749,2,0,P|446:314|463:265,1,100,10|0,0:0|0:0,0:0:0:0:
307,102,22999,1,8,0:0:0:0:
326,261,23124,1,0,0:0:0:0:
462,176,23249,1,10,0:0:0:0:
307,102,23374,1,0,0:0:0:0:
468,165,23499,5,10,0:0:0:0:
472,153,23561,1,0,0:0:0:0:
474,139,23624,1,0,0:0:0:0:
475,126,23686,1,0,0:0:0:0:
474,113,23749,1,10,0:0:0:0:
473,98,23811,1,0,0:0:0:0:
466,82,23874,1,0,0:0:0:0:
452,61,23936,1,0,0:0:0:0:
431,45,23999,1,10,0:0:0:0:
396,30,24061,1,0,0:0:0:0:
347,24,24124,1,0,0:0:0:0:
295,31,24186,1,0,0:0:0:0:
237,54,24249,6,0,P|189:83|132:161,1,150.000005722046,10|0,0:0|0:0,0:0:0:0:
412,275,24499,2,0,B|462:268|462:268|507:244,1,100,8|0,0:0|0:0,0:0:0:0:
352,117,24749,2,0,B|302:125|302:125|254:149,1,100,8|0,0:0|0:0,0:0:0:0:
212,213,24999,1,8,0:0:0:0:
462,176,25124,5,0,0:0:0:0:
270,328,25249,1,8,0:0:0:0:
288,161,25374,1,0,0:0:0:0:
415,329,25499,1,8,0:0:0:0:
180,241,25624,1,0,0:0:0:0:
378,171,25749,1,8,0:0:0:0:
149,363,25874,1,0,0:0:0:0:
118,180,25999,5,10,0:0:0:0:
133,132,26061,1,0,0:0:0:0:
164,93,26124,1,0,0:0:0:0:
207,67,26186,1,0,0:0:0:0:
255,58,26249,1,10,0:0:0:0:
380,182,26374,1,0,0:0:0:0:
131,258,26499,6,0,P|74:243|46:203,1,100,8|0,0:0|0:0,0:0:0:0:
340,118,26749,2,0,P|389:106|436:130,1,100,8|0,0:0|0:0,0:0:0:0:
242,377,26999,1,8,0:0:0:0:
118,180,27124,1,0,0:0:0:0:
380,182,27249,1,8,0:0:0:0:
252,222,27374,5,0,0:0:0:0:
402,90,27499,2,0,P|450:111|473:155,1,100,8|0,0:0|0:0,0:0:0:0:
286,305,27749,2,0,P|190:284|247:135,1,300,8|0,0:0|0:0,0:0:0:0:
380,182,28249,5,8,0:0:0:0:
414,299,28374,1,0,0:0:0:0:
261,249,28499,5,8,0:0:0:0:
227,366,28624,1,0,0:0:0:0:
380,182,28749,5,8,0:0:0:0:
301,77,28874,1,0,0:0:0:0:
414,299,28999,5,8,0:0:0:0:
296,370,29124,1,0,0:0:0:0:
167,239,29249,6,0,L|66:206,1,100,8|0,0:0|0:0,0:0:0:0:
155,205,29499,2,0,L|59:174,1,100,8|0,0:0|0:0,0:0:0:0:
289,162,29749,2,0,L|389:129,1,100,8|0,0:0|0:0,0:0:0:0:
301,128,29999,2,0,L|396:97,1,100,8|0,0:0|0:0,0:0:0:0:
496,209,30249,5,10,0:0:0:0:
366,284,30374,1,0,0:0:0:0:
426,146,30499,1,8,0:0:0:0:
453,293,30624,1,0,0:0:0:0:
296,194,30749,5,10,0:0:0:0:
287,184,30811,1,0,0:0:0:0:
279,174,30874,1,0,0:0:0:0:
273,164,30936,1,0,0:0:0:0:
267,153,30999,1,10,0:0:0:0:
262,141,31061,1,0,0:0:0:0:
258,129,31124,1,0,0:0:0:0:
255,117,31186,1,0,0:0:0:0:
254,103,31249,1,10,0:0:0:0:
254,83,31311,1,0,0:0:0:0:
262,61,31374,1,0,0:0:0:0:
279,41,31436,1,0,0:0:0:0:
310,21,31499,5,10,0:0:0:0:
357,13,31561,1,0,0:0:0:0:
414,27,31624,1,0,0:0:0:0:
457,81,31686,1,0,0:0:0:0:
458,151,31749,2,0,L|409:151,1,50,10|0,0:0|0:0,0:0:0:0:
404,221,31874,2,0,L|349:200,1,50
326,266,31999,2,0,L|290:224,1,50,10|0,0:0|0:0,0:0:0:0:
229,256,32124,2,0,L|218:197,1,50
143,212,32249,6,0,P|230:161|213:348,1,400,10|0,0:0|0:0,0:0:0:0:
381,226,34249,6,0,P|405:128|232:194,1,400,2|2,0:0|0:0,0:0:0:0:
320,154,35749,1,2,0:0:0:0:
320,154,36249,2,0,P|278:251|462:216,1,400,2|2,0:0|0:0,0:0:0:0:
278,63,38249,2,0,B|173:69|173:69|77:47,1,200,2|0,0:0|0:0,0:0:0:0:
299,186,39249,2,0,B|404:180|404:180|500:202,1,200,2|0,0:0|0:0,0:0:0:0:
299,186,40249,6,0,P|180:200|312:319,1,400,2|0,0:0|0:0,0:0:0:0:
388,79,42249,2,0,P|436:149|393:248,1,200,2|2,0:0|0:0,0:0:0:0:
354,164,42999,1,2,0:0:0:0:
295,83,43249,1,2,0:0:0:0:
201,48,43499,1,2,0:0:0:0:
108,85,43749,1,2,0:0:0:0:
66,176,43999,1,2,0:0:0:0:
94,272,44249,6,0,P|251:293|155:165,1,400,2|2,0:0|0:0,0:0:0:0:
179,246,45749,1,2,0:0:0:0:
179,246,46249,2,0,P|336:279|385:82,1,400,2|0,0:0|0:0,0:0:0:0:
307,65,47374,5,0,0:0:0:0:
206,127,47499,1,0,0:0:0:0:
215,166,47582,1,0,0:0:0:0:
244,193,47665,1,0,0:0:0:0:
283,207,47749,1,0,0:0:0:0:
286,252,47832,1,0,0:0:0:0:
266,312,47915,1,0,0:0:0:0:
203,322,47998,1,0,0:0:0:0:
165,272,48082,1,0,0:0:0:0:
192,214,48165,1,0,0:0:0:0:
255,202,48249,5,8,0:0:0:0:
388,242,48374,1,0,0:0:0:0:
412,247,48436,1,0,0:0:0:0:
435,254,48499,2,0,L|488:246,1,50,8|0,0:0|0:0,0:0:0:0:
431,149,48874,1,0,0:0:0:0:
450,139,49124,1,0,0:0:0:0:
377,83,49374,6,0,L|381:50,1,25
283,109,49624,2,0,L|281:138,1,25
249,184,49749,2,0,L|246:217,1,25
220,263,49874,1,0,0:0:0:0:
325,228,49999,1,0,0:0:0:0:
160,170,50124,2,0,L|155:135,1,25
152,112,50249,6,0,P|182:72|210:102,1,100
249,183,50624,2,0,L|259:217,1,25,2|0,0:0|0:0,0:0:0:0:
286,244,50874,1,10,0:0:0:0:
244,276,51124,1,10,0:0:0:0:
313,291,51374,1,10,0:0:0:0:
233,343,51624,1,10,0:0:0:0:
368,346,51874,1,10,0:0:0:0:
285,384,51999,5,0,0:0:0:0:
387,316,52124,1,0,0:0:0:0:
403,287,52186,2,0,L|400:247,1,25
401,149,52499,1,0,0:0:0:0:
403,118,52749,1,0,0:0:0:0:
405,86,52999,5,0,0:0:0:0:
479,155,53124,1,0,0:0:0:0:
300,177,53249,2,0,P|236:160|265:2,1,262.500010013581
311,81,53749,2,0,B|316:106|316:106|379:124|387:195|352:226,1,175
301,231,54249,2,0,B|233:228|233:228|173:245|173:245|114:240,1,187.500007152558
103,200,54624,6,0,P|132:173|211:223,1,149.999995422363
188,253,54999,2,0,L|203:328,1,75
166,354,55249,2,0,B|211:374|246:350|246:350|304:333|355:355,1,187.500007152558
413,337,55624,2,0,L|360:278,1,75.0000028610231
261,264,55874,2,0,L|286:190,1,75.0000028610231
362,103,56124,5,0,0:0:0:0:
362,281,56249,1,0,0:0:0:0:
206,193,56374,1,0,0:0:0:0:
384,180,56499,2,0,L|462:172,2,75.0000028610231
111,151,56874,5,2,0:0:0:0:
295,244,56999,1,0,0:0:0:0:
143,113,57124,1,2,0:0:0:0:
262,281,57249,1,0,0:0:0:0:
190,94,57374,1,2,0:0:0:0:
215,299,57499,1,0,0:0:0:0:
239,101,57624,1,2,0:0:0:0:
180,223,57749,6,0,P|111:269|49:241,1,150.000005722046
24,160,58124,1,0,0:0:0:0:
109,189,58249,2,0,L|140:339,1,150.000005722046
213,358,58624,5,2,0:0:0:0:
314,183,58749,1,0,0:0:0:0:
298,352,58874,1,2,0:0:0:0:
224,188,58999,1,0,0:0:0:0:
248,348,59124,5,2,0:0:0:0:
348,173,59249,1,0,0:0:0:0:
332,342,59374,1,2,0:0:0:0:
259,178,59499,1,0,0:0:0:0:
277,350,59624,1,2,0:0:0:0:
360,120,59749,6,0,P|396:149|408:180,1,75.0000028610231
247,271,59999,2,0,P|207:254|189:211,1,75.0000028610231
336,192,60249,2,0,L|354:265,1,75.0000028610231
263,196,60499,2,0,P|267:149|280:122,1,75.0000028610231
426,175,60749,5,0,0:0:0:0:
296,272,60874,1,0,0:0:0:0:
279,113,60999,1,0,0:0:0:0:
389,266,61124,1,0,0:0:0:0:
369,97,61249,1,0,0:0:0:0:
240,192,61374,1,0,0:0:0:0:
310,28,61499,5,0,0:0:0:0:
335,188,61624,1,0,0:0:0:0:
216,140,61749,2,0,P|220:89|237:68,1,75.0000028610231
335,184,61999,2,0,P|314:236|298:253,1,75.0000028610231
256,92,62249,6,0,L|283:16,1,75.0000028610231,10|0,0:0|0:0,0:0:0:0:
373,297,62499,2,0,L|307:341,1,75.0000028610231,8|0,0:0|0:0,0:0:0:0:
384,105,62749,2,0,L|446:83,1,59.9999981689454,10|0,0:0|0:0,0:0:0:0:
253,235,62999,2,0,L|201:204,1,59.9999981689454,8|0,0:0|0:0,0:0:0:0:
430,220,63249,2,0,L|467:253,1,50,10|0,0:0|0:0,0:0:0:0:
291,106,63499,2,0,L|287:54,1,50,8|0,0:0|0:0,0:0:0:0:
333,234,63749,2,0,L|292:297,1,66.6666666666667,10|0,0:0|0:0,0:0:0:0:
154,38,64249,5,0,0:0:0:0:
166,250,64499,2,0,L|180:326,1,75.0000028610231,8|0,0:0|0:0,0:0:0:0:
79,197,64749,1,8,0:0:0:0:
254,186,64874,2,0,P|230:155|197:141,1,75.0000028610231,0|8,0:0|0:0,0:0:0:0:
76,309,65124,2,0,L|43:376,2,75.0000028610231,0|8|0,0:0|0:0|0:0,0:0:0:0:
240,142,65499,1,8,0:0:0:0:
167,13,65624,2,0,P|136:43|129:76,1,75.0000028610231,0|8,0:0|0:0,0:0:0:0:
313,279,65874,2,0,L|330:212,1,66.6666666666667
208,216,66499,6,0,L|199:138,1,75.0000028610231,8|0,0:0|0:0,0:0:0:0:
217,297,66749,2,0,L|225:380,1,75.0000028610231,8|0,0:0|0:0,0:0:0:0:
112,342,66999,1,8,0:0:0:0:
361,289,67124,2,0,P|382:250|382:203,1,75.0000028610231,0|8,0:0|0:0,0:0:0:0:
208,216,67374,2,0,P|169:227|148:255,1,75.0000028610231,0|8,0:0|0:0,0:0:0:0:
266,370,67624,2,0,L|284:290,1,75.0000028610231,0|8,0:0|0:0,0:0:0:0:
151,99,67874,2,0,L|134:167,1,66.6666666666667
349,265,68499,6,0,L|370:191,1,75.0000028610231,8|0,0:0|0:0,0:0:0:0:
241,198,68749,2,0,L|221:271,1,75.0000028610231,8|0,0:0|0:0,0:0:0:0:
316,129,68999,1,8,0:0:0:0:
292,331,69124,1,0,0:0:0:0:
444,259,69249,1,8,0:0:0:0:
241,197,69374,2,0,B|192:206|152:180|152:180|100:210,1,150.000005722046
157,263,69749,6,0,P|199:275|237:270,1,75.0000028610231,8|0,0:0|0:0,0:0:0:0:
209,127,69999,1,8,0:0:0:0:
84,280,70124,1,0,0:0:0:0:
296,359,70249,6,0,B|335:324|335:324|341:272,1,100,10|0,0:0|0:0,0:0:0:0:
238,137,70499,2,0,L|242:239,1,100,8|0,0:0|0:0,0:0:0:0:
433,218,70749,2,0,L|430:140,1,75.0000028610231,10|0,0:0|0:0,0:0:0:0:
142,241,70999,2,0,L|144:315,1,75.0000028610231,8|0,0:0|0:0,0:0:0:0:
322,99,71249,2,0,P|310:70|291:52,1,50,10|0,0:0|0:0,0:0:0:0:
292,321,71499,2,0,P|299:348|313:371,1,50,8|0,0:0|0:0,0:0:0:0:
476,87,71749,2,0,P|443:73|411:75,1,66.6666666666667,10|0,0:0|0:0,0:0:0:0:
495,45,72249,6,0,B|482:87|482:87|481:126,1,75.0000028610231,8|0,0:0|0:0,0:0:0:0:
493,382,72499,1,8,0:0:0:0:
292,321,72624,1,0,0:0:0:0:
455,188,72749,2,0,L|482:114,1,75.0000028610231,8|0,0:0|0:0,0:0:0:0:
350,240,72999,2,0,P|298:273|204:241,1,150.000005722046,8|0,0:0|0:0,0:0:0:0:
276,165,73374,5,0,0:0:0:0:
508,216,73499,1,8,0:0:0:0:
302,252,73624,1,0,0:0:0:0:
448,93,73749,1,8,0:0:0:0:
428,310,73874,1,0,0:0:0:0:
348,176,73999,1,8,0:0:0:0:
262,360,74124,1,0,0:0:0:0:
359,155,74249,6,0,P|350:89|281:52,1,150.000005722046,8|0,0:0|0:0,0:0:0:0:
207,196,74624,2,0,L|211:273,1,75.0000028610231,0|8,0:0|0:0,0:0:0:0:
386,364,74874,1,0,0:0:0:0:
293,184,74999,2,0,P|305:107|366:83,1,150.000005722046,8|0,0:0|0:0,0:0:0:0:
495,4,75374,5,0,0:0:0:0:
359,155,75499,1,8,0:0:0:0:
404,17,75624,1,0,0:0:0:0:
342,233,75749,1,8,0:0:0:0:
218,140,75874,1,0,0:0:0:0:
415,209,75999,2,0,L|498:226,1,75.0000028610231,8|0,0:0|0:0,0:0:0:0:
313,297,76249,2,0,B|273:299|273:299|236:312,1,75.0000028610231,8|0,0:0|0:0,0:0:0:0:
432,314,76499,5,8,0:0:0:0:
213,224,76624,1,0,0:0:0:0:
385,138,76749,1,8,0:0:0:0:
289,360,76874,1,0,0:0:0:0:
216,139,76999,1,8,0:0:0:0:
430,215,77124,1,0,0:0:0:0:
275,115,77249,5,8,0:0:0:0:
206,344,77374,1,0,0:0:0:0:
448,181,77499,1,8,0:0:0:0:
243,254,77624,1,0,0:0:0:0:
306,57,77749,1,8,0:0:0:0:
174,201,77874,5,2,0:0:0:0:
338,230,77999,1,10,0:0:0:0:
281,103,78124,1,2,0:0:0:0:
243,105,78186,1,2,0:0:0:0:
209,121,78249,1,2,0:0:0:0:
183,147,78311,1,2,0:0:0:0:
168,182,78374,1,2,0:0:0:0:
166,219,78436,1,2,0:0:0:0:
178,254,78499,1,2,0:0:0:0:
201,284,78561,1,2,0:0:0:0:
233,303,78624,1,2,0:0:0:0:
269,309,78686,1,2,0:0:0:0:
306,303,78749,5,10,0:0:0:0:
298,285,78832,1,10,0:0:0:0:
290,268,78915,1,10,0:0:0:0:
282,251,78999,1,10,0:0:0:0:
274,234,79082,1,10,0:0:0:0:
266,217,79165,1,10,0:0:0:0:
260,203,79249,2,0,P|271:153|307:166,1,100,10|0,0:0|0:0,0:0:0:0:
391,288,80624,5,0,0:0:0:0:
241,296,80999,1,0,0:0:0:0:
336,328,81249,5,0,0:0:0:0:
246,209,81624,1,0,0:0:0:0:
254,360,81999,1,0,0:0:0:0:
189,283,82249,2,0,L|110:279,2,75
345,332,83249,1,0,0:0:0:0:
385,251,83499,1,0,0:0:0:0:
427,170,83749,1,0,0:0:0:0:
467,91,83999,1,0,0:0:0:0:
197,163,84249,6,0,B|160:188|160:188|124:255,1,119.999996337891,8|0,0:0|0:0,0:0:0:0:
367,207,84499,2,0,B|404:182|404:182|440:115,1,119.999996337891,8|0,0:0|0:0,0:0:0:0:
304,319,84749,2,0,P|353:352|414:335,1,119.999996337891,8|0,0:0|0:0,0:0:0:0:
279,47,84999,2,0,P|230:14|169:31,1,119.999996337891,8|0,0:0|0:0,0:0:0:0:
199,309,85249,5,10,0:0:0:0:
474,208,85374,1,0,0:0:0:0:
217,83,85499,1,10,0:0:0:0:
81,377,85624,1,0,0:0:0:0:
410,384,85749,1,10,0:0:0:0:
340,100,85874,1,0,0:0:0:0:
125,272,85999,6,0,P|116:338|146:377,1,119.999996337891,8|0,0:0|0:0,0:0:0:0:
392,186,86249,2,0,B|418:106|418:106|411:71,1,119.999996337891,8|2,0:0|0:0,0:0:0:0:
186,131,86499,1,8,0:0:0:0:
154,360,86624,1,2,0:0:0:0:
372,268,86749,1,8,0:0:0:0:
61,210,86874,1,2,0:0:0:0:
305,378,86999,1,8,0:0:0:0:
326,101,87124,1,2,0:0:0:0:
169,203,87249,6,0,B|153:241|153:241|203:308,1,119.999996337891,8|0,0:0|0:0,0:0:0:0:
404,331,87499,1,8,0:0:0:0:
404,331,87561,1,0,0:0:0:0:
404,331,87624,1,0,0:0:0:0:
404,331,87686,1,0,0:0:0:0:
415,326,87749,1,8,0:0:0:0:
435,310,87811,1,0,0:0:0:0:
455,285,87874,1,0,0:0:0:0:
474,237,87936,1,0,0:0:0:0:
477,178,87999,1,8,0:0:0:0:
456,122,88061,1,0,0:0:0:0:
415,78,88124,1,0,0:0:0:0:
361,54,88186,1,0,0:0:0:0:
301,49,88249,6,0,P|232:64|225:197,1,225.000008583069,8|0,0:0|0:0,0:0:0:0:
306,187,88749,2,0,P|299:246|265:273,1,100
189,338,89249,2,0,L|338:359,2,150
20,175,90249,2,0,L|9:61,2,112.500004291535
131,330,91249,1,0,0:0:0:0:
264,300,91499,1,0,0:0:0:0:
372,217,91749,1,0,0:0:0:0:
435,96,91999,1,0,0:0:0:0:
436,221,92249,6,0,L|436:325,1,100,8|0,0:0|0:0,0:0:0:0:
253,227,92499,2,0,B|237:172|237:172|237:124,1,100,8|0,0:0|0:0,0:0:0:0:
348,238,92749,2,0,P|317:293|286:314,1,100,8|0,0:0|0:0,0:0:0:0:
152,234,92999,1,8,0:0:0:0:
316,168,93124,5,0,0:0:0:0:
208,340,93249,1,10,0:0:0:0:
212,78,93374,1,0,0:0:0:0:
394,356,93499,1,10,0:0:0:0:
0,281,93624,1,0,0:0:0:0:
309,100,93749,1,10,0:0:0:0:
245,384,93874,1,0,0:0:0:0:
29,151,93999,1,10,0:0:0:0:
241,238,94124,6,0,P|216:300|186:317,1,100,0|8,0:0|0:0,0:0:0:0:
116,113,94374,2,0,B|123:60|123:60|148:19,1,100,2|8,0:0|0:0,0:0:0:0:
252,170,94624,1,2,0:0:0:0:
77,297,94749,1,8,0:0:0:0:
192,85,94874,1,2,0:0:0:0:
290,288,94999,1,8,0:0:0:0:
26,348,95124,2,0,P|4:301|117:236,1,200,2|0,0:0|0:0,0:0:0:0:
77,297,95499,5,8,0:0:0:0:
179,312,95624,1,8,0:0:0:0:
287,301,95749,1,8,0:0:0:0:
387,260,95874,1,8,0:0:0:0:
463,197,95999,2,0,P|484:162|491:133,1,66.6666666666667,8|0,0:0|0:0,0:0:0:0:
490,114,96249,5,10,0:0:0:0:
489,91,96332,1,0,0:0:0:0:
488,69,96415,1,0,0:0:0:0:
487,47,96498,1,8,0:0:0:0:
486,25,96582,1,0,0:0:0:0:
485,2,96665,1,0,0:0:0:0:
473,23,96748,5,8,0:0:0:0:
462,50,96832,1,0,0:0:0:0:
446,86,96915,1,0,0:0:0:0:
419,116,96998,1,8,0:0:0:0:
384,135,97081,1,0,0:0:0:0:
345,141,97165,1,0,0:0:0:0:
305,76,97249,5,8,0:0:0:0:
271,79,97332,1,0,0:0:0:0:
238,82,97415,1,0,0:0:0:0:
205,86,97498,1,8,0:0:0:0:
172,89,97582,1,0,0:0:0:0:
138,94,97665,1,0,0:0:0:0:
83,171,97749,5,8,0:0:0:0:
116,173,97832,1,0,0:0:0:0:
149,176,97915,1,0,0:0:0:0:
182,179,97998,1,8,0:0:0:0:
215,182,98082,1,0,0:0:0:0:
249,184,98165,1,0,0:0:0:0:
314,159,98249,6,0,P|324:138|327:120,5,33.3333333333333,10|0|0|8|0|0,0:0|0:0|0:0|0:0|0:0|0:0,0:0:0:0:
244,119,98749,5,8,0:0:0:0:
225,146,98832,1,0,0:0:0:0:
212,177,98915,1,0,0:0:0:0:
204,209,98998,1,8,0:0:0:0:
202,242,99082,1,0,0:0:0:0:
206,275,99165,1,0,0:0:0:0:
231,330,99249,5,8,0:0:0:0:
258,313,99332,1,0,0:0:0:0:
290,301,99415,1,0,0:0:0:0:
323,294,99498,1,8,0:0:0:0:
355,292,99582,1,0,0:0:0:0:
389,296,99665,1,0,0:0:0:0:
433,336,99749,5,8,0:0:0:0:
446,297,99832,1,0,0:0:0:0:
454,259,99915,1,0,0:0:0:0:
459,219,99998,1,8,0:0:0:0:
459,178,100082,1,0,0:0:0:0:
454,139,100165,1,0,0:0:0:0:
401,88,100249,6,0,P|399:55|401:41,5,33.3333333333333,10|0|0|8|0|0,0:0|0:0|0:0|0:0|0:0|0:0,0:0:0:0:
456,33,100749,5,8,0:0:0:0:
422,35,100832,1,0,0:0:0:0:
389,37,100915,1,0,0:0:0:0:
356,39,100998,1,8,0:0:0:0:
322,41,101082,1,0,0:0:0:0:
289,43,101165,1,0,0:0:0:0:
254,17,101249,5,8,0:0:0:0:
226,35,101332,1,0,0:0:0:0:
210,64,101415,1,0,0:0:0:0:
208,97,101498,1,8,0:0:0:0:
222,127,101582,1,0,0:0:0:0:
247,148,101665,1,0,0:0:0:0:
331,159,101749,5,8,0:0:0:0:
331,197,101832,1,0,0:0:0:0:
325,237,101915,1,0,0:0:0:0:
312,276,101998,1,8,0:0:0:0:
292,310,102082,1,0,0:0:0:0:
265,341,102165,1,0,0:0:0:0:
226,360,102249,6,0,L|193:361,5,33.3333333333333,10|0|0|8|0|0,0:0|0:0|0:0|0:0|0:0|0:0,0:0:0:0:
188,270,102749,5,8,0:0:0:0:
188,236,102832,1,0,0:0:0:0:
175,206,102915,1,0,0:0:0:0:
153,181,102998,1,8,0:0:0:0:
133,154,103082,1,0,0:0:0:0:
125,122,103165,1,0,0:0:0:0:
189,67,103249,6,0,L|215:39,2,33.3333333333333,10|0|2,0:0|0:0|0:0,0:0:0:0:
257,108,103499,6,0,L|235:133,1,33.3333333333333,8|0,0:0|0:0,0:0:0:0:
279,201,103665,2,0,L|301:176,1,33.3333333333333,2|8,0:0|0:0,0:0:0:0:
347,250,103832,2,0,L|325:275,1,33.3333333333333,2|0,0:0|0:0,0:0:0:0:
328,369,103999,2,0,P|364:365|392:346,1,66.6666666666667,10|0,0:0|0:0,0:0:0:0:
412,304,104249,5,10,0:0:0:0:
408,254,104332,1,0,0:0:0:0:
385,210,104415,1,0,0:0:0:0:
345,181,104498,1,8,0:0:0:0:
296,171,104582,1,0,0:0:0:0:
248,183,104665,1,0,0:0:0:0:
220,226,104749,5,8,0:0:0:0:
186,261,104832,1,0,0:0:0:0:
138,266,104915,1,0,0:0:0:0:
100,236,104998,1,8,0:0:0:0:
90,188,105082,1,0,0:0:0:0:
115,147,105165,1,0,0:0:0:0:
166,143,105249,5,8,0:0:0:0:
215,140,105332,1,0,0:0:0:0:
258,116,105415,1,0,0:0:0:0:
298,85,105498,1,8,0:0:0:0:
344,67,105582,1,0,0:0:0:0:
394,70,105665,1,0,0:0:0:0:
430,104,105749,5,8,0:0:0:0:
387,130,105832,1,0,0:0:0:0:
356,169,105915,1,0,0:0:0:0:
341,216,105998,1,8,0:0:0:0:
342,266,106082,1,0,0:0:0:0:
360,312,106165,1,0,0:0:0:0:
408,324,106249,6,0,P|430:294|435:273,2,50.0000019073487,10|0|0,0:0|0:0|0:0,0:0:0:0:
411,232,106499,2,0,P|417:186|425:172,2,50.0000019073487,8|0|0,0:0|0:0|0:0,0:0:0:0:
468,155,106749,1,8,0:0:0:0:
447,110,106832,1,0,0:0:0:0:
404,86,106915,1,0,0:0:0:0:
357,111,106999,2,0,L|307:102,2,50.0000019073487,8|0|0,0:0|0:0|0:0,0:0:0:0:
384,156,107249,5,8,0:0:0:0:
350,193,107332,1,0,0:0:0:0:
309,220,107415,1,0,0:0:0:0:
262,237,107498,1,8,0:0:0:0:
212,240,107582,1,0,0:0:0:0:
163,231,107665,1,0,0:0:0:0:
120,199,107749,6,0,L|134:146,2,50.0000019073487,8|0|0,0:0|0:0|0:0,0:0:0:0:
98,90,107999,2,0,L|84:137,2,50.0000019073487,8|0|0,0:0|0:0|0:0,0:0:0:0:
139,58,108249,5,10,0:0:0:0:
186,42,108332,1,0,0:0:0:0:
235,44,108415,1,0,0:0:0:0:
281,64,108498,1,8,0:0:0:0:
316,99,108582,1,0,0:0:0:0:
336,144,108665,1,0,0:0:0:0:
304,212,108749,5,8,0:0:0:0:
337,248,108832,1,0,0:0:0:0:
383,265,108915,1,0,0:0:0:0:
432,258,108998,1,8,0:0:0:0:
472,228,109082,1,0,0:0:0:0:
493,184,109165,1,0,0:0:0:0:
452,151,109249,5,8,0:0:0:0:
441,102,109332,1,0,0:0:0:0:
412,62,109415,1,0,0:0:0:0:
369,37,109498,1,8,0:0:0:0:
320,32,109582,1,0,0:0:0:0:
273,48,109665,1,0,0:0:0:0:
300,87,109749,5,8,0:0:0:0:
327,128,109832,1,0,0:0:0:0:
341,176,109915,1,0,0:0:0:0:
341,226,109998,1,8,0:0:0:0:
327,274,110082,1,0,0:0:0:0:
300,315,110165,1,0,0:0:0:0:
258,350,110249,5,10,0:0:0:0:
249,300,110332,1,0,0:0:0:0:
240,251,110415,1,0,0:0:0:0:
232,202,110498,1,8,0:0:0:0:
223,153,110582,1,0,0:0:0:0:
214,103,110665,1,0,0:0:0:0:
271,118,110749,5,10,0:0:0:0:
279,167,110832,1,0,0:0:0:0:
287,216,110915,1,0,0:0:0:0:
296,265,110998,1,8,0:0:0:0:
304,315,111082,1,0,0:0:0:0:
313,364,111165,1,0,0:0:0:0:
398,364,111249,5,10,0:0:0:0:
427,312,111332,1,0,0:0:0:0:
443,255,111415,1,0,0:0:0:0:
443,195,111498,1,10,0:0:0:0:
427,137,111582,1,0,0:0:0:0:
396,86,111665,1,0,0:0:0:0:
359,157,111749,5,10,0:0:0:0:
324,221,111832,1,0,0:0:0:0:
249,231,111915,1,0,0:0:0:0:
198,176,111998,1,10,0:0:0:0:
214,103,112082,1,0,0:0:0:0:
284,74,112165,1,0,0:0:0:0:
344,128,112249,6,0,P|164:224|320:95,1,600.000022888185,8|0,0:0|0:0,0:0:0:0:
219,289,114749,6,0,B|5:176|90:0|185:0|220:79|220:79|246:67|246:67|256:105|256:105|316:2|405:15|401:156|401:156|427:152|427:152|415:171|415:171|416:181|383:250|256:253|256:365,1,1050.00004005432
256,192,118499,12,0,119999,0:0:0:0:
359,182,120249,6,0,B|349:231|349:231|351:284,1,100,8|0,0:0|0:0,0:0:0:0:
232,169,120499,2,0,B|241:121|241:121|240:67,1,100,8|0,0:0|0:0,0:0:0:0:
423,310,120749,2,0,P|391:353|342:360,1,100,8|0,0:0|0:0,0:0:0:0:
100,328,120999,1,8,0:0:0:0:
350,280,121124,1,0,0:0:0:0:
173,229,121249,5,8,0:0:0:0:
240,69,121374,1,0,0:0:0:0:
311,220,121499,2,0,P|360:211|405:235,1,100,8|0,0:0|0:0,0:0:0:0:
200,295,121749,2,0,P|151:296|108:259,1,100,8|0,0:0|0:0,0:0:0:0:
264,110,121999,5,8,0:0:0:0:
408,274,122124,1,0,0:0:0:0:
140,358,122249,1,10,0:0:0:0:
106,357,122311,1,2,0:0:0:0:
76,356,122374,1,2,0:0:0:0:
326,186,122499,1,8,0:0:0:0:
504,257,122624,6,0,P|511:312|482:352,1,100,0|8,0:0|0:0,0:0:0:0:
300,318,122874,1,0,0:0:0:0:
507,162,122999,1,8,0:0:0:0:
405,360,123124,1,0,0:0:0:0:
357,82,123249,1,8,0:0:0:0:
439,293,123374,1,0,0:0:0:0:
262,205,123499,5,8,0:0:0:0:
449,235,123624,1,0,0:0:0:0:
195,252,123749,1,8,0:0:0:0:
417,161,123874,1,0,0:0:0:0:
234,288,123999,1,8,0:0:0:0:
357,82,124124,1,0,0:0:0:0:
296,344,124249,6,0,P|244:368|152:280,1,200,8|0,0:0|0:0,0:0:0:0:
345,90,124624,1,0,0:0:0:0:
236,293,124749,1,8,0:0:0:0:
38,191,124874,1,0,0:0:0:0:
403,244,124999,6,0,P|396:294|366:332,1,100,8|0,0:0|0:0,0:0:0:0:
136,189,125249,1,8,0:0:0:0:
388,12,125374,1,2,0:0:0:0:
389,61,125436,1,2,0:0:0:0:
390,111,125499,1,10,0:0:0:0:
189,284,125624,6,0,P|138:209|193:128,1,200
403,244,125999,1,8,0:0:0:0:
221,207,126124,1,0,0:0:0:0:
474,215,126249,2,0,B|482:265|482:265|446:310,1,100,10|0,0:0|0:0,0:0:0:0:
257,276,126499,5,8,0:0:0:0:
332,115,126624,1,0,0:0:0:0:
309,325,126749,2,0,P|268:349|207:331,1,100,10|0,0:0|0:0,0:0:0:0:
169,190,126999,1,8,0:0:0:0:
365,177,127124,1,0,0:0:0:0:
257,276,127249,1,10,0:0:0:0:
332,115,127374,1,0,0:0:0:0:
490,209,127499,5,10,0:0:0:0:
494,221,127561,1,0,0:0:0:0:
496,235,127624,1,0,0:0:0:0:
497,248,127686,1,0,0:0:0:0:
496,261,127749,1,10,0:0:0:0:
495,276,127811,1,0,0:0:0:0:
488,292,127874,1,0,0:0:0:0:
474,313,127936,1,0,0:0:0:0:
453,329,127999,1,10,0:0:0:0:
418,344,128061,1,0,0:0:0:0:
369,350,128124,1,0,0:0:0:0:
317,343,128186,1,0,0:0:0:0:
259,320,128249,6,0,P|211:291|154:213,1,150.000005722046,10|0,0:0|0:0,0:0:0:0:
412,109,128499,2,0,B|461:130|461:130|507:140,1,100,8|0,0:0|0:0,0:0:0:0:
352,267,128749,2,0,B|302:245|302:245|254:235,1,100,8|0,0:0|0:0,0:0:0:0:
380,182,128999,1,8,0:0:0:0:
414,382,129124,5,0,0:0:0:0:
194,299,129249,1,8,0:0:0:0:
265,155,129374,1,0,0:0:0:0:
220,377,129499,1,8,0:0:0:0:
142,189,129624,1,0,0:0:0:0:
352,267,129749,1,8,0:0:0:0:
153,369,129874,1,0,0:0:0:0:
118,180,129999,5,10,0:0:0:0:
133,132,130061,1,0,0:0:0:0:
164,93,130124,1,0,0:0:0:0:
207,67,130186,1,0,0:0:0:0:
255,58,130249,1,10,0:0:0:0:
380,182,130374,1,0,0:0:0:0:
131,258,130499,6,0,P|74:243|46:203,1,100,8|0,0:0|0:0,0:0:0:0:
340,118,130749,2,0,P|389:106|436:130,1,100,8|0,0:0|0:0,0:0:0:0:
222,239,130999,1,8,0:0:0:0:
324,146,131124,1,0,0:0:0:0:
198,255,131249,2,0,L|95:289,1,100
396,105,131499,2,0,P|439:128|458:178,1,100,8|0,0:0|0:0,0:0:0:0:
242,377,131749,2,0,P|91:342|81:215,1,300,8|0,0:0|0:0,0:0:0:0:
183,192,132249,5,8,0:0:0:0:
229,99,132374,1,0,0:0:0:0:
411,83,132499,5,8,0:0:0:0:
359,174,132624,1,0,0:0:0:0:
103,184,132749,5,8,0:0:0:0:
123,288,132874,1,0,0:0:0:0:
371,247,132999,5,8,0:0:0:0:
351,351,133124,1,0,0:0:0:0:
195,234,133249,6,0,P|153:190|196:90,1,179.999994506836,8|0,0:0|0:0,0:0:0:0:
210,126,133499,2,0,B|275:177|275:177|308:184,1,112.500004291535
300,222,133749,2,0,P|348:244|452:213,1,165.000005035401,8|0,0:0|0:0,0:0:0:0:
491,207,133999,2,0,B|458:201|458:201|401:157,1,100
216,194,134249,5,10,0:0:0:0:
376,344,134374,1,0,0:0:0:0:
328,166,134499,1,8,0:0:0:0:
144,322,134624,1,0,0:0:0:0:
272,204,134749,5,10,0:0:0:0:
281,194,134811,1,0,0:0:0:0:
289,184,134874,1,0,0:0:0:0:
295,174,134936,1,0,0:0:0:0:
301,163,134999,1,8,0:0:0:0:
306,151,135061,1,0,0:0:0:0:
310,139,135124,1,0,0:0:0:0:
313,127,135186,1,0,0:0:0:0:
314,113,135249,1,10,0:0:0:0:
314,93,135311,1,0,0:0:0:0:
306,71,135374,1,2,0:0:0:0:
289,51,135436,1,0,0:0:0:0:
258,31,135499,5,0,0:0:0:0:
211,23,135561,1,0,0:0:0:0:
154,37,135624,1,2,0:0:0:0:
111,91,135686,1,0,0:0:0:0:
98,160,135749,2,0,L|43:168,1,50
119,230,135874,2,0,L|68:249,1,50,2|0,0:0|0:0,0:0:0:0:
163,290,135999,2,0,L|115:327,1,50,2|0,0:0|0:0,0:0:0:0:
227,324,136124,2,0,L|199:369,1,50
300,326,136249,6,0,P|391:187|237:211,1,400,10|0,0:0|0:0,0:0:0:0:
321,238,137749,1,2,0:0:0:0:
174,196,138249,5,2,0:0:0:0:
416,273,139249,2,0,B|436:174,1,100,2|2,0:0|0:0,0:0:0:0:
358,107,139999,1,2,0:0:0:0:
254,124,140249,1,2,0:0:0:0:
327,222,141249,5,2,0:0:0:0:
223,261,141749,1,2,0:0:0:0:
119,302,142249,1,2,0:0:0:0:
413,305,143249,1,2,0:0:0:0:
413,305,143749,5,2,0:0:0:0:
413,305,144249,1,2,0:0:0:0:
171,82,146249,5,2,0:0:0:0:
171,82,146749,5,2,0:0:0:0:
129,153,146999,1,2,0:0:0:0:
129,235,147249,1,2,0:0:0:0:
170,307,147499,1,2,0:0:0:0:
241,348,147749,1,2,0:0:0:0:
323,348,147999,1,2,0:0:0:0:
395,307,148249,1,2,0:0:0:0:
275,162,149249,6,0,B|255:117|255:117|210:89,2,100,2|2|2,0:0|0:0|0:0,0:0:0:0:
224,240,151249,5,0,0:0:0:0:
240,224,151311,1,0,0:0:0:0:
256,240,151374,1,0,0:0:0:0:
272,224,151436,1,0,0:0:0:0:
288,240,151499,1,0,0:0:0:0:
304,224,151561,1,0,0:0:0:0:
320,240,151624,1,0,0:0:0:0:
336,224,151686,1,0,0:0:0:0:
352,240,151749,6,10,P|406:212|432:176,1,100
262,159,165249,5,0,0:0:0:0:
323,171,165749,1,0,0:0:0:0:
381,179,166249,6,0,L|366:237,1,50
329,118,166749,2,0,L|341:69,1,50
262,159,167249,2,0,L|247:217,1,50
210,98,167749,2,0,L|222:49,1,50
332,50,168499,5,8,0:0:0:0:
410,182,168624,1,0,0:0:0:0:
219,143,168749,2,0,L|141:149,2,75.0000028610231,8|0|8,0:0|0:0|0:0,0:0:0:0:
439,103,169124,2,0,P|489:141|487:222,1,150.000005722046
303,176,169499,1,8,0:0:0:0:
138,79,169624,6,0,B|82:98|82:98|67:116,1,75.0000028610231,0|8,0:0|0:0,0:0:0:0:
100,308,169874,1,0,0:0:0:0:
219,143,169999,2,0,L|282:65,1,100,8|0,0:0|0:0,0:0:0:0:
219,143,170499,5,8,0:0:0:0:
286,248,170624,1,0,0:0:0:0:
289,119,170749,2,0,P|268:68|253:50,2,75.0000028610231,8|0|8,0:0|0:0|0:0,0:0:0:0:
211,272,171124,2,0,B|185:305|185:305|155:328,1,75.0000028610231,0|8,0:0|0:0,0:0:0:0:
312,341,171374,5,0,0:0:0:0:
422,268,171499,1,8,0:0:0:0:
461,146,171624,2,0,L|461:69,2,75.0000028610231,0|8|0,0:0|0:0|0:0,0:0:0:0:
497,275,171999,2,0,P|476:324|431:343,1,100,8|0,0:0|0:0,0:0:0:0:
170,168,172499,5,8,0:0:0:0:
213,74,172624,1,0,0:0:0:0:
275,159,172749,1,8,0:0:0:0:
143,100,172874,1,0,0:0:0:0:
322,98,172999,2,0,P|362:119|374:151,1,75.0000028610231,8|0,0:0|0:0,0:0:0:0:
318,306,173249,2,0,B|296:213|296:213|309:160,1,150.000005722046,8|0,0:0|0:0,0:0:0:0:
426,240,173624,5,0,0:0:0:0:
200,273,173749,1,8,0:0:0:0:
269,55,173874,2,0,P|312:34|347:37,1,75.0000028610231,0|8,0:0|0:0,0:0:0:0:
339,260,174124,1,0,0:0:0:0:
146,175,174249,6,0,B|105:136|105:136|78:89,1,100,10|0,0:0|0:0,0:0:0:0:
247,131,174499,2,0,B|286:168|286:168|311:210,1,100,8|0,0:0|0:0,0:0:0:0:
200,273,174749,6,0,L|134:320,1,75.0000028610231,10|0,0:0|0:0,0:0:0:0:
178,64,174999,2,0,L|243:24,1,75.0000028610231,8|0,0:0|0:0,0:0:0:0:
256,329,175249,6,0,B|224:331|224:331|186:351,1,59.9999981689454,10|0,0:0|0:0,0:0:0:0:
339,260,175499,2,0,B|369:255|369:255|392:234,1,59.9999981689454,8|0,0:0|0:0,0:0:0:0:
195,188,175749,2,0,P|156:152|149:100,1,100,10|0,0:0|0:0,0:0:0:0:
238,110,176249,6,0,L|309:144,1,75.0000028610231,8|0,0:0|0:0,0:0:0:0:
442,304,176499,1,8,0:0:0:0:
511,159,176624,1,0,0:0:0:0:
318,234,176749,2,0,L|245:270,1,75.0000028610231,8|0,0:0|0:0,0:0:0:0:
357,303,176999,2,0,P|393:208|366:171,1,150.000005722046,8|0,0:0|0:0,0:0:0:0:
247,299,177374,5,0,0:0:0:0:
389,134,177499,1,8,0:0:0:0:
231,96,177624,1,0,0:0:0:0:
355,235,177749,1,8,0:0:0:0:
434,86,177874,1,0,0:0:0:0:
223,174,177999,1,8,0:0:0:0:
412,274,178124,1,0,0:0:0:0:
506,103,178249,6,0,P|492:37|411:17,1,150.000005722046,8|0,0:0|0:0,0:0:0:0:
207,196,178624,2,0,L|210:271,1,75.0000028610231,0|8,0:0|0:0,0:0:0:0:
386,364,178874,1,0,0:0:0:0:
293,184,178999,2,0,P|305:107|366:83,1,150.000005722046,8|0,0:0|0:0,0:0:0:0:
298,263,179374,5,0,0:0:0:0:
251,36,179499,1,8,0:0:0:0:
360,156,179624,1,0,0:0:0:0:
169,142,179749,1,8,0:0:0:0:
469,184,179874,1,0,0:0:0:0:
127,80,179999,2,0,P|101:108|93:151,1,75.0000028610231,8|0,0:0|0:0,0:0:0:0:
259,362,180249,2,0,P|298:365|335:343,1,75.0000028610231,8|0,0:0|0:0,0:0:0:0:
381,139,180499,5,8,0:0:0:0:
283,295,180624,1,0,0:0:0:0:
510,372,180749,1,8,0:0:0:0:
445,172,180874,1,0,0:0:0:0:
273,286,180999,1,8,0:0:0:0:
437,375,181124,1,0,0:0:0:0:
273,220,181249,5,8,0:0:0:0:
163,338,181374,1,0,0:0:0:0:
434,252,181499,1,8,0:0:0:0:
218,135,181624,1,0,0:0:0:0:
296,310,181749,1,8,0:0:0:0:
386,177,181874,5,2,0:0:0:0:
373,138,181936,1,2,0:0:0:0:
351,104,181999,1,10,0:0:0:0:
321,77,182061,1,2,0:0:0:0:
286,58,182124,1,2,0:0:0:0:
247,49,182186,1,2,0:0:0:0:
206,50,182249,1,10,0:0:0:0:
167,60,182311,1,2,0:0:0:0:
133,81,182374,1,2,0:0:0:0:
104,109,182436,1,2,0:0:0:0:
83,143,182499,1,10,0:0:0:0:
72,182,182561,1,2,0:0:0:0:
71,222,182624,1,2,0:0:0:0:
80,262,182686,1,2,0:0:0:0:
100,295,182749,5,10,0:0:0:0:
121,277,182832,1,10,0:0:0:0:
143,260,182915,1,10,0:0:0:0:
165,243,182999,1,10,0:0:0:0:
187,226,183082,1,10,0:0:0:0:
209,209,183165,1,10,0:0:0:0:
230,191,183249,1,10,0:0:0:0:
256,192,183332,12,0,186249,0:0:0:0:
350,253,189749,6,0,B|359:224|359:224|287:244,1,100,8|0,0:0|0:0,0:0:0:0:
124,197,190249,6,0,B|140:138|140:138|194:107,1,119.999996337891,8|0,0:0|0:0,0:0:0:0:
437,86,190499,2,0,B|421:145|421:145|367:176,1,119.999996337891,8|0,0:0|0:0,0:0:0:0:
203,203,190749,1,8,0:0:0:0:
102,381,190874,1,0,0:0:0:0:
387,311,190999,5,8,0:0:0:0:
357,95,191124,1,0,0:0:0:0:
127,214,191249,6,0,P|161:267|224:276,1,119.999996337891,8|0,0:0|0:0,0:0:0:0:
138,62,191499,2,0,L|72:15,1,80,8|0,0:0|0:0,0:0:0:0:
202,357,191749,2,0,B|265:331|265:331|289:281,1,119.999996337891,8|0,0:0|0:0,0:0:0:0:
214,112,191999,1,8,0:0:0:0:
95,322,192124,1,0,0:0:0:0:
439,379,192249,5,10,0:0:0:0:
126,194,192374,1,0,0:0:0:0:
262,384,192499,1,10,0:0:0:0:
452,138,192624,1,0,0:0:0:0:
206,190,192749,1,10,0:0:0:0:
472,267,192874,1,0,0:0:0:0:
214,112,192999,5,10,0:0:0:0:
196,353,193124,1,0,0:0:0:0:
303,153,193249,2,0,P|311:93|281:41,1,119.999996337891,8|0,0:0|0:0,0:0:0:0:
206,177,193499,2,0,L|141:284,1,119.999996337891,8|0,0:0|0:0,0:0:0:0:
14,312,193749,6,0,P|4:252|34:200,1,119.999996337891,8|0,0:0|0:0,0:0:0:0:
214,112,193999,2,0,B|206:178|206:178|231:232,1,119.999996337891,8|0,0:0|0:0,0:0:0:0:
352,354,194249,1,8,0:0:0:0:
391,132,194374,1,0,0:0:0:0:
132,212,194499,1,8,0:0:0:0:
446,314,194624,1,0,0:0:0:0:
117,130,194749,6,0,P|63:161|50:227,1,119.999996337891,8|0,0:0|0:0,0:0:0:0:
352,354,194999,1,8,0:0:0:0:
214,112,195124,1,0,0:0:0:0:
65,363,195249,5,10,0:0:0:0:
469,144,195374,1,0,0:0:0:0:
127,64,195499,1,10,0:0:0:0:
178,328,195624,1,0,0:0:0:0:
390,78,195749,1,10,0:0:0:0:
14,213,195874,1,0,0:0:0:0:
346,280,195999,5,10,0:0:0:0:
310,7,196124,1,0,0:0:0:0:
277,321,196249,2,0,P|331:365|382:354,1,119.999996337891,8|2,0:0|0:0,0:0:0:0:
506,181,196499,1,8,0:0:0:0:
100,129,196624,1,2,0:0:0:0:
208,285,196749,6,0,B|247:265|247:265|270:176,1,119.999996337891,8|2,0:0|0:0,0:0:0:0:
127,64,196999,1,8,0:0:0:0:
390,78,197124,1,2,0:0:0:0:
70,124,197249,2,0,P|46:68|70:11,1,119.999996337891,8|0,0:0|0:0,0:0:0:0:
390,78,197499,5,8,0:0:0:0:
405,97,197561,1,0,0:0:0:0:
417,119,197624,1,0,0:0:0:0:
424,144,197686,1,0,0:0:0:0:
426,169,197749,1,8,0:0:0:0:
420,213,197811,1,0,0:0:0:0:
402,254,197874,1,0,0:0:0:0:
372,287,197936,1,0,0:0:0:0:
334,310,197999,1,8,0:0:0:0:
280,323,198061,1,0,0:0:0:0:
206,303,198123,1,0,0:0:0:0:
171,235,198186,1,0,0:0:0:0:
198,163,198249,6,0,B|254:110|254:110|304:112,1,119.999996337891,8|0,0:0|0:0,0:0:0:0:
206,303,198499,2,0,B|150:356|150:356|100:354,1,119.999996337891,8|0,0:0|0:0,0:0:0:0:
116,192,198749,1,8,0:0:0:0:
462,333,198874,1,0,0:0:0:0:
281,43,198999,1,8,0:0:0:0:
193,384,199124,1,0,0:0:0:0:
112,40,199249,6,0,P|174:38|211:81,1,119.999996337891,8|0,0:0|0:0,0:0:0:0:
143,106,199499,1,8,0:0:0:0:
369,115,199624,1,0,0:0:0:0:
180,209,199749,1,8,0:0:0:0:
251,21,199874,1,0,0:0:0:0:
244,250,199999,6,0,B|239:287|239:287|264:368,1,119.999996337891,8|0,0:0|0:0,0:0:0:0:
192,162,200249,1,8,0:0:0:0:
310,21,200374,1,0,0:0:0:0:
9,132,200499,1,8,0:0:0:0:
363,299,200624,1,0,0:0:0:0:
260,86,200749,2,0,L|164:8,1,119.999996337891,8|0,0:0|0:0,0:0:0:0:
357,376,200999,2,0,P|415:355|439:299,1,119.999996337891,8|0,0:0|0:0,0:0:0:0:
290,111,201249,5,8,0:0:0:0:
212,314,201374,1,0,0:0:0:0:
229,96,201499,1,8,0:0:0:0:
291,310,201624,1,0,0:0:0:0:
332,90,201749,1,8,0:0:0:0:
211,369,201874,2,0,P|151:382|105:339,1,119.999996337891,0|8,0:0|0:0,0:0:0:0:
258,185,202124,5,0,0:0:0:0:
422,37,202249,2,0,P|472:76|472:128,1,119.999996337891,8|0,0:0|0:0,0:0:0:0:
326,310,202499,2,0,L|365:196,1,119.999996337891,8|0,0:0|0:0,0:0:0:0:
498,187,202749,1,8,0:0:0:0:
309,212,202874,1,0,0:0:0:0:
342,7,202999,5,8,0:0:0:0:
359,288,203124,1,0,0:0:0:0:
124,193,203249,1,10,0:0:0:0:
280,36,203374,1,0,0:0:0:0:
234,367,203499,1,10,0:0:0:0:
0,172,203624,1,0,0:0:0:0:
511,296,203749,5,10,0:0:0:0:
361,29,203874,1,0,0:0:0:0:
190,173,203999,1,10,0:0:0:0:
396,97,204124,1,0,0:0:0:0:
111,128,204249,2,0,P|105:199|242:250,1,239.999992675781,8|8,0:0|0:0,0:0:0:0:
343,30,204624,5,2,0:0:0:0:
193,171,204749,1,8,0:0:0:0:
417,300,204874,1,2,0:0:0:0:
287,62,204999,1,8,0:0:0:0:
128,263,205124,1,2,0:0:0:0:
381,155,205249,5,8,0:0:0:0:
64,78,205374,1,2,0:0:0:0:
286,173,205499,2,0,B|257:106|257:106|206:88,1,119.999996337891,8|0,0:0|0:0,0:0:0:0:
128,263,205749,2,0,B|105:305|105:305|129:373,1,119.999996337891,8|0,0:0|0:0,0:0:0:0:
314,331,205999,1,8,0:0:0:0:
146,108,206124,1,0,0:0:0:0:
214,242,206249,5,10,0:0:0:0:
263,238,206332,1,0,0:0:0:0:
313,243,206415,1,0,0:0:0:0:
361,257,206499,1,8,0:0:0:0:
406,278,206582,1,0,0:0:0:0:
447,307,206665,1,0,0:0:0:0:
478,265,206749,5,8,0:0:0:0:
501,220,206832,1,0,0:0:0:0:
506,171,206915,1,0,0:0:0:0:
492,123,206999,1,8,0:0:0:0:
460,85,207082,1,0,0:0:0:0:
416,62,207165,1,0,0:0:0:0:
362,98,207249,6,0,L|381:144,2,50.0000019073487,8|0|0,0:0|0:0|0:0,0:0:0:0:
327,179,207499,2,0,L|346:225,2,50.0000019073487,8|0|0,0:0|0:0|0:0,0:0:0:0:
403,195,207749,2,0,L|425:245,2,50.0000019073487,8|0|0,0:0|0:0|0:0,0:0:0:0:
359,278,207999,1,8,0:0:0:0:
310,287,208082,1,0,0:0:0:0:
263,304,208165,6,0,L|213:317,1,50.0000019073487,0|10,0:0|0:0,0:0:0:0:
144,240,208332,1,0,0:0:0:0:
193,233,208415,1,0,0:0:0:0:
243,226,208499,1,8,0:0:0:0:
292,218,208582,1,0,0:0:0:0:
342,211,208665,1,0,0:0:0:0:
417,171,208749,5,8,0:0:0:0:
370,154,208832,1,0,0:0:0:0:
320,154,208915,1,0,0:0:0:0:
270,161,208999,1,8,0:0:0:0:
221,170,209082,1,0,0:0:0:0:
171,175,209165,1,0,0:0:0:0:
117,232,209249,5,8,0:0:0:0:
78,201,209332,1,0,0:0:0:0:
81,153,209415,1,0,0:0:0:0:
122,128,209499,1,8,0:0:0:0:
170,140,209582,1,0,0:0:0:0:
204,176,209665,1,0,0:0:0:0:
265,211,209749,5,8,0:0:0:0:
285,256,209832,1,0,0:0:0:0:
307,301,209915,1,0,0:0:0:0:
338,340,209999,1,8,0:0:0:0:
383,361,210082,1,0,0:0:0:0:
433,358,210165,1,0,0:0:0:0:
466,315,210249,6,0,L|427:284,2,50.0000019073487,10|0|0,0:0|0:0|0:0,0:0:0:0:
440,216,210499,2,0,L|486:249,2,50.0000019073487
414,171,210749,5,8,0:0:0:0:
370,195,210832,1,0,0:0:0:0:
330,225,210915,1,0,0:0:0:0:
296,262,210999,1,8,0:0:0:0:
268,303,211082,1,0,0:0:0:0:
247,349,211165,1,0,0:0:0:0:
204,373,211249,6,0,P|175:380|150:379,5,50.0000019073487,8|0|0|8|0|0,0:0|0:0|0:0|0:0|0:0|0:0,0:0:0:0:
103,381,211749,5,8,0:0:0:0:
141,349,211832,1,0,0:0:0:0:
172,310,211915,1,0,0:0:0:0:
193,264,211999,1,8,0:0:0:0:
203,216,212082,1,0,0:0:0:0:
201,166,212165,2,0,L|195:111,1,50.0000019073487,0|10,0:0|0:0,0:0:0:0:
344,87,212332,5,0,0:0:0:0:
331,135,212415,1,0,0:0:0:0:
305,177,212498,1,8,0:0:0:0:
268,210,212582,1,0,0:0:0:0:
221,230,212665,1,0,0:0:0:0:
170,239,212749,5,10,0:0:0:0:
165,189,212832,1,0,0:0:0:0:
176,140,212915,1,0,0:0:0:0:
203,98,212999,1,8,0:0:0:0:
241,67,213082,1,0,0:0:0:0:
287,49,213165,1,0,0:0:0:0:
335,52,213249,6,0,L|385:74,5,50.0000019073487,10|0|2|0|0|2,0:0|0:0|0:0|0:0|0:0|0:0,0:0:0:0:
414,165,213749,2,0,L|370:190,1,50.0000019073487,8|2,0:0|0:0,0:0:0:0:
283,213,213915,2,0,L|311:263,1,50.0000019073487,0|10,0:0|0:0,0:0:0:0:
342,342,214082,2,0,L|296:372,1,50.0000019073487
206,352,214249,5,10,0:0:0:0:
169,319,214332,1,0,0:0:0:0:
164,270,214415,1,0,0:0:0:0:
162,220,214499,1,8,0:0:0:0:
137,177,214582,1,0,0:0:0:0:
106,138,214665,1,0,0:0:0:0:
90,92,214749,5,8,0:0:0:0:
108,46,214832,1,0,0:0:0:0:
153,26,214915,1,0,0:0:0:0:
201,37,214999,1,8,0:0:0:0:
231,75,215082,1,0,0:0:0:0:
244,123,215165,1,0,0:0:0:0:
227,166,215248,5,8,0:0:0:0:
223,215,215331,1,0,0:0:0:0:
234,264,215415,1,0,0:0:0:0:
260,306,215498,1,8,0:0:0:0:
297,340,215581,1,0,0:0:0:0:
342,361,215665,1,0,0:0:0:0:
393,362,215749,5,8,0:0:0:0:
363,321,215832,1,0,0:0:0:0:
348,274,215915,1,0,0:0:0:0:
349,224,215999,1,8,0:0:0:0:
367,178,216082,1,0,0:0:0:0:
398,139,216165,1,0,0:0:0:0:
428,98,216249,5,10,0:0:0:0:
386,70,216332,1,0,0:0:0:0:
339,53,216415,1,0,0:0:0:0:
290,47,216499,1,8,0:0:0:0:
240,52,216582,1,0,0:0:0:0:
193,70,216665,1,0,0:0:0:0:
155,102,216749,6,0,L|106:138,2,50.0000019073487,8|0|0,0:0|0:0|0:0,0:0:0:0:
132,180,216999,2,0,L|92:210,2,50.0000019073487,8|0|0,0:0|0:0|0:0,0:0:0:0:
88,262,217249,5,8,0:0:0:0:
108,307,217332,1,0,0:0:0:0:
142,343,217415,1,0,0:0:0:0:
185,368,217499,1,8,0:0:0:0:
234,378,217582,1,0,0:0:0:0:
284,373,217665,1,0,0:0:0:0:
331,354,217749,5,8,0:0:0:0:
293,321,217832,1,0,0:0:0:0:
267,278,217915,1,0,0:0:0:0:
256,230,217999,1,8,0:0:0:0:
260,180,218082,1,0,0:0:0:0:
280,134,218165,1,0,0:0:0:0:
318,106,218249,6,0,L|367:88,5,50.0000019073487,8|0|0|0|0|0,0:0|0:0|0:0|0:0|0:0|0:0,0:0:0:0:
412,109,218749,5,8,0:0:0:0:
418,158,218832,1,0,0:0:0:0:
409,207,218915,1,0,0:0:0:0:
386,251,218999,1,8,0:0:0:0:
351,286,219082,1,0,0:0:0:0:
307,310,219165,1,0,0:0:0:0:
258,301,219249,5,8,0:0:0:0:
208,292,219332,1,0,0:0:0:0:
158,293,219415,1,0,0:0:0:0:
110,305,219499,1,8,0:0:0:0:
65,326,219582,1,0,0:0:0:0:
25,356,219665,1,0,0:0:0:0:
47,313,219749,5,8,0:0:0:0:
72,269,219832,1,0,0:0:0:0:
87,222,219915,1,0,0:0:0:0:
92,172,219999,1,8,0:0:0:0:
87,123,220082,1,0,0:0:0:0:
70,76,220165,1,0,0:0:0:0:
43,33,220249,6,0,L|5:1,2,50.0000019073487,10|0|0,0:0|0:0|0:0,0:0:0:0:
99,76,220499,2,0,L|61:44,2,50.0000019073487,10|0|0,0:0|0:0|0:0,0:0:0:0:
154,118,220749,2,0,L|116:86,2,50.0000019073487,10|0|0,0:0|0:0|0:0,0:0:0:0:
205,158,220999,2,0,L|167:126,2,50.0000019073487,10|0|0,0:0|0:0|0:0,0:0:0:0:
242,191,221249,5,10,0:0:0:0:
282,221,221332,1,0,0:0:0:0:
321,252,221415,1,0,0:0:0:0:
358,290,221499,6,0,L|397:326,1,50.0000019073487,10|0,0:0|0:0,0:0:0:0:
213,310,221666,2,0,L|165:273,1,50.0000019073487,0|10,0:0|0:0,0:0:0:0:
275,127,221832,2,0,L|318:163,1,50.0000019073487
175,231,221999,2,0,P|141:211|116:183,1,66.6666666666667,10|0,0:0|0:0,0:0:0:0:
112,138,222249,5,10,0:0:0:0:
132,75,222332,1,0,0:0:0:0:
181,31,222415,1,0,0:0:0:0:
246,18,222499,1,10,0:0:0:0:
308,39,222582,1,0,0:0:0:0:
351,89,222665,1,0,0:0:0:0:
287,135,222749,5,10,0:0:0:0:
283,200,222832,1,0,0:0:0:0:
319,255,222915,1,0,0:0:0:0:
380,278,222999,1,10,0:0:0:0:
443,260,223082,1,0,0:0:0:0:
483,209,223165,1,0,0:0:0:0:
453,137,223249,5,10,0:0:0:0:
388,154,223332,1,0,0:0:0:0:
330,186,223415,1,0,0:0:0:0:
279,229,223499,1,10,0:0:0:0:
240,283,223582,1,0,0:0:0:0:
213,344,223665,1,0,0:0:0:0:
155,315,223749,5,10,0:0:0:0:
106,269,223832,1,0,0:0:0:0:
77,209,223915,1,0,0:0:0:0:
71,143,223999,1,10,0:0:0:0:
87,79,224082,1,0,0:0:0:0:
125,25,224165,1,0,0:0:0:0:
186,2,224249,6,0,L|235:3,5,50.0000019073487,10|0|0|10|0|0,0:0|0:0|0:0|0:0|0:0|0:0,0:0:0:0:
132,39,224749,5,10,0:0:0:0:
81,81,224832,1,0,0:0:0:0:
57,142,224915,1,0,0:0:0:0:
67,207,224999,1,10,0:0:0:0:
108,259,225082,1,0,0:0:0:0:
169,284,225165,1,0,0:0:0:0:
145,239,225249,5,10,0:0:0:0:
99,211,225332,1,0,0:0:0:0:
50,214,225415,1,0,0:0:0:0:
11,246,225499,1,10,0:0:0:0:
0,296,225582,1,0,0:0:0:0:
22,342,225665,1,0,0:0:0:0:
78,305,225749,5,10,0:0:0:0:
132,265,225832,1,0,0:0:0:0:
186,226,225915,1,0,0:0:0:0:
240,187,225999,1,10,0:0:0:0:
294,148,226082,1,0,0:0:0:0:
348,109,226165,1,0,0:0:0:0:
401,75,226249,6,0,L|444:44,2,50.0000019073487,10|0|0,0:0|0:0|0:0,0:0:0:0:
398,188,226499,2,0,L|402:138,2,50.0000019073487,10|0|0,0:0|0:0|0:0,0:0:0:0:
385,251,226749,5,10,0:0:0:0:
355,310,226832,1,0,0:0:0:0:
302,349,226915,1,0,0:0:0:0:
237,361,226999,1,10,0:0:0:0:
174,342,227082,1,0,0:0:0:0:
126,297,227165,1,0,0:0:0:0:
88,242,227249,6,0,L|65:197,2,50.0000019073487,10|0|0,0:0|0:0|0:0,0:0:0:0:
144,184,227499,2,0,L|121:139,2,50.0000019073487,10|0|0,0:0|0:0|0:0,0:0:0:0:
203,130,227749,2,0,L|180:85,2,50.0000019073487,10|0|0,0:0|0:0|0:0,0:0:0:0:
262,76,227999,2,0,L|239:31,2,50.0000019073487,10|0|0,0:0|0:0|0:0,0:0:0:0:
322,168,228249,6,0,P|309:231|282:273,1,100,8|0,0:0|0:0,0:0:0:0:
162,90,228499,2,0,P|197:51|245:31,1,100,8|0,0:0|0:0,0:0:0:0:
380,124,228749,2,0,B|424:158|424:158|446:212,1,100,8|0,0:0|0:0,0:0:0:0:
116,190,228999,2,0,B|71:149|71:149|58:97,1,100,8|0,0:0|0:0,0:0:0:0:
244,176,229249,5,10,0:0:0:0:
244,176,229311,1,0,0:0:0:0:
244,176,229374,2,0,L|220:132,1,50
206,263,229499,2,0,L|239:328,1,66.6666666666667,10|0,0:0|0:0,0:0:0:0:
314,129,229665,2,0,L|281:67,1,66.6666666666667,0|10,0:0|0:0,0:0:0:0:
100,99,229832,2,0,L|132:159,1,66.6666666666667
300,295,229999,2,0,P|340:308|378:307,1,75,10|0,0:0|0:0,0:0:0:0:
437,232,230249,5,8,0:0:0:0:
437,152,230374,1,8,0:0:0:0:
403,79,230499,1,8,0:0:0:0:
337,32,230624,1,8,0:0:0:0:
212,159,230749,5,8,0:0:0:0:
212,239,230874,1,8,0:0:0:0:
246,312,230999,1,8,0:0:0:0:
312,359,231124,1,8,0:0:0:0:
345,211,231249,6,0,B|320:161|320:161|285:128,1,100,8|8,0:0|0:0,0:0:0:0:
136,259,231499,2,0,B|161:309|161:309|196:342,1,100,8|8,0:0|0:0,0:0:0:0:
405,175,231749,2,0,L|369:81,1,100,8|8,0:0|0:0,0:0:0:0:
65,259,231999,2,0,L|101:353,1,100,8|8,0:0|0:0,0:0:0:0:
335,294,232249,5,8,0:0:0:0:
299,200,232374,1,8,0:0:0:0:
326,103,232499,1,8,0:0:0:0:
281,13,232624,1,8,0:0:0:0:
108,191,232749,5,8,0:0:0:0:
202,227,232874,1,8,0:0:0:0:
299,200,232999,1,8,0:0:0:0:
389,245,233124,1,8,0:0:0:0:
252,154,233249,6,0,B|196:150|196:150|145:160,1,100,8|8,0:0|0:0,0:0:0:0:
338,313,233499,2,0,B|394:317|394:317|445:307,1,100,8|8,0:0|0:0,0:0:0:0:
148,50,233749,2,0,L|44:31,1,100,8|8,0:0|0:0,0:0:0:0:
249,202,233999,1,8,0:0:0:0:
341,20,234124,5,0,0:0:0:0:
342,12,234186,1,0,0:0:0:0:
343,5,234249,2,0,L|361:112,1,100,8|8,0:0|0:0,0:0:0:0:
410,165,234499,1,8,0:0:0:0:
379,239,234624,1,8,0:0:0:0:
418,308,234749,1,8,0:0:0:0:
371,373,234874,1,8,0:0:0:0:
147,303,234999,5,8,0:0:0:0:
346,189,235124,1,0,0:0:0:0:
369,180,235186,1,0,0:0:0:0:
392,172,235249,1,8,0:0:0:0:
272,119,235374,5,8,0:0:0:0:
142,108,235499,1,8,0:0:0:0:
266,211,235624,5,8,0:0:0:0:
94,212,235749,1,8,0:0:0:0:
279,302,235874,5,8,0:0:0:0:
65,325,235999,1,8,0:0:0:0:
350,237,236124,5,8,0:0:0:0:
294,142,236249,1,8,0:0:0:0:
250,165,236311,1,8,0:0:0:0:
223,207,236374,1,8,0:0:0:0:
219,256,236436,1,8,0:0:0:0:
238,301,236499,1,8,0:0:0:0:
277,332,236561,1,8,0:0:0:0:
326,341,236624,1,8,0:0:0:0:
380,332,236686,5,8,0:0:0:0:
370,282,236748,1,8,0:0:0:0:
350,237,236811,1,8,0:0:0:0:
318,199,236873,1,8,0:0:0:0:
278,169,236936,1,8,0:0:0:0:
247,158,236998,1,8,0:0:0:0:
226,157,237061,1,8,0:0:0:0:
211,159,237124,1,8,0:0:0:0:
196,165,237186,1,8,0:0:0:0:
186,172,237249,5,8,0:0:0:0:
185,183,237311,1,8,0:0:0:0:
191,192,237374,1,8,0:0:0:0:
201,193,237436,1,8,0:0:0:0:
209,187,237499,1,8,0:0:0:0:
211,178,237561,1,8,0:0:0:0:
205,169,237624,1,8,0:0:0:0:
195,168,237686,1,8,0:0:0:0:
166,185,237749,5,8,0:0:0:0:
163,240,237811,1,8,0:0:0:0:
191,289,237874,1,8,0:0:0:0:
238,319,237936,1,8,0:0:0:0:
294,319,237999,1,8,0:0:0:0:
343,292,238061,1,8,0:0:0:0:
371,243,238124,1,8,0:0:0:0:
370,186,238186,1,8,0:0:0:0:
339,139,238249,6,0,P|293:102|242:85,1,100,8|0,0:0|0:0,0:0:0:0:
101,186,238499,2,0,L|209:180,1,100,8|0,0:0|0:0,0:0:0:0:
346,244,238749,2,0,B|282:252|282:252|233:282,1,100,8|0,0:0|0:0,0:0:0:0:
405,352,238999,2,0,P|453:305|467:261,1,100,8|0,0:0|0:0,0:0:0:0:
413,87,239249,6,0,B|411:120|411:120|435:188,1,100,8|0,0:0|0:0,0:0:0:0:
327,169,239499,2,0,L|295:71,1,100,8|0,0:0|0:0,0:0:0:0:
69,90,239749,2,0,L|100:185,1,100,8|0,0:0|0:0,0:0:0:0:
265,344,239999,2,0,B|268:285|268:285|251:232,1,100,8|0,0:0|0:0,0:0:0:0:
16,211,240249,6,0,P|42:256|95:274,1,100,8|0,0:0|0:0,0:0:0:0:
214,142,240499,2,0,L|190:37,1,100,8|0,0:0|0:0,0:0:0:0:
313,125,240749,2,0,L|338:235,1,100,8|0,0:0|0:0,0:0:0:0:
148,233,240999,2,0,B|111:191|111:191|101:138,1,100,8|0,0:0|0:0,0:0:0:0:
335,45,241249,6,0,P|385:79|396:122,1,100,8|0,0:0|0:0,0:0:0:0:
326,224,241499,2,0,L|311:114,1,100,8|0,0:0|0:0,0:0:0:0:
267,277,241749,2,0,L|279:382,1,100,8|0,0:0|0:0,0:0:0:0:
470,288,241999,2,0,B|477:232|477:232|464:170,1,100,8|0,0:0|0:0,0:0:0:0:
391,105,242249,5,8,0:0:0:0:
273,78,242374,1,0,0:0:0:0:
161,123,242499,1,8,0:0:0:0:
119,235,242624,1,0,0:0:0:0:
236,210,242749,1,8,0:0:0:0:
122,171,242874,1,0,0:0:0:0:
185,272,242999,1,8,0:0:0:0:
302,296,243124,1,0,0:0:0:0:
397,222,243249,5,8,0:0:0:0:
417,103,243374,1,0,0:0:0:0:
349,3,243499,1,8,0:0:0:0:
306,115,243624,1,0,0:0:0:0:
321,233,243749,1,8,0:0:0:0:
391,329,243874,1,0,0:0:0:0:
397,222,243999,1,8,0:0:0:0:
286,174,244124,1,0,0:0:0:0:
186,257,244249,6,0,B|200:309|200:309|234:349,1,100,8|0,0:0|0:0,0:0:0:0:
321,233,244499,2,0,L|353:132,1,100,8|0,0:0|0:0,0:0:0:0:
180,92,244749,2,0,P|135:120|120:167,1,100,8|0,0:0|0:0,0:0:0:0:
72,346,244999,2,0,L|115:254,1,100,8|0,0:0|0:0,0:0:0:0:
190,161,245249,5,8,0:0:0:0:
306,115,245374,1,0,0:0:0:0:
418,156,245499,1,8,0:0:0:0:
462,267,245624,1,0,0:0:0:0:
369,343,245749,1,8,0:0:0:0:
365,223,245874,1,0,0:0:0:0:
432,321,245999,1,8,0:0:0:0:
317,286,246124,1,0,0:0:0:0:
276,172,246249,5,8,0:0:0:0:
214,68,246374,1,0,0:0:0:0:
153,171,246499,1,8,0:0:0:0:
268,138,246624,1,0,0:0:0:0:
165,74,246749,1,8,0:0:0:0:
205,186,246874,1,0,0:0:0:0:
263,81,246999,1,8,0:0:0:0:
148,117,247124,1,0,0:0:0:0:
248,182,247249,5,8,0:0:0:0:
368,182,247374,1,0,0:0:0:0:
422,75,247499,1,8,0:0:0:0:
314,21,247624,1,0,0:0:0:0:
374,124,247749,1,8,0:0:0:0:
464,202,247874,1,0,0:0:0:0:
364,269,247999,1,8,0:0:0:0:
244,256,248124,1,0,0:0:0:0:
132,212,248249,6,0,P|81:168|68:127,1,100,8|0,0:0|0:0,0:0:0:0:
189,131,248499,2,0,L|273:187,1,100,8|0,0:0|0:0,0:0:0:0:
393,189,248749,2,0,B|409:132|409:132|390:86,1,100,8|0,0:0|0:0,0:0:0:0:
287,150,248999,2,0,L|269:263,1,100,8|0,0:0|0:0,0:0:0:0:
426,361,249249,6,0,L|443:253,1,100,8|0,0:0|0:0,0:0:0:0:
355,93,249499,2,0,B|304:65|304:65|261:65,1,100,8|0,0:0|0:0,0:0:0:0:
152,201,249749,2,0,L|131:303,1,100,8|0,0:0|0:0,0:0:0:0:
325,274,249999,2,0,P|329:213|309:165,1,100,8|0,0:0|0:0,0:0:0:0:
183,108,250249,6,0,P|211:57|263:34,1,100,8|0,0:0|0:0,0:0:0:0:
328,151,250499,1,8,0:0:0:0:
258,252,250624,1,0,0:0:0:0:
189,355,250749,2,0,B|132:340|132:340|105:303,1,100,8|0,0:0|0:0,0:0:0:0:
155,192,250999,1,8,0:0:0:0:
283,201,251124,1,0,0:0:0:0:
453,190,251249,6,0,B|473:137|473:137|457:91,1,100,8|0,0:0|0:0,0:0:0:0:
339,128,251499,1,8,0:0:0:0:
358,249,251624,1,0,0:0:0:0:
377,370,251749,2,0,L|271:383,1,100,8|0,0:0|0:0,0:0:0:0:
107,297,251999,1,8,0:0:0:0:
273,288,252124,1,0,0:0:0:0:
428,278,252249,6,0,P|432:224|401:183,1,100,8|0,0:0|0:0,0:0:0:0:
268,87,252499,2,0,L|290:190,1,100,8|0,0:0|0:0,0:0:0:0:
266,359,252749,2,0,B|221:336|221:336|197:288,1,100,8|0,0:0|0:0,0:0:0:0:
349,129,252999,2,0,B|361:192|361:192|346:233,1,100,8|0,0:0|0:0,0:0:0:0:
383,343,253249,6,0,L|426:241,1,100,8|0,0:0|0:0,0:0:0:0:
359,56,253499,2,0,P|305:69|277:121,1,100,8|0,0:0|0:0,0:0:0:0:
374,202,253749,1,8,0:0:0:0:
273,285,253874,1,0,0:0:0:0:
137,276,253999,1,8,0:0:0:0:
60,193,254124,1,0,0:0:0:0:
85,78,254249,6,0,L|239:71,1,150,8|0,0:0|0:0,0:0:0:0:
283,60,254749,2,0,P|234:75|261:161,1,150.000005722046,2|0,0:0|0:0,0:0:0:0:
341,175,255249,6,0,L|187:168,1,150,8|0,0:0|0:0,0:0:0:0:
143,157,255749,2,0,P|192:172|165:258,1,150.000005722046,2|0,0:0|0:0,0:0:0:0:
108,222,256249,5,0,0:0:0:0:
108,222,256374,1,0,0:0:0:0:
387,279,256749,1,0,0:0:0:0:
387,279,256874,1,0,0:0:0:0:
212,60,257249,5,0,0:0:0:0:
206,248,257499,1,0,0:0:0:0:
377,166,257749,2,0,L|419:166,7,37.5000014305115
256,192,258249,12,0,258915,0:0:0:0:
