osu file format v14

[General]
AudioFilename: Shoushitsu.mp3
AudioLeadIn: 0
PreviewTime: 79999
Countdown: 1
SampleSet: Normal
StackLeniency: 0.7
Mode: 0
LetterboxInBreaks: 1
WidescreenStoryboard: 1

[Editor]
DistanceSpacing: 1
BeatDivisor: 4
GridSize: 16
TimelineZoom: 1.600002

[Metadata]
Title:Hatsune Miku no Shoushitsu (Hommarju Remix)
TitleUnicode:Hatsune Miku no Shoushitsu (Hommarju Remix)
Artist:Bousou-P
ArtistUnicode:暴走P
Creator:Rickput
Version:Expert
Source:Hatsune Miku
Tags:cosmo kuroneko antique hatsune miku vocaloid infinity hommarju
BeatmapID:767138
BeatmapSetID:313245

[Difficulty]
HPDrainRate:7
CircleSize:4
OverallDifficulty:7.8
ApproachRate:9.6
SliderMultiplier:1.7
SliderTickRate:2

[Events]
//Background and Video events
0,0,"hatsunemiku.png",0,0
//Break Periods
//Storyboard Layer 0 (Background)
//Storyboard Layer 1 (Fail)
//Storyboard Layer 2 (Pass)
//Storyboard Layer 3 (Foreground)
//Storyboard Sound Samples

[TimingPoints]
249.924923974081,500,4,1,0,60,1,0
8624,-100,4,1,0,5,0,0
8749,-100,4,1,0,60,0,0
9624,-100,4,1,0,5,0,0
9749,-100,4,1,0,60,0,0
10624,-100,4,1,0,5,0,0
10749,-100,4,1,0,60,0,0
11624,-100,4,1,0,5,0,0
11749,-100,4,1,0,60,0,0
12749,-100,4,1,0,5,0,0
12874,-100,4,1,0,60,0,0
13749,-100,4,1,0,5,0,0
13874,-100,4,1,0,60,0,0
14249,-100,4,1,0,5,0,0
16249,250,4,1,0,60,1,0
20499,-100,4,1,0,5,0,0
20561,-100,4,1,0,60,0,0
24249,-66.6666666666667,4,1,0,60,0,0
24374,-66.6666666666667,4,1,0,5,0,0
24436,-66.6666666666667,4,1,0,60,0,0
24499,-100,4,1,0,60,0,0
28124,-100,4,1,0,5,0,0
28186,-100,4,1,0,60,0,0
32249,-200,4,1,0,60,0,0
33249,-200,4,1,0,5,0,0
33311,-200,4,1,0,60,0,0
38749,-200,4,1,0,5,0,0
38811,-200,4,1,0,60,0,0
39749,-200,4,1,0,5,0,0
39811,-200,4,1,0,60,0,0
41249,-200,4,1,0,5,0,0
41311,-200,4,1,0,60,0,0
47249,-200,4,1,0,5,0,0
47311,-200,4,1,0,60,0,0
48624,-200,4,1,0,5,0,0
48686,-200,4,1,0,60,0,0
49436,-200,4,1,0,5,0,0
49499,-200,4,1,0,60,0,0
49686,-200,4,1,0,5,0,0
49749,-200,4,1,0,60,0,0
49811,-200,4,1,0,5,0,0
49874,-200,4,1,0,60,0,0
50186,-200,4,1,0,5,0,0
50249,-200,4,1,0,60,0,0
50686,-200,4,1,0,5,0,0
50749,-200,4,1,0,60,0,0
53249,-133.333333333333,4,1,0,60,0,0
53686,-133.333333333333,4,1,0,5,0,0
53749,-200,4,1,0,60,0,0
54186,-200,4,1,0,5,0,0
54249,-133.333333333333,4,1,0,60,0,0
54561,-133.333333333333,4,1,0,5,0,0
54624,-166.666666666667,4,1,0,60,0,0
54936,-166.666666666667,4,1,0,5,0,0
54999,-200,4,1,0,60,0,0
55186,-200,4,1,0,5,0,0
55249,-133.333333333333,4,1,0,60,0,0
55561,-133.333333333333,4,1,0,5,0,0
55624,-133.333333333333,4,1,0,60,0,0
62749,-166.666666666667,4,1,0,60,0,0
63249,-200,4,1,0,60,0,0
63749,-300,4,1,0,60,0,0
63999,-300,4,1,0,5,0,0
64249,-133.333333333333,4,1,0,60,0,0
65874,-300,4,1,0,60,0,0
66124,-300,4,1,0,5,0,0
66499,-133.333333333333,4,1,0,60,0,0
67874,-300,4,1,0,60,0,0
68124,-300,4,1,0,5,0,0
68499,-133.333333333333,4,1,0,60,0,0
69624,-133.333333333333,4,1,0,5,0,0
69686,-133.333333333333,4,1,0,60,0,0
70249,-100,4,1,0,60,0,0
70749,-133.333333333333,4,1,0,60,0,0
71249,-200,4,1,0,60,0,0
71749,-300,4,1,0,60,0,0
71999,-300,4,1,0,5,0,0
72249,-133.333333333333,4,1,0,60,0,0
73249,-133.333333333333,4,1,0,5,0,0
73311,-133.333333333333,4,1,0,60,0,0
74499,-133.333333333333,4,1,0,5,0,0
74561,-133.333333333333,4,1,0,60,0,0
75249,-133.333333333333,4,1,0,5,0,0
75311,-133.333333333333,4,1,0,60,0,0
78249,1000,4,1,0,60,1,0
79249,-200,4,1,0,60,0,0
80249,500,4,1,0,60,1,0
82249,-200,4,1,0,60,0,0
84249,250,4,1,0,70,1,1
84249,-83.3333333333333,4,1,0,70,0,1
88249,500,4,1,0,60,1,0
88249,-66.6666666666667,4,1,0,60,0,0
88749,-100,4,1,0,60,0,0
90249,-133.333333333333,4,1,0,60,0,0
92249,250,4,1,0,70,1,1
95374,-100,4,1,0,5,0,1
95436,-100,4,1,0,70,0,1
95999,-200,4,1,0,70,0,1
96165,-133.333333333333,4,1,0,5,0,1
96249,-200,4,2,0,70,0,1
104165,-200,4,2,0,5,0,1
104249,-133.333333333333,4,2,0,70,0,1
112249,500,4,1,0,60,1,0
112249,-133.333333333333,4,1,0,60,0,0
114249,-133.333333333333,4,1,0,5,0,0
114749,-133.333333333333,4,1,0,60,0,0
118249,-133.333333333333,4,1,0,5,0,0
120249,250,4,1,0,60,1,0
124499,-100,4,1,0,5,0,0
124561,-100,4,1,0,60,0,0
125874,-100,4,1,0,5,0,0
125936,-100,4,1,0,60,0,0
128249,-66.6666666666667,4,1,0,60,0,0
128374,-66.6666666666667,4,1,0,5,0,0
128436,-66.6666666666667,4,1,0,60,0,0
128499,-100,4,1,0,60,0,0
132124,-100,4,1,0,5,0,0
132186,-100,4,1,0,60,0,0
133249,-83.3333333333333,4,1,0,60,0,0
133436,-83.3333333333333,4,1,0,5,0,0
133499,-133.333333333333,4,1,0,60,0,0
133686,-133.333333333333,4,1,0,5,0,0
133749,-90.9090909090909,4,1,0,60,0,0
133936,-90.9090909090909,4,1,0,5,0,0
133999,-100,4,1,0,60,0,0
134124,-100,4,1,0,5,0,0
134186,-100,4,1,0,60,0,0
136249,-200,4,1,0,60,0,0
137249,-200,4,1,0,5,0,0
137311,-400,4,1,0,60,0,0
151749,500,4,1,0,60,1,0
151749,-200,4,1,0,60,0,0
166499,-200,4,1,0,5,0,0
166624,-200,4,1,0,60,0,0
166999,-200,4,1,0,5,0,0
167124,-200,4,1,0,60,0,0
167499,-200,4,1,0,5,0,0
167624,-200,4,1,0,60,0,0
167999,-200,4,1,0,5,0,0
168499,250,4,1,0,60,1,0
168499,-133.333333333333,4,1,0,60,0,0
169374,-133.333333333333,4,1,0,5,0,0
169436,-133.333333333333,4,1,0,60,0,0
169999,-200,4,1,0,60,0,0
170249,-200,4,1,0,5,0,0
170311,-133.333333333333,4,1,0,60,0,0
171999,-200,4,1,0,60,0,0
172249,-200,4,1,0,5,0,0
172311,-133.333333333333,4,1,0,60,0,0
173499,-100,4,1,0,5,0,0
173561,-133.333333333333,4,1,0,60,0,0
174249,-100,4,1,0,60,0,0
174374,-100,4,1,0,5,0,0
174436,-100,4,1,0,60,0,0
174624,-100,4,1,0,5,0,0
174749,-133.333333333333,4,1,0,60,0,0
174874,-133.333333333333,4,1,0,5,0,0
174936,-133.333333333333,4,1,0,60,0,0
175124,-133.333333333333,4,1,0,5,0,0
175249,-166.666666666667,4,1,0,60,0,0
175374,-166.666666666667,4,1,0,5,0,0
175436,-166.666666666667,4,1,0,60,0,0
175624,-166.666666666667,4,1,0,5,0,0
175749,-200,4,1,0,60,0,0
175999,-200,4,1,0,5,0,0
176061,-133.333333333333,4,1,0,60,0,0
177249,-133.333333333333,4,1,0,5,0,0
177311,-133.333333333333,4,1,0,60,0,0
178499,-133.333333333333,4,1,0,5,0,0
178561,-133.333333333333,4,1,0,60,0,0
179249,-133.333333333333,4,1,0,5,0,0
179311,-133.333333333333,4,1,0,60,0,0
182249,500,4,1,0,60,1,0
183332,-100,4,1,0,5,0,0
186249,-100,4,1,0,50,0,0
189749,-50,4,1,0,90,0,0
189874,-100,4,1,0,5,0,0
190249,250,4,1,0,70,1,1
190249,-83.3333333333333,4,1,0,70,0,1
191499,-125,4,1,0,70,0,1
191624,-83.3333333333333,4,1,0,70,0,1
206249,-133.333333333333,4,2,0,70,0,1
221999,-200,4,2,0,70,0,1
222165,-133.333333333333,4,2,0,5,0,0
222249,-133.333333333333,4,2,0,70,0,1
228249,-100,4,2,0,70,0,1
229999,-200,4,2,0,70,0,1
230186,-100,4,1,0,5,0,1
230249,-100,4,1,0,70,0,1
230311,-100,4,1,0,5,0,1
230374,-100,4,1,0,70,0,1
230436,-100,4,1,0,5,0,1
230499,-100,4,1,0,70,0,1
230561,-100,4,1,0,5,0,1
230624,-100,4,1,0,70,0,1
230686,-100,4,1,0,5,0,1
230749,-100,4,1,0,70,0,1
230811,-100,4,1,0,5,0,1
230874,-100,4,1,0,70,0,1
230936,-100,4,1,0,5,0,1
230999,-100,4,1,0,70,0,1
231061,-100,4,1,0,5,0,1
231124,-100,4,1,0,70,0,1
231186,-100,4,1,0,5,0,1
231249,-100,4,1,0,70,0,1
231311,-100,4,1,0,5,0,1
231374,-100,4,1,0,70,0,1
231436,-100,4,1,0,5,0,1
231499,-100,4,1,0,70,0,1
231561,-100,4,1,0,5,0,1
231624,-100,4,1,0,70,0,1
231686,-100,4,1,0,5,0,1
231749,-100,4,1,0,70,0,1
231811,-100,4,1,0,5,0,1
231874,-100,4,1,0,70,0,1
231936,-100,4,1,0,5,0,1
231999,-100,4,1,0,70,0,1
232061,-100,4,1,0,5,0,1
232124,-100,4,1,0,70,0,1
232186,-100,4,1,0,5,0,1
232249,-100,4,1,0,70,0,1
232311,-100,4,1,0,5,0,1
232374,-100,4,1,0,70,0,1
232436,-100,4,1,0,5,0,1
232499,-100,4,1,0,70,0,1
232561,-100,4,1,0,5,0,1
232624,-100,4,1,0,70,0,1
232686,-100,4,1,0,5,0,1
232749,-100,4,1,0,70,0,1
232811,-100,4,1,0,5,0,1
232874,-100,4,1,0,70,0,1
232936,-100,4,1,0,5,0,1
232999,-100,4,1,0,70,0,1
233061,-100,4,1,0,5,0,1
233124,-100,4,1,0,70,0,1
233186,-100,4,1,0,5,0,1
233249,-100,4,1,0,70,0,1
233311,-100,4,1,0,5,0,1
233374,-100,4,1,0,70,0,1
233436,-100,4,1,0,5,0,1
233499,-100,4,1,0,70,0,1
233561,-100,4,1,0,5,0,1
233624,-100,4,1,0,70,0,1
233686,-100,4,1,0,5,0,1
233749,-100,4,1,0,70,0,1
233811,-100,4,1,0,5,0,1
233874,-100,4,1,0,70,0,1
233936,-100,4,1,0,5,0,1
233999,-100,4,1,0,70,0,1
234061,-100,4,1,0,5,0,1
234124,-100,4,1,0,70,0,1
234311,-100,4,1,0,5,0,1
234374,-100,4,1,0,70,0,1
234436,-100,4,1,0,5,0,1
234499,-100,4,1,0,70,0,1
234561,-100,4,1,0,5,0,1
234624,-100,4,1,0,70,0,1
234686,-100,4,1,0,5,0,1
234749,-100,4,1,0,70,0,1
234811,-100,4,1,0,5,0,1
234874,-100,4,1,0,70,0,1
234936,-100,4,1,0,5,0,1
234999,-100,4,1,0,70,0,1
235061,-100,4,1,0,5,0,1
235124,-100,4,1,0,70,0,1
235311,-100,4,1,0,5,0,1
235374,-100,4,1,0,70,0,1
235436,-100,4,1,0,5,0,1
235499,-100,4,1,0,70,0,1
235561,-100,4,1,0,5,0,1
235624,-100,4,1,0,70,0,1
235686,-100,4,1,0,5,0,1
235749,-100,4,1,0,70,0,1
235811,-100,4,1,0,5,0,1
235874,-100,4,1,0,70,0,1
235936,-100,4,1,0,5,0,1
235999,-100,4,1,0,70,0,1
236061,-100,4,1,0,5,0,1
236124,-100,4,1,0,70,0,1
236186,-100,4,1,0,5,0,1
236249,-100,4,1,0,70,0,1
238249,-100,4,1,0,60,0,0
254249,500,4,1,0,60,1,0
254624,-100,4,1,0,5,0,0
254749,-66.6666666666667,4,1,0,60,0,0
254999,-66.6666666666667,4,1,0,5,0,0
255249,-100,4,1,0,60,0,0
255624,-100,4,1,0,5,0,0
255749,-66.6666666666667,4,1,0,60,0,0
255999,-66.6666666666667,4,1,0,5,0,0
256124,-66.6666666666667,4,1,0,60,0,0
258249,-66.6666666666667,4,1,0,5,0,0

[HitObjects]
199,137,249,6,0,L|77:79,2,127.5
320,223,1249,2,0,L|452:218,2,127.5
152,263,2249,2,0,P|177:313|246:270,2,127.5
379,351,3249,2,0,L|227:343,2,127.5
50,279,4249,1,0,0:0:0:0:
156,283,4624,1,0,0:0:0:0:
146,72,4999,1,0,0:0:0:0:
82,147,5249,1,0,0:0:0:0:
267,159,5624,1,0,0:0:0:0:
249,359,5999,5,0,0:0:0:0:
249,359,6249,2,0,L|378:282,2,127.5
137,325,7249,2,0,L|88:316,3,42.5
236,93,7874,2,0,L|203:122,2,42.5
275,63,8249,6,0,P|314:108|273:204,1,170,8|0,0:0|0:0,0:0:0:0:
199,248,8999,1,0,0:0:0:0:
199,248,9249,2,0,P|272:272|342:212,1,170,8|0,0:0|0:0,0:0:0:0:
339,148,9999,5,0,0:0:0:0:
339,148,10249,2,0,B|383:131|383:131|413:96|413:96|460:91|446:157,1,170,8|0,0:0|0:0,0:0:0:0:
392,297,10999,1,0,0:0:0:0:
152,224,11249,2,0,P|86:247|87:341,1,170,8|0,0:0|0:0,0:0:0:0:
245,271,11999,5,0,0:0:0:0:
257,103,12249,2,0,P|306:61|376:59,2,127.5
334,298,13249,2,0,L|337:171,2,127.5
256,192,14249,12,0,15999,0:0:0:0:
138,257,16249,5,0,0:0:0:0:
218,285,16374,1,0,0:0:0:0:
298,257,16499,2,0,L|378:229,1,85
184,189,16749,1,0,0:0:0:0:
107,225,16874,1,0,0:0:0:0:
70,302,16999,2,0,L|33:379,1,85
218,285,17249,6,0,P|236:239|242:195,1,85
177,14,17499,2,0,P|159:60|153:104,1,85
310,353,17749,2,0,B|347:317|346:269|346:269|327:232|345:189,1,170
375,122,18124,1,0,0:0:0:0:
416,236,18249,1,0,0:0:0:0:
416,236,18311,1,0,0:0:0:0:
416,236,18374,1,0,0:0:0:0:
271,284,18499,1,0,0:0:0:0:
342,195,18624,6,0,P|377:164|422:155,1,85
488,240,18874,1,0,0:0:0:0:
468,322,18999,1,0,0:0:0:0:
388,352,19124,1,0,0:0:0:0:
198,231,19249,5,0,0:0:0:0:
216,340,19374,1,0,0:0:0:0:
298,219,19499,5,0,0:0:0:0:
296,329,19624,1,0,0:0:0:0:
388,227,19749,5,0,0:0:0:0:
370,336,19874,1,0,0:0:0:0:
307,197,19999,2,0,L|335:114,1,85
487,347,20249,6,0,P|397:369|320:335,1,170
136,95,20624,2,0,P|131:189|139:269,1,170
54,158,20999,1,0,0:0:0:0:
222,238,21124,1,0,0:0:0:0:
206,90,21249,2,0,L|195:4,2,85
286,319,21624,2,0,P|322:241|292:164,1,170
194,87,21999,5,0,0:0:0:0:
336,117,22124,1,0,0:0:0:0:
261,51,22249,6,0,L|272:148,1,85
342,259,22499,1,0,0:0:0:0:
342,259,22624,1,0,0:0:0:0:
209,339,22749,6,0,L|121:326,1,85
16,224,22999,1,0,0:0:0:0:
16,224,23124,1,0,0:0:0:0:
174,122,23249,6,0,L|169:25,1,85
140,260,23499,1,0,0:0:0:0:
172,137,23624,1,0,0:0:0:0:
152,300,23749,6,0,L|139:258,3,42.5
171,338,23999,1,0,0:0:0:0:
204,360,24061,1,0,0:0:0:0:
246,362,24124,1,0,0:0:0:0:
283,344,24186,1,0,0:0:0:0:
306,308,24249,6,0,P|260:262|250:202,1,127.500004863739
368,133,24499,2,0,L|349:219,1,85
153,301,24749,2,0,L|177:211,1,85
191,73,24999,1,0,0:0:0:0:
64,131,25124,1,0,0:0:0:0:
187,217,25249,1,0,0:0:0:0:
121,94,25374,5,0,0:0:0:0:
247,205,25499,1,0,0:0:0:0:
100,195,25624,1,0,0:0:0:0:
335,198,25749,1,0,0:0:0:0:
186,276,25874,6,0,L|203:366,1,85
265,141,26124,1,0,0:0:0:0:
89,108,26249,2,0,P|17:171|26:241,1,170
92,339,26624,1,0,0:0:0:0:
170,237,26749,2,0,L|178:149,1,85
279,288,26999,5,0,0:0:0:0:
92,284,27124,1,0,0:0:0:0:
256,192,27249,1,0,0:0:0:0:
256,192,27311,12,0,28124,0:0:0:0:
183,71,28249,6,0,P|138:107|123:147,1,85
193,319,28499,2,0,P|234:314|270:291,1,85
382,101,28749,2,0,P|326:92|289:110,1,85
208,149,28999,2,0,L|209:234,1,85
458,126,29249,6,0,P|456:76|433:42,1,85
376,197,29499,2,0,L|379:288,1,85
271,377,29749,2,0,L|268:287,1,85
215,183,29999,2,0,P|176:169|137:184,1,85
