osu file format v14

[General]
AudioFilename: audio.mp3
AudioLeadIn: 0
PreviewTime: 53793
Countdown: 1
SampleSet: None
StackLeniency: 0.7
Mode: 3
LetterboxInBreaks: 0
SpecialStyle: 0
WidescreenStoryboard: 1

[Editor]
DistanceSpacing: 0.8
BeatDivisor: 4
GridSize: 32
TimelineZoom: 1.1

[Metadata]
Title:Deeper Love (Rootkit Remix)
TitleUnicode:Deeper Love (Rootkit Remix)
Artist:Botnek & I See MONSTAS
ArtistUnicode:Botnek & I See MONSTAS
Creator:Yuvira
Version:Normal
Source:
Tags:
BeatmapID:2114942
BeatmapSetID:1010328

[Difficulty]
HPDrainRate:9
CircleSize:4
OverallDifficulty:9
ApproachRate:5
SliderMultiplier:1.50000000596047
SliderTickRate:1

[Events]
//Background and Video events
0,0,"Deeper Love (Rootkit Remix).jpg",0,0
//Break Periods
//Storyboard Layer 0 (Background)
//Storyboard Layer 1 (Fail)
//Storyboard Layer 2 (Pass)
//Storyboard Layer 3 (Foreground)
//Storyboard Sound Samples

[TimingPoints]
40,344.827586206897,4,1,0,100,1,0
55172,-100,4,1,0,100,0,1
77241,-100,4,1,0,100,0,0

[HitObjects]
64,192,22108,5,0,0:0:0:0:
448,192,22108,128,0,24177:0:0:0:0:
64,192,22798,1,0,0:0:0:0:
192,192,22798,1,0,0:0:0:0:
192,192,23488,1,0,0:0:0:0:
320,192,23488,1,0,0:0:0:0:
64,192,24177,1,0,0:0:0:0:
320,192,24177,128,0,24867:0:0:0:0:
448,192,24867,1,0,0:0:0:0:
192,192,24867,128,0,27626:0:0:0:0:
448,192,25557,1,0,0:0:0:0:
64,192,25557,1,0,0:0:0:0:
320,192,26246,1,0,0:0:0:0:
448,192,26246,1,0,0:0:0:0:
320,192,26936,1,0,0:0:0:0:
64,192,26936,1,0,0:0:0:0:
448,192,27626,1,0,0:0:0:0:
64,192,27626,128,0,29695:0:0:0:0:
320,192,28315,1,0,0:0:0:0:
448,192,28315,1,0,0:0:0:0:
320,192,29005,1,0,0:0:0:0:
192,192,29005,1,0,0:0:0:0:
192,192,29695,128,0,30384:0:0:0:0:
448,192,29695,1,0,0:0:0:0:
64,192,30384,1,0,0:0:0:0:
320,192,30384,128,0,33143:0:0:0:0:
448,192,31074,1,0,0:0:0:0:
64,192,31074,1,0,0:0:0:0:
192,192,31764,1,0,0:0:0:0:
64,192,31764,1,0,0:0:0:0:
192,192,32453,1,0,0:0:0:0:
448,192,32453,1,0,0:0:0:0:
64,192,33143,1,0,0:0:0:0:
448,192,33143,128,0,35212:0:0:0:0:
192,192,33833,1,0,0:0:0:0:
64,192,33833,1,0,0:0:0:0:
192,192,34522,1,0,0:0:0:0:
320,192,34522,1,0,0:0:0:0:
64,192,35212,1,0,0:0:0:0:
320,192,35212,128,0,35902:0:0:0:0:
192,192,35902,128,0,38660:0:0:0:0:
448,192,35902,1,0,0:0:0:0:
448,192,36591,1,0,0:0:0:0:
64,192,36591,1,0,0:0:0:0:
320,192,37281,1,0,0:0:0:0:
448,192,37281,1,0,0:0:0:0:
320,192,37971,1,0,0:0:0:0:
64,192,37971,1,0,0:0:0:0:
64,192,38660,128,0,40729:0:0:0:0:
448,192,38660,1,0,0:0:0:0:
320,192,39350,1,0,0:0:0:0:
448,192,39350,1,0,0:0:0:0:
320,192,40040,1,0,0:0:0:0:
192,192,40040,1,0,0:0:0:0:
192,192,40729,128,0,41419:0:0:0:0:
448,192,40729,1,0,0:0:0:0:
320,192,41419,128,0,44177:0:0:0:0:
64,192,41419,1,0,0:0:0:0:
64,192,42108,1,0,0:0:0:0:
448,192,42108,1,0,0:0:0:0:
64,192,42798,1,0,0:0:0:0:
192,192,42798,1,0,0:0:0:0:
192,192,43488,1,0,0:0:0:0:
448,192,43488,1,0,0:0:0:0:
64,192,44177,1,0,0:0:0:0:
448,192,44177,1,0,0:0:0:0:
192,192,44350,1,0,0:0:0:0:
320,192,44522,1,0,0:0:0:0:
64,192,44695,1,0,0:0:0:0:
192,192,44867,1,0,0:0:0:0:
320,192,44867,1,0,0:0:0:0:
448,192,45040,1,0,0:0:0:0:
64,192,45212,1,0,0:0:0:0:
320,192,45384,1,0,0:0:0:0:
192,192,45557,1,0,0:0:0:0:
448,192,45557,1,0,0:0:0:0:
320,192,45729,1,0,0:0:0:0:
64,192,45902,1,0,0:0:0:0:
448,192,46074,1,0,0:0:0:0:
64,192,46246,1,0,0:0:0:0:
320,192,46246,1,0,0:0:0:0:
192,192,46419,1,0,0:0:0:0:
448,192,46591,1,0,0:0:0:0:
64,192,46764,1,0,0:0:0:0:
320,192,46936,1,0,0:0:0:0:
448,192,46936,1,0,0:0:0:0:
192,192,47108,1,0,0:0:0:0:
64,192,47281,1,0,0:0:0:0:
448,192,47453,1,0,0:0:0:0:
192,192,47626,1,0,0:0:0:0:
64,192,47626,1,0,0:0:0:0:
320,192,47798,1,0,0:0:0:0:
448,192,47971,1,0,0:0:0:0:
192,192,48143,1,0,0:0:0:0:
64,192,48315,1,0,0:0:0:0:
448,192,48315,1,0,0:0:0:0:
320,192,48488,1,0,0:0:0:0:
192,192,48660,1,0,0:0:0:0:
64,192,48833,1,0,0:0:0:0:
192,192,49005,1,0,0:0:0:0:
320,192,49005,1,0,0:0:0:0:
448,192,49177,1,0,0:0:0:0:
64,192,49350,1,0,0:0:0:0:
320,192,49522,1,0,0:0:0:0:
64,192,49695,1,0,0:0:0:0:
192,192,49695,1,0,0:0:0:0:
448,192,49867,1,0,0:0:0:0:
64,192,50040,1,0,0:0:0:0:
320,192,50040,1,0,0:0:0:0:
192,192,50212,1,0,0:0:0:0:
64,192,50384,1,0,0:0:0:0:
448,192,50384,1,0,0:0:0:0:
320,192,50557,1,0,0:0:0:0:
192,192,50729,1,0,0:0:0:0:
448,192,50729,1,0,0:0:0:0:
64,192,50902,1,0,0:0:0:0:
448,192,51074,1,0,0:0:0:0:
320,192,51074,1,0,0:0:0:0:
64,192,51246,1,0,0:0:0:0:
192,192,51419,1,0,0:0:0:0:
448,192,51419,1,0,0:0:0:0:
320,192,51591,1,0,0:0:0:0:
448,192,51764,1,0,0:0:0:0:
64,192,51764,1,0,0:0:0:0:
192,192,51936,1,0,0:0:0:0:
320,192,52108,1,0,0:0:0:0:
64,192,52108,1,0,0:0:0:0:
448,192,52281,1,0,0:0:0:0:
64,192,52453,1,0,0:0:0:0:
192,192,52540,1,0,0:0:0:0:
320,192,52626,1,0,0:0:0:0:
448,192,52712,1,0,0:0:0:0:
320,192,52798,1,0,0:0:0:0:
192,192,52884,1,0,0:0:0:0:
64,192,52971,1,0,0:0:0:0:
192,192,53057,1,0,0:0:0:0:
320,192,53143,1,0,0:0:0:0:
448,192,53229,1,0,0:0:0:0:
320,192,53315,1,0,0:0:0:0:
192,192,53402,1,0,0:0:0:0:
64,192,53488,1,0,0:0:0:0:
192,192,53574,1,0,0:0:0:0:
320,192,53660,1,0,0:0:0:0:
448,192,53746,1,0,0:0:0:0:
64,192,53833,1,0,0:0:0:0:
320,192,53833,128,0,54177:0:0:0:0:
192,192,54177,128,0,54522:0:0:0:0:
448,192,54177,1,0,0:0:0:0:
64,192,54522,1,0,0:0:0:0:
448,192,54522,128,0,54867:0:0:0:0:
320,192,54867,1,0,0:0:0:0:
64,192,54867,128,0,55040:0:0:0:0:
192,192,55040,128,0,55212:0:0:0:0:
448,192,55212,1,0,0:0:0:0:
64,192,55212,128,0,55384:0:0:0:0:
320,192,55384,128,0,55557:0:0:0:0:
448,192,55557,128,0,55729:0:0:0:0:
192,192,55729,128,0,55902:0:0:0:0:
64,192,55902,128,0,56074:0:0:0:0:
320,192,55902,1,0,0:0:0:0:
192,192,56074,128,0,56246:0:0:0:0:
448,192,56246,128,0,56419:0:0:0:0:
320,192,56419,128,0,56591:0:0:0:0:
64,192,56591,128,0,56764:0:0:0:0:
448,192,56591,1,0,0:0:0:0:
192,192,56764,128,0,56936:0:0:0:0:
320,192,56936,128,0,57108:0:0:0:0:
448,192,57108,128,0,57281:0:0:0:0:
192,192,57108,1,0,0:0:0:0:
64,192,57281,128,0,57453:0:0:0:0:
320,192,57281,1,0,0:0:0:0:
448,192,57453,128,0,57626:0:0:0:0:
320,192,57626,128,0,57798:0:0:0:0:
192,192,57798,128,0,57971:0:0:0:0:
64,192,57971,128,0,58143:0:0:0:0:
448,192,57971,1,0,0:0:0:0:
320,192,58143,128,0,58315:0:0:0:0:
448,192,58315,128,0,58488:0:0:0:0:
192,192,58488,128,0,58660:0:0:0:0:
64,192,58660,128,0,58833:0:0:0:0:
320,192,58660,1,0,0:0:0:0:
192,192,58833,128,0,59005:0:0:0:0:
448,192,59005,128,0,59177:0:0:0:0:
320,192,59177,128,0,59350:0:0:0:0:
64,192,59350,128,0,59522:0:0:0:0:
448,192,59350,1,0,0:0:0:0:
192,192,59522,128,0,59695:0:0:0:0:
448,192,59522,1,0,0:0:0:0:
320,192,59695,128,0,59867:0:0:0:0:
448,192,59867,128,0,60040:0:0:0:0:
64,192,59867,1,0,0:0:0:0:
64,192,60040,1,0,0:0:0:0:
448,192,60126,1,0,0:0:0:0:
320,192,60212,1,0,0:0:0:0:
192,192,60298,1,0,0:0:0:0:
448,192,60384,1,0,0:0:0:0:
64,192,60384,1,0,0:0:0:0:
320,192,60471,1,0,0:0:0:0:
192,192,60557,1,0,0:0:0:0:
64,192,60643,1,0,0:0:0:0:
448,192,60729,128,0,60902:0:0:0:0:
192,192,60729,1,0,0:0:0:0:
320,192,60902,128,0,61074:0:0:0:0:
64,192,61074,128,0,61246:0:0:0:0:
192,192,61246,128,0,61419:0:0:0:0:
320,192,61419,128,0,61591:0:0:0:0:
448,192,61419,1,0,0:0:0:0:
64,192,61591,128,0,61764:0:0:0:0:
448,192,61764,128,0,61936:0:0:0:0:
192,192,61936,128,0,62108:0:0:0:0:
64,192,62108,128,0,62281:0:0:0:0:
320,192,62108,1,0,0:0:0:0:
192,192,62281,128,0,62453:0:0:0:0:
448,192,62453,128,0,62626:0:0:0:0:
64,192,62453,1,0,0:0:0:0:
320,192,62626,128,0,62798:0:0:0:0:
64,192,62798,128,0,62971:0:0:0:0:
448,192,62798,1,0,0:0:0:0:
192,192,62971,128,0,63143:0:0:0:0:
320,192,63143,128,0,63315:0:0:0:0:
448,192,63315,128,0,63488:0:0:0:0:
320,192,63488,1,0,0:0:0:0:
192,192,63488,128,0,63660:0:0:0:0:
448,192,63660,128,0,63833:0:0:0:0:
64,192,63833,128,0,64005:0:0:0:0:
320,192,64005,128,0,64177:0:0:0:0:
192,192,64177,128,0,64350:0:0:0:0:
448,192,64177,1,0,0:0:0:0:
64,192,64350,128,0,64522:0:0:0:0:
320,192,64522,128,0,64695:0:0:0:0:
448,192,64695,128,0,64867:0:0:0:0:
64,192,64867,1,0,0:0:0:0:
320,192,64867,128,0,65040:0:0:0:0:
192,192,65040,128,0,65212:0:0:0:0:
448,192,65212,128,0,65384:0:0:0:0:
64,192,65384,128,0,65557:0:0:0:0:
448,192,65557,1,0,0:0:0:0:
192,192,65557,128,0,65729:0:0:0:0:
320,192,65729,128,0,65902:0:0:0:0:
64,192,65902,128,0,66074:0:0:0:0:
448,192,66074,128,0,66246:0:0:0:0:
192,192,66246,128,0,66419:0:0:0:0:
320,192,66246,1,0,0:0:0:0:
64,192,66419,128,0,66591:0:0:0:0:
320,192,66591,128,0,66764:0:0:0:0:
448,192,66764,128,0,66936:0:0:0:0:
320,192,66936,128,0,67108:0:0:0:0:
192,192,66936,1,0,0:0:0:0:
64,192,67108,128,0,67281:0:0:0:0:
448,192,67281,128,0,67453:0:0:0:0:
192,192,67453,128,0,67626:0:0:0:0:
320,192,67626,128,0,67798:0:0:0:0:
64,192,67626,1,0,0:0:0:0:
192,192,67798,128,0,67971:0:0:0:0:
448,192,67971,128,0,68143:0:0:0:0:
64,192,68143,128,0,68315:0:0:0:0:
320,192,68143,1,0,0:0:0:0:
448,192,68315,128,0,68488:0:0:0:0:
192,192,68315,1,0,0:0:0:0:
320,192,68488,128,0,68660:0:0:0:0:
192,192,68660,128,0,68833:0:0:0:0:
64,192,68833,128,0,69005:0:0:0:0:
320,192,69005,128,0,69177:0:0:0:0:
448,192,69005,1,0,0:0:0:0:
64,192,69177,128,0,69350:0:0:0:0:
448,192,69350,128,0,69522:0:0:0:0:
192,192,69522,128,0,69695:0:0:0:0:
64,192,69695,128,0,69867:0:0:0:0:
320,192,69695,1,0,0:0:0:0:
448,192,69867,128,0,70040:0:0:0:0:
192,192,70040,128,0,70212:0:0:0:0:
320,192,70212,128,0,70384:0:0:0:0:
448,192,70384,128,0,70557:0:0:0:0:
64,192,70384,1,0,0:0:0:0:
320,192,70557,128,0,70729:0:0:0:0:
192,192,70557,1,0,0:0:0:0:
64,192,70729,128,0,70902:0:0:0:0:
192,192,70902,128,0,71074:0:0:0:0:
320,192,70902,1,0,0:0:0:0:
448,192,71074,128,0,71246:0:0:0:0:
64,192,71074,1,0,0:0:0:0:
192,192,71246,128,0,71419:0:0:0:0:
320,192,71419,128,0,71591:0:0:0:0:
64,192,71591,128,0,71764:0:0:0:0:
448,192,71764,128,0,71936:0:0:0:0:
192,192,71764,1,0,0:0:0:0:
320,192,71936,128,0,72108:0:0:0:0:
192,192,72108,128,0,72281:0:0:0:0:
64,192,72281,128,0,72453:0:0:0:0:
320,192,72453,128,0,72626:0:0:0:0:
448,192,72453,1,0,0:0:0:0:
64,192,72626,128,0,72798:0:0:0:0:
448,192,72798,128,0,72971:0:0:0:0:
192,192,72971,128,0,73143:0:0:0:0:
320,192,73143,128,0,73315:0:0:0:0:
64,192,73143,1,0,0:0:0:0:
448,192,73315,128,0,73488:0:0:0:0:
192,192,73488,128,0,73660:0:0:0:0:
64,192,73660,128,0,73833:0:0:0:0:
448,192,73660,1,0,0:0:0:0:
320,192,73833,128,0,74005:0:0:0:0:
192,192,73833,1,0,0:0:0:0:
192,192,74005,128,0,74177:0:0:0:0:
64,192,74177,128,0,74350:0:0:0:0:
448,192,74350,128,0,74522:0:0:0:0:
64,192,74522,128,0,74608:0:0:0:0:
320,192,74522,1,0,0:0:0:0:
192,192,74608,128,0,74695:0:0:0:0:
448,192,74695,128,0,74781:0:0:0:0:
320,192,74781,128,0,74867:0:0:0:0:
64,192,74867,128,0,74953:0:0:0:0:
192,192,74953,128,0,75040:0:0:0:0:
320,192,75040,128,0,75126:0:0:0:0:
448,192,75126,128,0,75212:0:0:0:0:
192,192,75212,128,0,75298:0:0:0:0:
64,192,75298,128,0,75384:0:0:0:0:
320,192,75384,128,0,75471:0:0:0:0:
448,192,75471,128,0,75557:0:0:0:0:
64,192,75557,128,0,75643:0:0:0:0:
320,192,75643,128,0,75729:0:0:0:0:
192,192,75729,128,0,75815:0:0:0:0:
448,192,75815,128,0,75902:0:0:0:0:
64,192,75902,128,0,77281:0:0:0:0:
320,192,75902,1,0,0:0:0:0:
192,192,76246,1,0,0:0:0:0:
320,192,76333,1,0,0:0:0:0:
448,192,76419,1,0,0:0:0:0:
192,192,76505,1,0,0:0:0:0:
320,192,76591,1,0,0:0:0:0:
448,192,76591,1,0,0:0:0:0:
448,192,77281,128,0,79350:0:0:0:0:
192,192,77281,1,0,0:0:0:0:
192,192,77626,1,0,0:0:0:0:
64,192,77971,1,0,0:0:0:0:
320,192,77971,1,0,0:0:0:0:
320,192,78315,1,0,0:0:0:0:
64,192,78660,1,0,0:0:0:0:
192,192,78660,1,0,0:0:0:0:
320,192,79005,1,0,0:0:0:0:
64,192,79177,1,0,0:0:0:0:
320,192,79350,128,0,80040:0:0:0:0:
192,192,79350,1,0,0:0:0:0:
448,192,80040,1,0,0:0:0:0:
192,192,80040,128,0,82108:0:0:0:0:
64,192,80384,1,0,0:0:0:0:
320,192,80729,1,0,0:0:0:0:
448,192,80729,1,0,0:0:0:0:
448,192,81074,1,0,0:0:0:0:
448,192,81419,1,0,0:0:0:0:
64,192,81419,1,0,0:0:0:0:
320,192,81591,1,0,0:0:0:0:
320,192,81936,1,0,0:0:0:0:
448,192,82108,1,0,0:0:0:0:
64,192,82108,1,0,0:0:0:0:
192,192,82223,1,0,0:0:0:0:
320,192,82338,1,0,0:0:0:0:
448,192,82453,1,0,0:0:0:0:
320,192,82568,1,0,0:0:0:0:
192,192,82683,1,0,0:0:0:0:
64,192,82798,128,0,84867:0:0:0:0:
448,192,82798,1,0,0:0:0:0:
192,192,83143,1,0,0:0:0:0:
192,192,83488,1,0,0:0:0:0:
448,192,83488,1,0,0:0:0:0:
320,192,83833,1,0,0:0:0:0:
320,192,84177,1,0,0:0:0:0:
192,192,84177,1,0,0:0:0:0:
448,192,84522,1,0,0:0:0:0:
192,192,84867,128,0,85557:0:0:0:0:
448,192,84867,1,0,0:0:0:0:
320,192,85212,1,0,0:0:0:0:
320,192,85557,128,0,88315:0:0:0:0:
64,192,85557,1,0,0:0:0:0:
64,192,85902,1,0,0:0:0:0:
192,192,86246,1,0,0:0:0:0:
448,192,86246,1,0,0:0:0:0:
192,192,86591,1,0,0:0:0:0:
64,192,86936,1,0,0:0:0:0:
448,192,86936,1,0,0:0:0:0:
64,192,87281,1,0,0:0:0:0:
448,192,87626,1,0,0:0:0:0:
192,192,87626,1,0,0:0:0:0:
192,192,87971,1,0,0:0:0:0:
64,192,88315,1,0,0:0:0:0:
448,192,88315,128,0,90384:0:0:0:0:
192,192,88488,1,0,0:0:0:0:
320,192,88660,1,0,0:0:0:0:
64,192,88833,1,0,0:0:0:0:
192,192,89005,1,0,0:0:0:0:
320,192,89005,1,0,0:0:0:0:
64,192,89177,1,0,0:0:0:0:
192,192,89350,1,0,0:0:0:0:
320,192,89522,1,0,0:0:0:0:
64,192,89695,1,0,0:0:0:0:
192,192,89695,1,0,0:0:0:0:
320,192,89867,1,0,0:0:0:0:
64,192,90040,1,0,0:0:0:0:
192,192,90212,1,0,0:0:0:0:
320,192,90384,128,0,91074:0:0:0:0:
64,192,90384,1,0,0:0:0:0:
192,192,90557,1,0,0:0:0:0:
448,192,90729,1,0,0:0:0:0:
64,192,90902,1,0,0:0:0:0:
192,192,91074,128,0,93833:0:0:0:0:
448,192,91074,1,0,0:0:0:0:
320,192,91246,1,0,0:0:0:0:
448,192,91419,1,0,0:0:0:0:
64,192,91591,1,0,0:0:0:0:
320,192,91764,1,0,0:0:0:0:
448,192,91764,1,0,0:0:0:0:
64,192,91936,1,0,0:0:0:0:
320,192,92108,1,0,0:0:0:0:
448,192,92281,1,0,0:0:0:0:
64,192,92453,1,0,0:0:0:0:
320,192,92453,1,0,0:0:0:0:
448,192,92626,1,0,0:0:0:0:
320,192,92798,1,0,0:0:0:0:
64,192,92971,1,0,0:0:0:0:
320,192,93143,1,0,0:0:0:0:
448,192,93143,1,0,0:0:0:0:
64,192,93315,1,0,0:0:0:0:
448,192,93488,1,0,0:0:0:0:
320,192,93660,1,0,0:0:0:0:
64,192,93833,128,0,95902:0:0:0:0:
448,192,93833,1,0,0:0:0:0:
320,192,94005,1,0,0:0:0:0:
448,192,94177,1,0,0:0:0:0:
192,192,94350,1,0,0:0:0:0:
320,192,94522,1,0,0:0:0:0:
448,192,94522,1,0,0:0:0:0:
192,192,94695,1,0,0:0:0:0:
320,192,94867,1,0,0:0:0:0:
448,192,95040,1,0,0:0:0:0:
320,192,95212,1,0,0:0:0:0:
192,192,95212,1,0,0:0:0:0:
448,192,95384,1,0,0:0:0:0:
192,192,95557,1,0,0:0:0:0:
320,192,95729,1,0,0:0:0:0:
192,192,95902,128,0,96591:0:0:0:0:
448,192,95902,1,0,0:0:0:0:
320,192,96074,1,0,0:0:0:0:
64,192,96246,1,0,0:0:0:0:
448,192,96419,1,0,0:0:0:0:
320,192,96591,128,0,97971:0:0:0:0:
64,192,96591,1,0,0:0:0:0:
192,192,96764,1,0,0:0:0:0:
448,192,96936,1,0,0:0:0:0:
64,192,97108,1,0,0:0:0:0:
192,192,97281,1,0,0:0:0:0:
448,192,97281,1,0,0:0:0:0:
64,192,97453,1,0,0:0:0:0:
448,192,97626,1,0,0:0:0:0:
192,192,97798,1,0,0:0:0:0:
64,192,97971,1,0,0:0:0:0:
448,192,97971,1,0,0:0:0:0:
192,192,98315,1,0,0:0:0:0:
320,192,98402,1,0,0:0:0:0:
448,192,98488,1,0,0:0:0:0:
192,192,98574,1,0,0:0:0:0:
320,192,98660,1,0,0:0:0:0:
448,192,98660,1,0,0:0:0:0:
64,192,99350,5,0,0:0:0:0:
448,192,99350,1,0,0:0:0:0:
