osu file format v14

[General]
AudioFilename: audio.mp3
AudioLeadIn: 0
PreviewTime: 58710
Countdown: 0
SampleSet: Soft
StackLeniency: 0.5
Mode: 0
LetterboxInBreaks: 0
WidescreenStoryboard: 1

[Editor]
Bookmarks: 117,30117,45117,60117,90117,112617,142617,157617,172617,202617,232617
DistanceSpacing: 0.5
BeatDivisor: 8
GridSize: 8
TimelineZoom: 2.4

[Metadata]
Title:Vikings (Original Mix)
TitleUnicode:Vikings (Original Mix)
Artist:Botnek & 3LAU
ArtistUnicode:Botnek & 3LAU
Creator:DankerooDuck
Version:Showtime
Source:Need for Speed (2015)
Tags:botnek 3lau vikings need for speed edm bass electro house dim mak records beat lounge january 2015 chart original mix
BeatmapID:1993549
BeatmapSetID:954964

[Difficulty]
HPDrainRate:5.6
CircleSize:4.2
OverallDifficulty:8.2
ApproachRate:9.6
SliderMultiplier:2.75
SliderTickRate:1

[Events]
//Background and Video events
0,0,"bg.jpg",0,0
//Break Periods
//Storyboard Layer 0 (Background)
//Storyboard Layer 1 (Fail)
//Storyboard Layer 2 (Pass)
//Storyboard Layer 3 (Foreground)
//Storyboard Sound Samples

[TimingPoints]
117,468.75,4,2,0,100,1,0
45117,-500,4,2,0,100,0,0
45585,-250,4,2,0,100,0,0
46054,-166.666666666667,4,2,0,100,0,0
46523,-125,4,2,0,100,0,0
46992,-100,4,2,0,100,0,0
47460,-90.9090909090909,4,2,0,100,0,0
47929,-83.3333333333333,4,2,0,100,0,0
48398,-76.9230769230769,4,2,0,100,0,0
48867,-71.4285714285714,4,2,0,100,0,0
49335,-66.6666666666667,4,2,0,100,0,0
49804,-62.5,4,2,0,100,0,0
50273,-58.8235294117647,4,2,0,100,0,0
50742,-55.5555555555556,4,2,0,100,0,0
51210,-52.6315789473684,4,2,0,100,0,0
51679,-50,4,2,0,100,0,0
52148,-47.6190476190476,4,2,0,100,0,0
52617,-45.4545454545455,4,2,0,100,0,0
53085,-43.4782608695652,4,2,0,100,0,0
53554,-41.6666666666667,4,2,0,100,0,0
54023,-40,4,2,0,100,0,0
54492,-38.4615384615385,4,2,0,100,0,0
54960,-37.037037037037,4,2,0,100,0,0
55429,-35.7142857142857,4,2,0,100,0,0
55898,-34.4827586206897,4,2,0,100,0,0
56367,-33.3333333333333,4,2,0,100,0,0
56835,-32.258064516129,4,2,0,100,0,0
57304,-31.25,4,2,0,100,0,0
57773,-30.3030303030303,4,2,0,100,0,0
60117,-142.857142857143,4,2,0,100,0,1
60585,-100,4,2,0,100,0,1
61992,-142.857142857143,4,2,0,100,0,1
62460,-100,4,2,0,100,0,1
63398,-1000,4,2,0,100,0,1
63867,-142.857142857143,4,2,0,100,0,1
64335,-100,4,2,0,100,0,1
67148,-1000,4,2,0,100,0,1
67617,-142.857142857143,4,2,0,100,0,1
68085,-100,4,2,0,100,0,1
69492,-142.857142857143,4,2,0,100,0,0

[HitObjects]
32,96,45117,6,0,P|32:86|35:77,1,13.75
96,32,45351,2,0,P|86:32|77:35,1,13.75
80,160,45585,2,0,P|80:146|85:134,1,27.5
160,80,45819,2,0,P|146:80|133:85,1,27.5
136,232,46054,2,0,P|136:211|144:192,1,41.2499987411499
232,136,46288,2,0,P|211:136|191:144,1,41.2499987411499
192,312,46523,2,0,P|192:285|203:260,1,55
312,192,46757,2,0,P|282:192|256:204,1,55
407,215,46992,6,0,P|396:182|372:156,1,68.75
447,275,47226,2,0,P|474:254|492:224,1,68.75
372,342,47460,2,0,P|402:363|439:371,1,75.6250023078919
287,291,47695,2,0,P|275:326|279:363,1,75.6250023078919
310,192,47929,2,0,P|269:191|232:208,1,82.4999974822999
176,288,48163,2,0,P|176:246|159:208,1,82.4999974822999
80,152,48398,2,0,P|121:152|159:135,1,82.4999974822999
216,56,48632,2,0,P|215:97|232:135,1,82.4999974822999
384,112,48867,6,0,P|343:87|295:82,1,96.2499970626832
248,224,49101,2,0,P|289:200|317:162,1,96.2499970626832
213,37,49335,2,0,P|212:88|232:136,1,103.125003933907
45,154,49570,2,0,P|96:155|144:136,1,103.125003933907
163,329,49804,2,0,P|164:274|144:224,1,110
345,204,50038,2,0,P|290:203|240:224,1,110
400,280,50273,2,0,P|430:230|437:172,1,116.875002229214
304,288,50507,2,0,P|332:339|378:374,1,116.875002229214
160,240,50742,6,0,P|106:269|69:317,1,123.74999622345
208,96,50976,2,0,P|178:42|130:5,1,123.74999622345
352,144,51210,2,0,P|408:112|447:61,1,130.624996511936
304,288,51445,2,0,P|335:344|386:383,1,130.624996511936
272,197,51679,2,0,P|227:244|206:305,1,130.624996511936
349,139,51913,2,0,P|290:110|225:109,1,130.624996511936
426,204,52148,2,0,P|435:132|414:63,1,144.374995594025
383,301,52382,2,0,P|454:288|512:247,1,144.374995594025
496,219,52617,6,0,P|448:272|383:301,1,144.374995594025
383,301,52851,2,0,P|440:258|475:196,1,144.374995594025
458,167,53085,2,0,P|435:242|383:301,1,158.125003015995
383,301,53320,2,0,P|422:232|428:154,1,158.125003015995
397,141,53554,2,0,P|407:223|383:301,1,164.9999949646
382,301,53788,2,0,P|391:219|364:142,1,164.9999949646
332,142,54023,2,0,P|375:216|382:301,1,171.875
382,301,54257,2,0,P|359:219|303:154,1,171.875
168,72,54492,6,0,P|174:160|214:238,1,178.749991817475
183,242,54726,2,0,P|157:156|169:68,1,178.749991817475
168,72,54960,2,0,P|140:155|149:242,1,178.749991817475
115,234,55195,2,0,P|124:145|170:68,1,178.749991817475
168,72,55429,2,0,P|106:145|81:238,1,192.499994125366
51,214,55663,2,0,P|93:127|167:67,1,192.499994125366
168,70,55898,2,0,P|81:118|22:199,1,199.375006084442
2,168,56132,2,0,P|75:100|169:69,1,199.375006084442
512,224,56367,6,0,P|441:292|347:324,1,199.375006084442
331,294,56601,2,0,P|428:278|511:223,1,199.375006084442
512,224,56835,2,0,P|421:263|322:262,1,199.375006084442
317,228,57070,2,0,P|414:246|510:224,1,199.375006084442
512,224,57304,2,0,P|403:231|301:191,1,220
310,155,57538,2,0,P|403:211|512:223,1,220
512,224,57773,2,0,P|401:191|312:114,1,226.875002163649
338,89,58007,2,0,P|410:175|511:224,1,226.875002163649
40,40,60117,6,0,L|40:88,1,48.1249985313416,0|0,0:0|0:0,0:0:0:0:
40,160,60351,1,0,0:0:0:0:
40,168,60409,1,0,0:0:0:0:
40,176,60468,1,0,0:0:0:0:
40,184,60527,1,0,0:0:0:0:
117,272,60585,6,0,L|165:244,1,45.8333333333333,0|0,0:0|0:0,0:0:0:0:
316,184,60742,1,0,0:0:0:0:
358,160,60820,1,0,0:0:0:0:
333,120,60898,1,0,0:0:0:0:
292,143,60976,1,0,0:0:0:0:
394,272,61054,6,0,L|346:243,1,45.8333333333333,0|0,0:0|0:0,0:0:0:0:
219,143,61210,1,0,0:0:0:0:
177,119,61288,1,0,0:0:0:0:
155,160,61366,1,0,0:0:0:0:
195,184,61444,1,0,0:0:0:0:
256,32,61523,6,0,L|256:88,1,45.8333333333333,0|0,0:0|0:0,0:0:0:0:
232,248,61679,1,0,0:0:0:0:
232,296,61757,1,0,0:0:0:0:
279,295,61835,1,0,0:0:0:0:
280,248,61913,1,0,0:0:0:0:
472,40,61992,6,0,L|472:88,1,48.1249985313416,0|0,0:0|0:0,0:0:0:0:
472,160,62226,1,0,0:0:0:0:
472,168,62284,1,0,0:0:0:0:
472,176,62343,1,0,0:0:0:0:
472,184,62402,1,0,0:0:0:0:
394,272,62460,6,0,L|338:239,1,45.8333333333333,0|0,0:0|0:0,0:0:0:0:
158,136,62617,1,0,0:0:0:0:
116,112,62695,1,0,0:0:0:0:
94,153,62773,1,0,0:0:0:0:
134,177,62851,1,0,0:0:0:0:
394,112,62929,2,0,L|338:145,1,45.8333333333333,0|0,0:0|0:0,0:0:0:0:
256,192,63085,1,0,0:0:0:0:
240,224,63163,5,0,0:0:0:0:
272,224,63222,1,0,0:0:0:0:
240,256,63281,1,0,0:0:0:0:
272,256,63340,1,0,0:0:0:0:
256,288,63398,2,0,B|259:291|259:291|256:295|256:295|252:291|252:291|256:288|256:288,1,20.625
472,344,63867,6,0,L|472:296,1,48.1249985313416,0|0,0:0|0:0,0:0:0:0:
472,224,64101,1,0,0:0:0:0:
472,216,64159,1,0,0:0:0:0:
472,208,64218,1,0,0:0:0:0:
472,200,64277,1,0,0:0:0:0:
395,112,64335,6,0,L|347:140,1,45.8333333333333,0|0,0:0|0:0,0:0:0:0:
196,200,64492,1,0,0:0:0:0:
154,224,64570,1,0,0:0:0:0:
179,264,64648,1,0,0:0:0:0:
220,241,64726,1,0,0:0:0:0:
118,112,64804,6,0,L|166:141,1,45.8333333333333,0|0,0:0|0:0,0:0:0:0:
293,241,64960,1,0,0:0:0:0:
335,265,65038,1,0,0:0:0:0:
357,224,65116,1,0,0:0:0:0:
317,200,65194,1,0,0:0:0:0:
256,352,65273,6,0,L|256:296,1,45.8333333333333,0|0,0:0|0:0,0:0:0:0:
280,136,65429,1,0,0:0:0:0:
280,88,65507,1,0,0:0:0:0:
233,89,65585,1,0,0:0:0:0:
232,136,65663,1,0,0:0:0:0:
256,352,65742,6,0,L|295:312,1,45.8333333333333,0|0,0:0|0:0,0:0:0:0:
425,216,65898,1,0,0:0:0:0:
459,182,65976,1,0,0:0:0:0:
425,150,66054,1,0,0:0:0:0:
392,183,66132,1,0,0:0:0:0:
256,352,66210,6,0,L|216:312,1,45.8333333333333,0|0,0:0|0:0,0:0:0:0:
121,183,66366,1,0,0:0:0:0:
87,149,66444,1,0,0:0:0:0:
54,183,66522,1,0,0:0:0:0:
87,216,66600,1,0,0:0:0:0:
256,352,66679,6,0,L|256:329,4,22.9166666666667,0|0|0|0|0,0:0|0:0|0:0|0:0|0:0,0:0:0:0:
256,192,66913,1,0,0:0:0:0:
256,32,67148,6,0,B|251:27|251:27|256:23|256:23|259:27|259:27|256:32|256:32,1,20.625
256,192,67617,5,0,0:0:0:0:
256,352,67851,1,0,0:0:0:0:
256,344,67909,1,0,0:0:0:0:
256,336,67968,1,0,0:0:0:0:
256,328,68027,1,0,0:0:0:0:
256,192,68085,6,0,L|256:136,1,45.8333333333333
124,144,68242,1,0,0:0:0:0:
68,143,68320,1,0,0:0:0:0:
68,199,68398,1,0,0:0:0:0:
124,199,68476,1,0,0:0:0:0:
256,192,68554,6,0,L|304:219,1,45.8333333333333
363,101,68710,1,0,0:0:0:0:
392,53,68788,1,0,0:0:0:0:
343,25,68866,1,0,0:0:0:0:
315,74,68944,1,0,0:0:0:0:
256,192,69023,6,0,L|207:220,1,45.8333333333333
280,330,69179,1,0,0:0:0:0:
307,379,69257,1,0,0:0:0:0:
356,351,69335,1,0,0:0:0:0:
328,302,69413,1,0,0:0:0:0:
