osu file format v14

[General]
AudioFilename: audio.mp3
AudioLeadIn: 0
PreviewTime: 48022
Countdown: 0
SampleSet: Soft
StackLeniency: 0.5
Mode: 0
LetterboxInBreaks: 0
WidescreenStoryboard: 1

[Editor]
DistanceSpacing: 0.5
BeatDivisor: 4
GridSize: 32
TimelineZoom: 1.7

[Metadata]
Title:Otose Thunder
TitleUnicode:おとせサンダー
Artist:BotchiBoromaru
ArtistUnicode:ぼっちぼろまる
Creator:Ryuusei Aika
Version:Shiny Braixen's Insane
Source:
Tags:Bakugo- Shiny Braixen Battle LimeTwist Japanese Rock J-Rock JRock BocchiBoromaru Borotchi shoot ナオ OK bass ゴブリエル tomoboP まご山つく蔵
BeatmapID:3714964
BeatmapSetID:1807695

[Difficulty]
HPDrainRate:5
CircleSize:4
OverallDifficulty:8
ApproachRate:9
SliderMultiplier:1.7
SliderTickRate:1

[Events]
//Background and Video events
0,0,"bg.jpg",0,0
Video,0,"video.mp4"
//Break Periods
2,87036,91659
//Storyboard Layer 0 (Background)
//Storyboard Layer 1 (Fail)
//Storyboard Layer 2 (Pass)
//Storyboard Layer 3 (Foreground)
//Storyboard Layer 4 (Overlay)
//Storyboard Sound Samples

[TimingPoints]
735,338.983050847458,4,2,1,60,1,0
2768,338.983050847458,4,2,1,80,1,0
13615,-125,4,2,1,60,0,0
24462,-111.111111111111,4,2,1,70,0,0
32598,-100,4,2,1,70,0,0
35310,-111.111111111111,4,2,1,70,0,0
46327,-142.857142857143,4,2,1,70,0,0
48869,-90.9090909090909,4,2,1,100,0,1
49547,-83.3333333333333,4,2,1,100,0,1
50225,-76.9230769230769,4,2,1,100,0,1
51581,-90.9090909090909,4,2,1,100,0,1
52259,-83.3333333333333,4,2,1,100,0,1
52937,-76.9230769230769,4,2,1,100,0,1
53954,-76.9230769230769,4,2,1,100,0,0
54293,-83.3333333333333,4,2,1,100,0,1
59717,-90.9090909090909,4,2,1,100,0,1
60395,-83.3333333333333,4,2,1,100,0,1
61073,-76.9230769230769,4,2,1,100,0,1
62429,-83.3333333333333,4,2,1,100,0,1
64801,-83.3333333333333,4,2,1,100,0,0
65140,-83.3333333333333,4,2,1,100,0,1
65225,-83.3333333333333,4,2,1,100,0,0
65479,-90.9090909090909,4,2,1,100,0,0
70564,-90.9090909090909,4,2,1,100,0,1
70903,-83.3333333333333,4,2,1,100,0,1
73615,-83.3333333333333,4,2,1,44,0,1
73784,-83.3333333333333,4,2,1,51,0,1
73953,-83.3333333333333,4,2,1,58,0,1
74123,-83.3333333333333,4,2,1,65,0,1
74293,-83.3333333333333,4,2,1,72,0,1
74462,-83.3333333333333,4,2,1,79,0,1
74632,-83.3333333333333,4,2,1,86,0,1
74801,-83.3333333333333,4,2,1,93,0,1
74971,-83.3333333333333,4,2,1,100,0,1
75988,-100,4,2,1,80,0,0
86835,-100,4,2,1,60,0,0
92259,-250,4,2,1,60,0,0
96327,-250,4,2,1,70,0,0
96666,-142.857142857143,4,2,1,70,0,0
97683,-125,4,2,1,70,0,0
106157,-117.647058823529,4,2,1,70,0,0
111242,-90.9090909090909,4,2,1,100,0,1
111920,-83.3333333333333,4,2,1,100,0,1
112598,-76.9230769230769,4,2,1,100,0,1
113954,-90.9090909090909,4,2,1,100,0,1
114632,-83.3333333333333,4,2,1,100,0,1
115310,-76.9230769230769,4,2,1,100,0,1
116327,-76.9230769230769,4,2,1,100,0,0
116666,-83.3333333333333,4,2,1,100,0,1
122047,-83.3333333333333,4,2,1,100,0,0
122090,-90.9090909090909,4,2,1,100,0,1
122768,-83.3333333333333,4,2,1,100,0,1
123445,-76.9230769230769,4,2,1,100,0,1
124801,-83.3333333333333,4,2,1,100,0,1
127429,-83.3333333333333,4,2,1,100,0,0
127513,-90.9090909090909,4,2,1,100,0,1
130225,-100,4,2,1,100,0,0
130563,-100,4,2,1,60,0,0
130903,-250,4,2,1,60,0,0
131751,-250,4,2,1,80,0,0
132485,-100,4,2,1,80,0,0
133275,-100,4,2,1,60,0,0
133615,-250,4,2,1,60,0,0
135197,-100,4,2,1,60,0,0
136327,-250,4,2,1,60,0,0
137174,-250,4,2,1,80,0,0
137909,-100,4,2,1,80,0,0
138699,-100,4,2,1,60,0,0
139039,-250,4,2,1,60,0,0
139886,-250,4,2,1,80,0,0
140395,-100,4,2,1,80,0,0
141073,-90.9090909090909,4,2,1,80,0,0
153276,-111.111111111111,4,2,1,80,0,0
166835,-208.333333333333,4,2,1,50,0,0
169208,-200,4,2,1,50,0,0
177683,-142.857142857143,4,2,1,55,0,0
183106,-142.857142857143,4,2,1,40,0,0
183445,-125,4,2,1,50,0,0
183784,-111.111111111111,4,2,1,60,0,0
184123,-100,4,2,1,70,0,0
184462,-100,4,2,1,80,0,0
185818,-90.9090909090909,4,2,1,100,0,1
186496,-83.3333333333333,4,2,1,100,0,1
187513,-76.9230769230769,4,2,1,100,0,1
188530,-90.9090909090909,4,2,1,100,0,1
189208,-83.3333333333333,4,2,1,100,0,1
190225,-76.9230769230769,4,2,1,100,0,1
191200,-76.9230769230769,4,2,1,100,0,0
191242,-83.3333333333333,4,2,1,100,0,1
196623,-83.3333333333333,4,2,1,100,0,0
196666,-90.9090909090909,4,2,1,100,0,1
197344,-83.3333333333333,4,2,1,100,0,1
198022,-76.9230769230769,4,2,1,100,0,1
201751,-76.9230769230769,4,2,1,100,0,0
202090,-76.9230769230769,4,2,1,100,0,1
202174,-76.9230769230769,4,2,1,100,0,0
202429,-90.9090909090909,4,2,1,100,0,0
207513,-90.9090909090909,4,2,1,100,0,1
207852,-83.3333333333333,4,2,1,100,0,1
213276,-83.3333333333333,4,2,1,44,0,1
213445,-83.3333333333333,4,2,1,51,0,1
213615,-83.3333333333333,4,2,1,58,0,1
213784,-83.3333333333333,4,2,1,65,0,1
213954,-100,4,2,1,72,0,1
214123,-100,4,2,1,79,0,1
214293,-100,4,2,1,86,0,1
214462,-100,4,2,1,93,0,1
214632,-100,4,2,1,100,0,1
215606,-100,4,2,1,100,0,0
215649,-100,4,2,1,100,0,1
215691,-100,4,2,1,100,0,0
218361,-100,4,2,1,80,0,0
229208,-90.9090909090909,4,2,1,90,0,1
237344,-90.9090909090909,4,2,1,90,0,0
237683,-100,4,2,1,40,0,0
238530,-125,4,2,1,40,0,0
239886,-71.4285714285714,4,2,1,80,0,0

[Colours]
Combo1 : 255,159,64
Combo2 : 0,191,191

[HitObjects]
235,28,735,5,4,3:2:0:0:
269,96,960,5,4,3:2:0:0:
235,164,1186,6,0,P|194:240|220:297,1,113.33333333333333,4|4,3:2|3:2,2:0:0:0:
265,300,1638,5,4,3:2:0:0:
237,371,1864,5,4,3:2:0:0:
325,143,2429,5,2,2:0:0:0:
325,143,2768,6,0,P|373:109|412:115,1,85,4|0,3:2|2:0,2:0:0:0:
430,118,3022,1,0,2:0:0:0:
430,118,3106,2,0,L|464:218,1,85,10|8,2:0|2:3,2:0:0:0:
430,380,3445,2,0,P|407:323|300:286,1,170,2|8,3:0|2:0,2:0:0:0:
248,328,3954,5,10,2:3:0:0:
198,217,4123,1,2,3:0:0:0:
325,143,4293,1,10,2:3:0:0:
325,143,4632,6,0,L|147:114,1,170,10|10,2:3|2:3,2:0:0:0:
34,97,5140,2,0,P|13:45|13:5,1,85,10|10,2:0|2:3,2:0:0:0:
86,160,5479,6,0,P|77:215|56:249,1,85,0|8,3:0|2:3,2:0:0:0:
59,268,5734,1,0,2:0:0:0:
59,268,5818,2,0,P|108:297|157:293,1,85,10|8,2:0|2:3,2:0:0:0:
125,380,6157,2,0,P|150:322|246:233,1,170,2|8,3:0|2:0,2:0:0:0:
425,220,6666,6,0,L|268:308,1,170,10|10,2:3|2:3,2:0:0:0:
253,317,7090,1,0,2:0:0:0:
253,317,7174,2,0,P|220:276|225:239,1,85,10|10,2:0|2:3,2:0:0:0:
277,192,7513,5,2,3:0:0:0:
230,55,7683,1,14,2:0:0:0:
316,58,7852,2,0,L|203:24,1,85,14|2,2:0|2:0,2:0:0:0:
101,7,8191,6,0,P|94:51|144:105,1,85,4|0,3:2|2:0,2:0:0:0:
140,111,8445,1,0,2:0:0:0:
140,111,8530,2,0,L|226:136,1,85,10|8,2:0|2:3,2:0:0:0:
336,213,8869,2,0,P|301:157|317:55,1,170,2|8,3:0|2:0,2:0:0:0:
384,23,9378,5,10,2:3:0:0:
463,66,9547,1,2,3:0:0:0:
466,231,9717,1,10,2:3:0:0:
466,231,10056,6,0,L|309:314,1,170,10|10,2:3|2:3,2:0:0:0:
219,291,10564,2,0,P|199:349|192:402,1,85,10|10,2:0|2:3,2:0:0:0:
180,221,10903,6,0,P|126:199|81:218,1,85,0|8,3:0|2:3,2:0:0:0:
75,232,11157,1,0,2:0:0:0:
75,232,11242,1,10,2:0:0:0:
15,94,11412,2,0,L|-12:24,2,42.5,8|8|10,2:0|2:0|3:2,2:0:0:0:
0,175,11751,1,0,1:0:0:0:
134,27,11920,1,0,3:0:0:0:
134,27,12090,6,0,P|190:53|223:157,1,170,14|10,2:0|2:0,2:0:0:0:
182,226,12598,1,10,2:0:0:0:
182,226,12768,1,10,2:0:0:0:
305,187,12937,2,0,L|320:276,1,85,14|10,2:0|2:0,2:0:0:0:
331,311,13191,1,8,2:0:0:0:
331,311,13276,2,0,P|377:336|425:314,1,85,10|0,3:2|1:0,2:0:0:0:
478,186,13615,6,0,P|473:255|499:321,2,136,6|10|2,3:2|2:0|3:0,2:0:0:0:
472,8,14632,2,0,L|392:24,1,68,8|10,2:0|2:3,2:0:0:0:
349,89,14971,2,0,P|247:69|232:34,2,136,2|10|2,3:0|2:0|3:0,2:0:0:0:
405,151,15818,1,8,2:3:0:0:
405,151,15988,2,0,L|484:127,1,68,10|10,2:0|2:3,2:0:0:0:
379,227,16327,6,0,L|221:201,1,136,2|10,3:0|2:0,2:0:0:0:
68,122,17005,2,0,P|33:133|1:177,1,68,0|10,3:0|2:3,2:0:0:0:
42,227,17344,2,0,P|35:263|59:311,1,68,8|10,2:0|2:3,2:0:0:0:
119,336,17683,1,2,3:0:0:0:
119,336,17852,1,10,2:3:0:0:
186,291,18022,6,0,L|265:280,2,68,10|10|2,2:0|2:3|3:0,2:0:0:0:
139,227,18530,1,10,2:3:0:0:
219,134,18700,2,0,L|234:50,1,68,10|10,2:0|2:3,2:0:0:0:
177,4,19039,6,0,L|314:55,2,136,2|10|2,3:0|2:0|3:0,2:0:0:0:
1,135,20056,2,0,L|16:208,1,68,10|10,2:0|2:3,2:0:0:0:
88,253,20395,1,2,3:0:0:0:
88,253,20564,1,10,2:3:0:0:
62,326,20734,2,0,P|16:321|-5:301,1,68,10|10,2:0|2:3,2:0:0:0:
145,312,21073,2,0,P|193:325|259:398,1,136,2|10,3:0|2:0,2:0:0:0:
320,339,21581,1,10,2:3:0:0:
320,339,21751,6,0,L|466:286,2,136,2|10|2,3:0|2:0|3:0,2:0:0:0:
214,148,22768,2,0,P|229:102|259:89,1,68,14|10,2:0|2:0,2:0:0:0:
267,92,23022,1,8,2:0:0:0:
267,92,23106,6,0,L|348:84,1,68,10|2,3:2|1:0,2:0:0:0:
458,139,23445,2,0,L|377:147,1,68,2|2,1:0|3:0,2:0:0:0:
214,148,23784,6,0,L|207:215,1,68,10|0,2:0|2:0,2:0:0:0:
205,239,24039,1,0,2:0:0:0:
203,262,24123,1,0,2:0:0:0:
203,262,24462,6,0,P|153:256|106:157,1,153.00000000000014,6|10,3:2|2:0,2:0:0:0:
25,199,24971,1,10,2:3:0:0:
25,199,25140,2,0,L|135:74,1,153.00000000000014,2|10,3:0|2:0,2:0:0:0:
5,101,25649,1,10,2:3:0:0:
5,101,25818,2,0,P|53:125|129:198,2,153.00000000000014,2|10|2,3:0|2:0|3:0,2:0:0:0:
205,122,26835,2,0,L|228:37,1,76.50000000000007,10|10,2:0|2:3,2:0:0:0:
294,13,27174,6,0,P|346:10|406:94,1,153.00000000000014,2|10,3:0|2:0,2:0:0:0:
512,235,27852,2,0,P|460:238|400:154,1,153.00000000000014,0|8,3:0|2:0,2:0:0:0:
321,164,28361,1,10,2:3:0:0:
321,164,28530,2,0,L|221:189,1,76.50000000000007,2|10,3:0|2:3,2:0:0:0:
342,257,28869,2,0,L|316:356,1,76.50000000000007,10|10,2:0|2:3,2:0:0:0:
212,288,29208,2,0,L|46:249,1,153.00000000000014,2|10,3:0|2:0,2:0:0:0:
29,174,29717,1,10,2:3:0:0:
29,174,29801,1,0,2:0:0:0:
29,174,29886,6,0,P|24:121|1:16,2,153.00000000000014,2|10|2,3:0|2:0|3:0,2:0:0:0:
30,367,30903,2,0,P|74:379|114:361,1,76.50000000000007,10|10,2:0|2:3,2:0:0:0:
164,324,31242,1,2,3:0:0:0:
164,324,31412,1,10,2:3:0:0:
228,364,31581,2,0,L|314:373,1,76.50000000000007,10|10,2:0|2:3,2:0:0:0:
372,337,31920,6,0,P|396:297|386:260,1,76.50000000000007,2|8,3:0|2:0,2:0:0:0:
370,237,32174,1,8,2:0:0:0:
370,237,32259,2,0,P|367:199|389:169,1,76.50000000000007,10|10,3:2|2:0,2:0:0:0:
420,146,32513,1,8,2:0:0:0:
420,146,32598,6,0,L|265:62,1,170,6|10,3:2|2:0,2:0:0:0:
75,37,33191,1,8,2:0:0:0:
75,37,33276,2,0,P|101:97|106:149,1,85,2|2,3:0|3:0,2:0:0:0:
3,233,33615,2,0,P|27:172|60:131,1,85,10|0,2:0|3:0,2:0:0:0:
175,161,33954,6,0,L|276:142,2,85,10|2|10,2:0|3:0|2:0,2:0:0:0:
98,269,34462,1,10,2:0:0:0:
98,269,34547,1,8,2:0:0:0:
98,269,34632,2,0,L|135:356,1,85,10|0,3:2|1:0,2:0:0:0:
224,375,34971,1,0,3:0:0:0:
321,304,35140,1,0,1:0:0:0:
321,304,35225,1,0,1:0:0:0:
321,304,35310,6,0,B|395:322|395:322|448:355,1,114.75000000000009,4|0,3:2|2:0,2:0:0:0:
427,342,35649,1,10,2:0:0:0:
176,263,35988,6,0,B|102:281|102:281|49:314,1,114.75000000000009,2|0,3:0|2:0,2:0:0:0:
69,301,36327,1,10,2:0:0:0:
417,97,36666,5,6,3:2:0:0:
59,129,37005,1,6,3:2:0:0:
417,97,37344,5,6,3:2:0:0:
180,76,37598,1,0,2:0:0:0:
180,76,37683,2,0,L|167:174,1,76.50000000000007,10|2,2:0|3:0,2:0:0:0:
413,193,38022,6,0,P|464:175|510:124,1,114.75000000000009,6|0,3:2|2:0,2:0:0:0:
505,132,38361,1,10,2:0:0:0:
124,222,38700,6,0,P|73:204|27:153,1,114.75000000000009,2|0,3:0|2:0,2:0:0:0:
31,161,39039,1,10,2:0:0:0:
312,91,39378,5,2,3:0:0:0:
312,91,39547,1,2,3:0:0:0:
312,91,39717,1,10,2:0:0:0:
312,91,39886,1,0,2:0:0:0:
312,91,40056,2,0,L|298:189,1,76.50000000000007,2|0,3:0|3:0,2:0:0:0:
113,146,40395,2,0,L|127:244,1,76.50000000000007,8|0,2:0|2:0,2:0:0:0:
385,191,40734,5,4,3:2:0:0:
385,191,41073,2,0,P|307:208|230:236,1,153.00000000000014,10|2,2:0|3:0,2:0:0:0:
19,321,41666,1,0,2:0:0:0:
19,321,41751,2,0,P|97:338|148:364,1,114.75000000000009,10|0,2:0|2:0,2:0:0:0:
163,367,42090,6,0,L|193:267,1,76.50000000000007,6|2,3:2|2:0,2:0:0:0:
357,318,42429,2,0,L|327:218,1,76.50000000000007,6|2,3:2|2:0,2:0:0:0:
116,269,42768,6,0,L|146:169,1,76.50000000000007,6|8,3:2|2:0,2:0:0:0:
150,159,43022,1,8,2:0:0:0:
150,159,43106,2,0,L|172:74,1,76.50000000000007,8|10,3:2|2:0,2:0:0:0:
179,47,43361,1,8,2:0:0:0:
179,47,43445,6,0,P|226:27|336:29,1,153.00000000000014,6|8,3:2|2:0,2:0:0:0:
512,76,43954,1,2,3:0:0:0:
512,76,44123,2,0,P|465:96|355:94,1,153.00000000000014,10|10,2:0|2:0,2:0:0:0:
255,151,44632,1,2,3:0:0:0:
255,151,44801,2,0,L|277:232,1,76.50000000000007,10|2,2:0|3:0,2:0:0:0:
221,294,45140,2,0,L|287:345,1,76.50000000000007,10|2,2:0|3:0,2:0:0:0:
363,308,45479,2,0,L|215:393,1,153.00000000000014,10|10,2:0|2:0,2:0:0:0:
12,285,46157,5,6,3:2:0:0:
106,237,46327,2,0,L|162:230,3,29.74999999999997,8|8|8|8,2:0|2:0|2:0|2:0,2:0:0:0:
106,237,46666,1,8,2:0:0:0:
182,168,46835,2,0,L|226:148,3,29.74999999999997,0|0|8|8,3:0|3:0|2:0|2:0,2:0:0:0:
182,168,47174,1,8,2:0:0:0:
168,141,47259,1,0,1:0:0:0:
154,114,47344,1,0,3:0:0:0:
140,87,47429,1,0,1:0:0:0:
128,60,47513,5,8,2:0:0:0:
463,84,48022,1,6,3:2:0:0:
463,84,48191,2,0,P|458:141|450:168,1,59.49999999999994,2|10,2:0|2:0,2:0:0:0:
342,230,48530,1,10,2:0:0:0:
338,247,48615,1,8,2:0:0:0:
334,264,48700,1,8,2:0:0:0:
330,281,48784,1,8,2:0:0:0:
328,290,48869,6,0,L|311:406,1,93.5,6|0,3:2|2:0,2:0:0:0:
184,277,49208,2,0,L|201:393,1,93.5,8|8,2:0|2:3,2:0:0:0:
396,134,49547,6,0,L|379:265,1,102.00000000000003,0|8,3:0|2:3,2:0:0:0:
121,120,49886,2,0,L|141:240,1,102.00000000000003,8|8,2:0|2:3,2:0:0:0:
323,30,50225,6,0,P|264:6|193:29,1,110.50000000000001,0|8,3:0|2:3,2:0:0:0:
196,23,50479,1,0,2:0:0:0:
196,23,50564,2,0,L|215:134,1,110.50000000000001,8|10,2:0|2:3,2:0:0:0:
291,249,50903,5,2,3:0:0:0:
321,147,51073,1,10,2:3:0:0:
293,254,51242,2,0,L|172:281,1,110.50000000000001,10|8,2:0|2:3,2:0:0:0:
198,370,51581,6,0,L|184:277,1,93.5,2|8,3:0|2:3,2:0:0:0:
314,382,51920,2,0,L|328:290,1,93.5,8|8,2:0|2:3,2:0:0:0:
138,221,52259,6,0,L|121:120,1,102.00000000000003,0|8,3:0|2:3,2:0:0:0:
382,235,52598,2,0,L|396:134,1,102.00000000000003,8|8,2:0|2:3,2:0:0:0:
428,301,52937,6,0,P|368:313|312:263,1,110.50000000000001,0|8,3:0|2:3,2:0:0:0:
311,267,53191,1,0,2:0:0:0:
311,267,53276,2,0,P|251:254|195:304,1,110.50000000000001,8|8,2:0|2:3,2:0:0:0:
193,300,53530,1,0,2:0:0:0:
193,300,53615,5,2,3:0:0:0:
172,214,53784,1,10,2:0:0:0:
148,105,53954,1,10,3:2:0:0:
148,105,54293,6,0,L|79:326,1,204.00000000000006,6|10,3:2|2:0,2:0:0:0:
25,176,54801,1,8,2:3:0:0:
25,176,54971,2,0,P|48:111|-6:-15,1,204.00000000000006,2|10,3:0|2:0,2:0:0:0:
162,29,55479,1,8,2:3:0:0:
162,29,55649,6,0,L|273:44,1,102.00000000000003,2|10,3:0|2:3,2:0:0:0:
457,71,55988,2,0,L|346:86,1,102.00000000000003,10|10,2:0|2:3,2:0:0:0:
334,92,56242,1,0,2:0:0:0:
334,92,56327,2,0,P|312:137|326:204,1,102.00000000000003,2|8,3:0|2:3,2:0:0:0:
395,383,56666,2,0,P|388:333|277:320,1,153.00000000000003,10|0,2:0|2:0,2:0:0:0:
294,307,57005,6,0,L|505:229,2,204.00000000000006,2|10|2,3:0|2:0|3:0,2:0:0:0:
232,367,57852,1,8,2:3:0:0:
166,251,58022,2,0,L|65:276,1,102.00000000000003,10|8,2:0|2:3,2:0:0:0:
27,128,58361,6,0,P|-5:77|93:91,1,204.00000000000006,10|0,3:2|3:0,2:0:0:0:
109,155,58869,1,10,2:0:0:0:
109,155,58954,1,0,2:0:0:0:
109,155,59039,2,0,L|181:161,2,51.000000000000014,2|0|10,3:0|2:0|2:0,2:0:0:0:
212,90,59378,6,0,P|238:157|237:209,1,102.00000000000003,2|0,3:0|1:0,2:0:0:0:
337,378,59717,6,0,L|438:368,1,93.5,6|0,3:2|2:0,2:0:0:0:
368,345,60056,2,0,L|464:312,1,93.5,8|4,2:0|2:1,2:0:0:0:
356,236,60395,6,0,L|423:159,1,102.00000000000003,0|4,3:0|2:1,2:0:0:0:
356,190,60734,2,0,L|404:100,1,102.00000000000003,8|4,2:0|2:1,2:0:0:0:
217,147,61073,6,0,L|226:34,1,110.50000000000001,0|4,3:0|2:1,2:0:0:0:
174,0,61327,1,0,2:0:0:0:
174,0,61412,2,0,L|189:109,1,110.50000000000001,8|6,2:0|2:1,2:0:0:0:
165,261,61751,6,0,P|227:269|276:244,2,110.50000000000001,2|6|10,3:0|2:1|2:0,2:0:0:0:
11,266,62259,1,6,2:1:0:0:
11,266,62429,2,0,P|48:190|98:30,1,204.00000000000006,2|8,3:0|2:0,2:0:0:0:
31,19,62937,1,4,2:1:0:0:
141,165,63106,2,0,L|173:377,1,204.00000000000006,2|8,3:0|2:0,2:0:0:0:
272,384,63615,1,4,2:1:0:0:
272,384,63784,2,0,P|339:322|447:347,1,204.00000000000006,2|12,3:0|2:0,2:0:0:0:
507,235,64293,1,2,1:0:0:0:
507,235,64378,1,0,1:0:0:0:
507,235,64462,5,2,3:0:0:0:
437,180,64632,1,2,3:0:0:0:
351,109,64801,1,14,2:0:0:0:
358,116,65140,5,6,3:2:0:0:
358,116,65310,1,2,3:0:0:0:
358,116,65479,2,0,P|277:129|245:128,1,93.5,10|2,2:0|1:0,2:0:0:0:
126,205,65818,5,2,3:0:0:0:
126,205,65988,1,0,3:0:0:0:
126,205,66157,2,0,P|46:185|17:171,1,93.5,10|0,2:0|1:0,2:0:0:0:
178,38,66496,5,2,3:0:0:0:
178,38,66666,1,2,3:0:0:0:
178,38,66835,2,0,P|158:117|144:146,1,93.5,10|2,2:0|1:0,2:0:0:0:
246,239,67174,5,2,3:0:0:0:
246,239,67344,1,0,3:0:0:0:
246,239,67513,2,0,P|265:318|279:347,1,93.5,12|2,2:0|2:0,2:0:0:0:
455,221,67852,5,6,3:2:0:0:
455,221,68022,1,0,3:0:0:0:
455,221,68191,2,0,L|506:104,1,93.5,10|0,2:0|1:0,2:0:0:0:
347,237,68530,5,2,3:0:0:0:
347,237,68700,1,0,3:0:0:0:
347,237,68869,2,0,L|398:354,1,93.5,10|2,2:0|1:0,2:0:0:0:
250,165,69208,5,2,3:0:0:0:
250,165,69378,1,2,3:0:0:0:
250,165,69547,2,0,L|259:37,1,93.5,10|2,2:0|1:0,2:0:0:0:
134,228,69886,5,6,3:2:0:0:
134,228,70056,1,0,3:0:0:0:
134,228,70225,2,0,L|163:352,1,93.5,12|0,2:0|2:0,2:0:0:0:
162,341,70479,1,0,2:0:0:0:
168,363,70564,1,4,3:2:0:0:
168,363,70903,6,0,P|121:279|12:292,2,204.00000000000006,10|2|10,2:0|3:0|2:0,2:0:0:0:
354,375,71835,1,8,2:0:0:0:
354,375,71920,2,0,P|414:363|421:317,1,102.00000000000003,2|2,3:0|3:0,2:0:0:0:
466,177,72259,2,0,P|448:235|485:263,1,102.00000000000003,10|2,2:0|2:0,2:0:0:0:
512,102,72598,2,0,P|413:146|315:123,1,204.00000000000006,2|8,3:0|2:0,2:0:0:0:
284,61,73106,1,0,3:0:0:0:
215,231,73276,5,14,2:0:0:0:
215,231,73615,2,0,P|217:286|231:347,2,102.00000000000003,10|10|10,2:0|2:0|2:0,2:0:0:0:
248,97,74123,1,8,2:0:0:0:
165,143,74293,2,0,L|57:131,1,102.00000000000003,10|10,2:0|2:0,2:0:0:0:
20,68,74632,5,10,2:0:0:0:
20,68,74801,1,10,2:0:0:0:
10,231,74971,1,14,2:0:0:0:
10,231,75140,1,10,2:0:0:0:
147,179,75310,2,0,L|110:304,1,102.00000000000003,10|8,2:0|2:0,2:0:0:0:
113,306,75564,1,8,2:0:0:0:
113,306,75649,2,0,P|153:357|197:348,1,102.00000000000003,10|0,2:0|1:0,2:0:0:0:
312,209,75988,6,0,P|290:164|236:144,1,85,6|0,3:2|2:0,2:0:0:0:
233,136,76242,1,0,2:0:0:0:
233,136,76327,2,0,L|323:97,1,85,10|8,2:0|2:3,2:0:0:0:
479,40,76666,2,0,P|428:111|459:220,1,170,2|8,3:0|2:0,2:0:0:0:
498,232,77174,5,10,2:3:0:0:
310,182,77344,1,2,3:0:0:0:
373,273,77513,1,10,2:3:0:0:
374,273,77852,6,0,P|281:291|227:365,1,170,10|10,2:3|2:3,2:0:0:0:
85,335,78361,2,0,P|143:368|163:405,1,85,10|10,2:0|2:3,2:0:0:0:
199,239,78700,6,0,L|179:131,1,85,0|8,3:0|2:3,2:0:0:0:
175,122,78954,1,0,2:0:0:0:
175,122,79039,2,0,P|142:86|103:95,1,85,10|8,2:0|2:3,2:0:0:0:
271,171,79378,2,0,L|93:233,1,170,2|8,3:0|2:0,2:0:0:0:
295,252,79886,6,0,P|383:245|432:170,1,170,10|10,2:3|2:3,2:0:0:0:
438,154,80310,1,0,2:0:0:0:
438,154,80395,2,0,L|454:70,1,85,10|10,2:0|2:3,2:0:0:0:
399,20,80734,5,2,3:0:0:0:
271,171,80903,1,14,2:0:0:0:
229,85,81073,2,0,L|258:190,1,85,14|2,2:0|2:0,2:0:0:0:
280,328,81412,6,0,P|232:361|179:361,1,85,4|0,3:2|2:0,2:0:0:0:
174,353,81666,1,0,2:0:0:0:
174,353,81751,2,0,P|126:320|73:320,1,85,10|8,2:0|2:3,2:0:0:0:
85,144,82090,6,0,P|71:212|-13:281,1,170,2|8,3:0|2:0,2:0:0:0:
12,355,82598,1,10,2:3:0:0:
100,316,82768,1,2,3:0:0:0:
181,148,82937,1,10,2:3:0:0:
181,148,83276,6,0,P|201:66|266:14,1,170,10|10,2:3|2:3,2:0:0:0:
419,68,83784,2,0,L|307:102,1,85,10|10,2:0|2:3,2:0:0:0:
486,132,84123,6,0,L|477:220,1,85,0|8,3:0|2:3,2:0:0:0:
476,254,84378,1,0,2:0:0:0:
476,254,84462,1,14,2:0:0:0:
342,201,84632,2,0,P|297:180|286:183,2,42.5,8|8|10,2:0|2:0|3:2,2:0:0:0:
354,279,84971,1,0,1:0:0:0:
201,206,85140,1,0,3:0:0:0:
201,206,85310,6,0,L|45:288,1,170,14|10,2:0|2:0,2:0:0:0:
1,226,85818,1,10,2:0:0:0:
1,226,85988,1,10,2:0:0:0:
123,360,86157,1,14,2:0:0:0:
195,311,86327,1,10,2:0:0:0:
226,299,86412,1,8,2:0:0:0:
258,288,86496,2,0,L|343:308,1,85,10|8,2:0|2:0,2:0:0:0:
373,316,86751,1,8,2:0:0:0:
373,316,86835,1,6,3:2:0:0:
0,20,92259,6,0,B|57:8|57:8|232:71|232:71|454:41|454:41|528:61,1,544,10|10,3:1|3:1,2:0:0:0:
473,150,95310,1,10,3:1:0:0:
308,148,95649,1,10,3:1:0:0:
83,191,95988,1,10,2:0:0:0:
87,195,96327,5,14,2:0:0:0:
87,195,96496,1,2,1:0:0:0:
40,260,96666,2,0,P|24:299|24:332,1,59.49999999999994,2|10,3:0|2:0,2:0:0:0:
169,378,97005,2,0,L|157:318,1,59.49999999999994,14|8,2:0|2:0,2:0:0:0:
200,193,97344,5,8,2:0:0:0:
214,197,97429,1,8,2:0:0:0:
228,201,97513,1,8,2:0:0:0:
242,205,97598,1,8,2:0:0:0:
256,209,97683,6,0,L|327:229,1,68,6|2,3:2|3:0,2:0:0:0:
463,202,98022,2,0,P|473:223|472:249,1,34,10|0,2:0|2:0,2:0:0:0:
445,308,98191,1,2,2:0:0:0:
445,308,98361,2,0,P|379:298|373:273,1,68,2|2,3:0|3:0,2:0:0:0:
331,160,98700,2,0,L|317:253,1,68,10|0,2:0|2:0,2:0:0:0:
214,353,99039,6,0,P|195:362|165:363,1,34,2|2,3:0|2:0,2:0:0:0:
154,354,99208,2,0,P|133:358|104:352,1,34,2|0,3:0|2:0,2:0:0:0:
88,339,99378,2,0,L|71:254,2,68,10|2|2,2:0|2:0|3:0,2:0:0:0:
142,211,99886,1,2,2:0:0:0:
142,211,100056,2,0,P|106:186|79:188,1,68,10|0,2:0|2:0,2:0:0:0:
271,187,100395,6,0,P|316:174|342:137,1,68,2|2,3:0|3:0,2:0:0:0:
343,135,100649,1,2,2:0:0:0:
343,135,100734,2,0,L|430:119,2,68,10|2|2,2:0|2:0|3:0,2:0:0:0:
241,23,101242,1,2,3:0:0:0:
241,23,101412,2,0,P|210:62|204:92,1,68,10|0,2:0|2:0,2:0:0:0:
15,29,101751,6,0,P|57:63|87:131,1,101.99999999999999,2|0,3:0|3:0,2:0:0:0:
86,130,102090,2,0,L|92:166,1,34,10|2,2:0|2:0,2:0:0:0:
97,190,102259,2,0,L|106:249,1,34,10|2,2:0|2:0,2:0:0:0:
105,250,102429,6,0,L|201:278,1,68,2|0,3:0|2:0,2:0:0:0:
200,279,102683,1,2,3:0:0:0:
200,279,102768,2,0,P|233:307|245:344,1,68,10|0,2:0|2:0,2:0:0:0:
292,205,103106,6,0,L|330:64,1,136,2|10,3:0|2:0,2:0:0:0:
461,9,103615,1,2,2:0:0:0:
461,9,103784,2,0,P|493:53|486:76,1,68,2|2,3:0|3:0,2:0:0:0:
483,88,104039,1,2,2:0:0:0:
483,88,104123,1,10,2:0:0:0:
400,203,104293,1,2,2:0:0:0:
400,203,104462,6,0,P|416:262|442:279,1,68,0|2,3:0|2:0,2:0:0:0:
449,384,104801,2,0,L|510:233,1,136,10|2,2:0|3:0,2:0:0:0:
351,347,105310,1,2,2:0:0:0:
351,347,105479,2,0,P|306:299|305:273,1,68,10|0,2:0|3:0,2:0:0:0:
296,149,105818,5,12,2:0:0:0:
296,149,105988,1,2,3:0:0:0:
171,201,106157,2,0,L|186:274,1,72.25000000000026,10|2,2:0|3:0,2:0:0:0:
131,348,106496,5,10,2:0:0:0:
131,348,106666,1,2,3:0:0:0:
15,237,106835,2,0,L|43:155,1,72.25000000000026,8|2,2:0|3:0,2:0:0:0:
117,144,107174,5,14,2:0:0:0:
68,0,107344,1,2,3:0:0:0:
0,96,107513,1,10,2:0:0:0:
161,51,107683,1,2,3:0:0:0:
161,51,107852,6,0,L|264:35,1,72.25000000000026,2|2,1:0|3:0,2:0:0:0:
264,41,108106,1,2,3:0:0:0:
264,41,108191,2,0,P|289:72|292:113,1,72.25000000000026,2|0,1:0|3:0,2:0:0:0:
215,330,108530,5,10,2:0:0:0:
293,103,109208,1,8,2:0:0:0:
215,330,109886,6,0,P|265:316|314:320,1,72.25000000000026,4|0,3:2|2:0,2:0:0:0:
293,103,110225,2,0,P|257:100|222:88,1,72.25000000000026,4|2,3:2|2:0,2:0:0:0:
126,260,110564,2,0,P|176:246|225:250,1,72.25000000000026,6|2,3:2|2:0,2:0:0:0:
293,103,110903,6,0,P|319:154|389:184,1,108.37500000000037,2|0,2:0|2:0,2:0:0:0:
416,248,111242,6,0,P|464:249|532:220,1,93.5,6|0,3:2|2:0,2:0:0:0:
403,104,111581,2,0,P|451:100|519:121,1,93.5,8|8,2:0|2:3,2:0:0:0:
260,316,111920,6,0,P|315:328|377:281,1,102.00000000000003,0|8,3:0|2:3,2:0:0:0:
246,41,112259,2,0,P|293:28|366:61,1,102.00000000000003,8|8,2:0|2:3,2:0:0:0:
179,256,112598,6,0,L|168:136,1,110.50000000000001,0|8,3:0|2:3,2:0:0:0:
167,118,112852,1,0,2:0:0:0:
167,118,112937,2,0,P|241:113|284:152,1,110.50000000000001,8|10,2:0|2:3,2:0:0:0:
412,342,113276,5,2,3:0:0:0:
306,300,113445,1,10,2:3:0:0:
415,347,113615,2,0,P|396:284|418:245,1,110.50000000000001,10|8,2:0|2:3,2:0:0:0:
507,235,113954,6,0,P|462:249|416:248,1,93.5,2|8,3:0|2:3,2:0:0:0:
494,109,114293,2,0,P|449:99|403:104,1,93.5,8|8,2:0|2:3,2:0:0:0:
355,310,114632,6,0,P|308:328|260:316,1,102.00000000000003,0|8,3:0|2:3,2:0:0:0:
343,41,114971,2,0,P|294:27|246:41,1,102.00000000000003,8|8,2:0|2:3,2:0:0:0:
402,104,115310,6,0,L|285:122,1,110.50000000000001,0|8,3:0|2:3,2:0:0:0:
269,129,115564,1,0,2:0:0:0:
269,129,115649,2,0,L|148:107,1,110.50000000000001,8|8,2:0|2:3,2:0:0:0:
136,96,115903,1,0,2:0:0:0:
136,96,115988,5,2,3:0:0:0:
98,176,116157,1,10,2:0:0:0:
54,278,116327,1,10,2:0:0:0:
54,278,116666,6,0,P|89:320|87:369,2,102.00000000000003,6|2|10,3:2|2:0|2:0,2:0:0:0:
20,193,117174,1,10,2:3:0:0:
209,207,117344,2,0,P|275:120|243:37,1,204.00000000000006,2|10,3:0|2:0,2:0:0:0:
170,8,117852,1,10,2:3:0:0:
355,135,118022,6,0,L|450:80,2,102.00000000000003,2|10|10,3:0|2:3|2:0,2:0:0:0:
456,206,118530,1,10,2:3:0:0:
456,206,118700,2,0,P|424:265|379:266,1,102.00000000000003,2|8,3:0|2:3,2:0:0:0:
232,373,119039,2,0,P|269:286|334:301,1,153.00000000000003,10|0,2:0|2:0,2:0:0:0:
319,292,119378,6,0,L|108:212,2,204.00000000000006,2|10|2,3:0|2:0|3:0,2:0:0:0:
359,155,120225,1,8,2:3:0:0:
359,155,120310,1,0,2:0:0:0:
359,155,120395,2,0,P|290:160|281:204,1,102.00000000000003,10|8,2:0|2:3,2:0:0:0:
426,6,120734,6,0,L|498:225,1,204.00000000000006,14|0,2:0|3:0,2:0:0:0:
259,56,121242,2,0,L|222:283,1,204.00000000000006,14|8,2:0|2:0,2:0:0:0:
94,42,121751,5,10,2:0:0:0:
82,52,121835,1,8,2:0:0:0:
70,62,121920,1,8,2:0:0:0:
58,72,122005,1,8,2:0:0:0:
45,84,122090,6,0,P|32:127|57:176,1,93.5,6|0,3:2|2:0,2:0:0:0:
66,118,122429,2,0,P|65:162|102:203,1,93.5,8|4,2:0|1:0,2:0:0:0:
77,296,122768,6,0,P|95:336|146:357,1,102.00000000000003,0|4,3:0|1:0,2:0:0:0:
114,307,123106,2,0,P|142:341|197:347,1,102.00000000000003,8|4,2:0|1:0,2:0:0:0:
313,384,123445,6,0,P|357:376|396:322,1,110.50000000000001,0|4,3:0|1:0,2:0:0:0:
332,350,123784,2,0,P|372:330|396:269,1,110.50000000000001,8|6,2:0|1:0,2:0:0:0:
461,118,124123,6,0,L|508:248,2,110.50000000000001,2|6|10,3:0|1:0|2:0,2:0:0:0:
479,29,124632,1,6,1:0:0:0:
385,201,124801,2,0,P|330:186|265:43,1,204.00000000000006,2|8,3:0|2:0,2:0:0:0:
360,108,125310,1,4,1:0:0:0:
360,108,125479,2,0,L|322:320,1,204.00000000000006,2|8,3:0|2:0,2:0:0:0:
240,375,125988,1,4,1:0:0:0:
139,209,126157,2,0,P|177:196|260:41,1,204.00000000000006,2|8,3:0|2:0,2:0:0:0:
150,13,126666,1,0,1:0:0:0:
150,13,126751,1,0,1:0:0:0:
150,13,126835,5,2,3:0:0:0:
169,109,127005,1,0,3:0:0:0:
29,36,127174,2,0,P|3:89|3:151,1,102.00000000000003,14|2,2:0|2:0,2:0:0:0:
139,209,127513,6,0,L|34:177,1,93.5,6|0,3:2|3:0,2:0:0:0:
176,322,127852,2,0,L|295:293,1,93.5,10|0,2:0|2:0,2:0:0:0:
290,296,128106,1,8,2:0:0:0:
290,296,128191,6,0,P|344:293|368:346,1,93.5,2|0,3:0|3:0,2:0:0:0:
512,188,128530,2,0,P|465:216|419:180,1,93.5,10|0,2:0|3:0,2:0:0:0:
366,320,128869,2,0,P|403:208|391:100,1,187,10|14,2:0|2:0,2:0:0:0:
257,18,129378,1,0,2:0:0:0:
257,18,129462,1,0,2:0:0:0:
257,18,129547,6,0,L|359:34,1,93.5,2|8,3:0|2:0,2:0:0:0:
365,55,129801,1,8,2:0:0:0:
365,55,129886,2,0,L|272:40,1,93.5,10|8,3:2|2:0,2:0:0:0:
94,9,130225,6,0,L|135:184,1,170,6|8,3:2|2:3,2:0:0:0:
132,174,130903,2,0,L|60:155,2,68,8|8|8,2:1|2:1|2:1,2:0:0:0:
192,228,131751,5,4,3:2:0:0:
274,193,132005,1,4,3:2:0:0:
326,265,132259,1,4,3:2:0:0:
267,333,132485,6,0,L|130:362,1,113.33333333333333,4|4,3:2|3:2,2:0:0:0:
75,301,132937,6,0,P|60:236|131:174,1,170,4|8,3:2|2:1,2:0:0:0:
131,173,133615,2,0,L|142:101,2,68,8|8|8,2:1|2:1|2:1,2:0:0:0:
200,219,134462,5,4,3:2:0:0:
258,152,134717,1,4,3:2:0:0:
346,165,134971,1,4,3:2:0:0:
389,86,135197,6,0,P|434:70|473:119,1,113.33333333333333,4|4,3:2|3:2,2:0:0:0:
503,192,135649,6,0,L|465:382,1,170,4|8,3:2|2:1,2:0:0:0:
469,358,136327,2,0,L|445:291,2,68,8|8|8,2:1|2:1|2:1,2:0:0:0:
387,383,137174,5,4,3:2:0:0:
312,333,137429,1,4,3:2:0:0:
231,370,137683,1,4,3:2:0:0:
149,333,137909,6,0,L|55:235,1,113.33333333333333,4|4,3:2|3:2,2:0:0:0:
16,171,138361,6,0,P|15:98|80:9,1,170,4|8,3:2|2:1,2:0:0:0:
66,18,139039,2,0,L|-3:2,2,68,8|8|8,2:1|2:1|2:1,2:0:0:0:
142,59,139886,5,4,3:2:0:0:
223,22,140140,1,4,3:2:0:0:
302,62,140395,2,0,P|356:55|412:8,2,127.49999999999999,4|8|8,3:2|2:0|2:0,2:0:0:0:
428,109,141073,6,0,L|457:286,1,140.25,6|0,3:2|2:0,2:0:0:0:
453,280,141412,2,0,P|433:329|356:340,1,93.5,10|10,2:0|2:3,2:0:0:0:
237,251,141751,1,2,3:0:0:0:
237,251,141835,1,2,2:0:0:0:
237,251,141920,1,10,2:3:0:0:
181,324,142090,2,0,L|268:380,1,93.5,10|10,2:0|2:3,2:0:0:0:
148,242,142429,6,0,P|134:216|128:178,2,46.75,2|2|10,3:0|2:0|2:3,2:0:0:0:
29,218,142768,2,0,P|78:240|195:342,1,187,10|2,2:0|3:0,2:0:0:0:
116,369,143276,1,10,2:3:0:0:
193,188,143445,1,10,2:0:0:0:
193,188,143615,2,0,L|182:118,1,46.75,10|0,2:3|2:0,2:0:0:0:
162,2,143784,5,0,3:0:0:0:
162,2,144123,2,0,P|97:25|81:140,1,187,10|2,2:0|3:0,2:0:0:0:
285,102,144632,1,8,2:3:0:0:
285,102,144717,1,2,2:0:0:0:
285,102,144801,2,0,L|394:128,1,93.5,8|10,2:0|2:3,2:0:0:0:
497,297,145140,6,0,P|472:255|507:198,2,93.5,2|10|10,3:0|2:3|2:0,2:0:0:0:
423,364,145649,1,2,2:3:0:0:
356,215,145818,1,14,2:0:0:0:
356,215,145903,1,2,2:0:0:0:
356,215,145988,1,10,2:0:0:0:
356,215,146073,1,10,2:0:0:0:
356,215,146157,2,0,L|286:230,1,46.75,2|8,3:0|2:0,2:0:0:0:
239,239,146327,2,0,L|169:254,1,46.75,10|8,2:0|2:0,2:0:0:0:
115,266,146496,6,0,L|14:251,1,93.5,6|0,3:2|2:0,2:0:0:0:
22,252,146751,2,0,L|16:158,1,93.5,2|0,2:0|2:0,2:0:0:0:
16,158,147005,2,0,L|108:144,1,93.5,10|0,2:3|3:0,2:0:0:0:
311,37,147344,6,0,P|264:35|231:-1,1,93.5,10|8,2:3|2:0,2:0:0:0:
200,5,147598,1,0,2:0:0:0:
200,5,147683,2,0,L|181:81,1,46.75,10|0,2:3|2:0,2:0:0:0:
231,218,147852,6,0,L|287:212,3,46.75,2|10|10|2,3:0|2:0|2:3|2:0,2:0:0:0:
392,179,148191,2,0,L|336:173,3,46.75,10|2|10|2,2:0|2:0|2:3|2:0,2:0:0:0:
223,136,148530,5,2,3:0:0:0:
223,136,148615,1,2,2:0:0:0:
223,136,148700,2,0,L|161:118,1,46.75,10|2,2:3|2:0,2:0:0:0:
356,268,148869,1,10,2:0:0:0:
356,268,148954,1,2,2:0:0:0:
356,268,149039,2,0,L|418:250,1,46.75,10|0,2:3|2:0,2:0:0:0:
486,211,149208,5,2,3:0:0:0:
365,359,149378,2,0,P|334:305|238:271,1,140.25,10|0,2:3|2:0,2:0:0:0:
202,315,149717,1,10,2:0:0:0:
161,172,149886,1,0,3:0:0:0:
161,172,149971,1,8,2:0:0:0:
161,172,150056,2,0,P|77:157|28:93,1,140.25,10|0,2:0|2:0,2:0:0:0:
112,80,150395,6,0,L|134:288,1,187,2|2,1:0|3:0,2:0:0:0:
114,370,150903,1,10,2:0:0:0:
114,370,151073,1,10,2:0:0:0:
210,231,151242,1,2,3:0:0:0:
210,231,151412,1,2,3:0:0:0:
22,275,151581,1,10,2:0:0:0:
22,275,151751,1,2,3:0:0:0:
210,231,151920,6,0,P|279:238|287:278,1,93.5,10|2,2:0|3:0,2:0:0:0:
512,346,152259,2,0,P|458:389|424:367,1,93.5,14|2,2:0|3:0,2:0:0:0:
374,141,152598,1,2,1:0:0:0:
377,159,152683,1,0,1:0:0:0:
380,177,152768,1,2,3:0:0:0:
384,195,152852,1,0,3:0:0:0:
386,213,152937,2,0,P|343:270|272:212,1,140.25,14|0,2:0|2:0,2:0:0:0:
233,192,153276,6,0,B|208:103|208:103|219:61,1,114.75000000000009,6|0,3:2|2:0,2:0:0:0:
213,81,153615,1,10,2:0:0:0:
266,362,153954,6,0,B|291:273|291:273|280:231,1,114.75000000000009,2|0,3:0|2:0,2:0:0:0:
285,251,154293,1,10,2:0:0:0:
95,157,154632,5,6,3:2:0:0:
301,117,154801,1,2,2:0:0:0:
98,160,154971,5,6,3:2:0:0:
305,121,155140,1,2,2:0:0:0:
65,237,155310,5,6,3:2:0:0:
386,147,155564,1,0,2:0:0:0:
386,147,155649,2,0,L|375:56,1,76.50000000000007,10|2,2:0|2:0,2:0:0:0:
210,8,155988,6,0,P|145:21|91:62,1,114.75000000000009,6|0,3:2|2:0,2:0:0:0:
105,47,156327,1,10,2:0:0:0:
386,147,156666,6,0,P|451:160|505:201,1,114.75000000000009,2|0,3:0|2:0,2:0:0:0:
491,186,157005,1,10,2:0:0:0:
77,258,157344,5,2,3:0:0:0:
77,258,157513,1,2,3:0:0:0:
77,258,157683,1,10,2:0:0:0:
77,258,157852,1,2,2:0:0:0:
77,258,158022,2,0,L|101:355,1,76.50000000000007,2|0,3:0|3:0,2:0:0:0:
366,265,158361,2,0,L|342:362,1,76.50000000000007,12|0,2:0|2:0,2:0:0:0:
32,371,158700,5,4,3:2:0:0:
32,371,159039,2,0,P|79:333|176:296,1,153.00000000000014,10|10,2:0|2:0,2:0:0:0:
301,237,159547,1,10,2:0:0:0:
301,237,159632,1,8,2:0:0:0:
301,237,159717,2,0,P|313:193|301:151,1,76.50000000000007,10|10,3:2|2:0,2:0:0:0:
111,188,160056,6,0,L|210:177,1,76.50000000000007,6|0,3:2|2:0,2:0:0:0:
377,245,160395,2,0,L|278:234,1,76.50000000000007,6|0,3:2|2:0,2:0:0:0:
48,124,160734,6,0,L|129:107,1,76.50000000000007,6|8,3:2|2:0,2:0:0:0:
145,105,160988,1,8,2:0:0:0:
145,105,161073,2,0,L|226:88,1,76.50000000000007,10|2,3:2|1:0,2:0:0:0:
245,86,161327,1,8,2:0:0:0:
245,86,161412,6,0,P|274:148|268:248,1,153.00000000000014,6|10,3:2|2:0,2:0:0:0:
224,378,161920,1,2,3:0:0:0:
224,378,162090,2,0,P|195:316|201:216,1,153.00000000000014,10|10,2:0|2:0,2:0:0:0:
365,149,162598,1,2,3:0:0:0:
365,149,162768,6,0,L|454:165,1,76.50000000000007,10|2,2:0|3:0,2:0:0:0:
481,275,163106,2,0,L|385:307,1,76.50000000000007,10|2,2:0|3:0,2:0:0:0:
319,89,163445,2,0,P|339:180|376:252,1,153.00000000000014,10|10,2:0|2:0,2:0:0:0:
337,355,163954,1,0,3:0:0:0:
193,254,164123,6,0,B|146:233|146:233|128:238|128:238|25:198,1,153.00000000000014,10|12,2:0|2:0,2:0:0:0:
254,181,164632,1,12,2:0:0:0:
187,128,164801,2,0,L|193:84,2,38.250000000000036,0|0|12,3:0|3:0|2:0,2:0:0:0:
254,181,165140,6,0,P|304:174|342:138,1,76.50000000000007,12|0,2:0|3:0,2:0:0:0:
341,143,165395,1,0,3:0:0:0:
347,120,165479,5,8,2:0:0:0:
347,120,165988,6,0,B|274:104|274:104|251:113|251:113|190:99,1,153.00000000000014,6|10,3:2|2:0,2:0:0:0:
14,59,166496,2,0,P|24:21|59:12,1,76.50000000000007,2|0,1:0|1:0,2:0:0:0:
151,25,166835,6,0,B|47:137|47:137|156:274|156:274|24:386,1,489.6000000000008,2|2,3:0|3:0,2:0:0:0:
250,130,169208,2,0,L|297:120,1,42.5,2|0,3:0|2:0,2:0:0:0:
339,42,169547,6,0,B|280:349|280:349|368:315|368:315|374:249|374:249|343:218,1,509.99999999999994,2|2,3:0|3:0,2:0:0:0:
507,122,171920,2,0,L|468:89,1,42.5,2|2,3:0|2:0,2:0:0:0:
409,13,172259,6,0,L|497:24,2,85,2|2|2,3:0|3:0|3:0,2:0:0:0:
488,160,173276,1,2,3:0:0:0:
322,81,173615,6,0,L|339:40,2,42.5,2|2|2,3:0|2:0|3:0,2:0:0:0:
259,120,174123,1,0,2:0:0:0:
259,120,174293,2,0,L|162:135,1,85,2|2,3:0|3:0,2:0:0:0:
12,336,174971,6,0,P|67:362|83:393,2,85,2|2|2,3:0|3:0|3:0,2:0:0:0:
356,379,175988,2,0,P|301:353|285:322,1,85,2|2,3:0|3:0,2:0:0:0:
289,334,176835,1,2,2:0:0:0:
237,251,177005,2,0,L|232:201,1,42.5,2|2,3:0|2:0,2:0:0:0:
274,70,177344,2,0,L|230:57,1,42.5,2|0,3:0|2:0,2:0:0:0:
106,18,177683,6,0,P|140:53|158:111,1,89.2499999999999,6|0,3:2|2:0,2:0:0:0:
159,94,178022,2,0,L|129:214,2,118.99999999999989,8|8|8,3:0|3:0|3:0,2:0:0:0:
34,179,179039,6,0,P|82:203|154:313,1,178.49999999999983,8|2,3:0|2:0,2:0:0:0:
239,360,179717,2,0,L|308:342,2,59.49999999999994,10|2|10,3:0|2:0|3:0,2:0:0:0:
235,271,180225,1,2,2:0:0:0:
235,271,180395,6,0,P|299:254|388:331,1,178.49999999999983,10|0,3:0|2:0,2:0:0:0:
464,251,181073,2,0,P|417:204|439:88,1,178.49999999999983,10|0,3:0|2:0,2:0:0:0:
324,62,181751,2,0,P|306:125|195:164,1,178.49999999999983,10|0,3:0|2:0,2:0:0:0:
48,152,182429,2,0,P|12:164|-7:184,2,59.49999999999994,10|0|10,3:0|2:0|3:0,2:0:0:0:
48,152,183106,6,0,L|72:72,1,59.49999999999994,10|0,3:0|2:0,2:0:0:0:
119,246,183445,2,0,L|137:318,1,68,10|0,3:0|2:0,2:0:0:0:
232,151,183784,2,0,L|253:71,1,76.50000000000007,10|0,3:0|2:0,2:0:0:0:
353,254,184123,2,0,L|375:348,1,85,10|0,2:0|3:0,2:0:0:0:
380,360,184378,1,0,3:0:0:0:
386,384,184462,5,10,2:0:0:0:
386,384,184801,5,8,2:0:0:0:
386,384,185140,5,10,2:0:0:0:
256,138,185818,6,0,B|268:108|268:108|265:94|265:94|285:41,1,93.5,6|0,3:2|2:0,2:0:0:0:
232,216,186157,2,0,B|220:246|220:246|223:260|223:260|203:313,1,93.5,8|8,2:0|2:3,2:0:0:0:
339,137,186496,6,0,B|370:114|370:114|376:99|376:99|430:59,1,102.00000000000003,0|8,3:0|2:3,2:0:0:0:
146,230,186835,2,0,B|114:251|114:251|108:267|108:267|55:307,1,102.00000000000003,8|8,2:0|2:3,2:0:0:0:
310,247,187174,6,0,B|363:273|413:218,1,102.00000000000003,0|8,3:0|2:3,2:0:0:0:
432,210,187429,1,0,2:0:0:0:
432,210,187513,2,0,P|482:246|481:313,1,110.50000000000001,8|10,2:0|2:3,2:0:0:0:
249,378,187852,5,2,3:0:0:0:
231,273,188022,1,10,2:3:0:0:
244,377,188191,2,0,L|123:346,1,110.50000000000001,10|8,2:0|2:3,2:0:0:0:
232,143,188530,6,0,B|208:121|208:121|205:109|205:108|204:107|204:107|163:68,1,93.5,2|8,3:0|2:3,2:0:0:0:
288,203,188869,2,0,B|312:224|312:224|314:236|315:237|315:238|315:238|356:277,1,93.5,8|8,2:0|2:3,2:0:0:0:
157,178,189208,6,0,B|119:172|119:172|107:161|107:161|40:149,1,102.00000000000003,0|8,3:0|2:3,2:0:0:0:
371,177,189547,2,0,B|409:184|409:184|421:195|421:195|487:207,1,102.00000000000003,8|8,2:0|2:3,2:0:0:0:
338,108,189886,6,0,P|296:167|311:225,1,102.00000000000003,0|8,3:0|2:3,2:0:0:0:
308,225,190140,1,0,2:0:0:0:
308,225,190225,2,0,L|199:258,1,110.50000000000001,8|8,2:0|2:3,2:0:0:0:
171,270,190479,1,0,2:0:0:0:
171,270,190564,5,14,2:0:0:0:
108,364,190734,1,10,2:0:0:0:
122,191,190903,1,2,3:0:0:0:
105,140,190988,1,8,2:0:0:0:
54,122,191073,1,10,2:0:0:0:
9,150,191157,1,8,2:0:0:0:
9,150,191242,6,0,L|132:117,1,102.00000000000003,6|0,3:2|2:0,2:0:0:0:
288,47,191581,1,10,2:0:0:0:
288,47,191666,1,0,2:0:0:0:
288,47,191751,1,8,2:3:0:0:
189,137,191920,2,0,P|256:133|387:210,1,204.00000000000006,2|10,3:0|2:0,2:0:0:0:
458,165,192429,1,8,2:3:0:0:
405,280,192598,6,0,P|351:305|336:376,2,102.00000000000003,2|10|10,3:0|2:3|2:0,2:0:0:0:
490,353,193106,1,10,2:3:0:0:
461,169,193276,2,0,P|460:122|414:80,1,102.00000000000003,2|8,3:0|2:3,2:0:0:0:
257,0,193615,2,0,P|257:46|374:60,1,153.00000000000003,8|0,2:0|2:0,2:0:0:0:
348,87,193954,6,0,B|270:117|270:117|243:149|243:149|146:184,2,204.00000000000006,2|10|2,3:0|2:0|3:0,2:0:0:0:
405,14,194801,1,8,2:3:0:0:
332,182,194971,2,0,L|321:299,1,102.00000000000003,10|8,2:0|2:3,2:0:0:0:
103,382,195310,6,0,B|67:303|67:303|70:267|70:267|31:166,1,204.00000000000006,14|0,2:0|3:0,2:0:0:0:
257,0,195818,2,0,B|227:75|227:75|230:111|230:111|194:190,1,204.00000000000006,14|10,2:0|2:0,2:0:0:0:
438,263,196327,1,2,3:0:0:0:
418,268,196412,1,0,2:0:0:0:
398,273,196496,1,0,1:0:0:0:
378,278,196581,1,0,1:0:0:0:
358,283,196666,6,0,B|336:318|336:318|337:334|337:334|310:379,1,93.5,6|0,3:2|2:0,2:0:0:0:
330,384,197005,2,0,B|344:350|344:350|342:335|342:335|360:297,1,93.5,8|4,2:0|2:1,2:0:0:0:
129,226,197344,6,0,B|130:271|130:271|120:285|120:285|121:343,1,102.00000000000003,0|4,3:0|2:1,2:0:0:0:
100,292,197683,2,0,B|106:253|106:253|118:241|118:241|124:196,1,102.00000000000003,8|4,2:0|2:1,2:0:0:0:
410,121,198022,6,0,B|428:166|428:166|423:183|423:183|446:241,1,110.50000000000001,0|4,3:0|2:1,2:0:0:0:
387,155,198276,1,0,2:0:0:0:
387,155,198361,2,0,B|376:110|376:110|383:92|383:92|372:42,1,110.50000000000001,8|6,2:0|2:1,2:0:0:0:
288,235,198700,6,0,P|215:214|186:176,2,110.50000000000001,2|6|10,3:0|2:1|2:0,2:0:0:0:
353,314,199208,1,6,2:1:0:0:
353,314,199378,6,0,P|314:248|274:102,1,221.00000000000003,2|8,3:0|2:0,2:0:0:0:
210,34,199886,1,4,2:1:0:0:
397,213,200056,2,0,B|310:200|310:200|271:210|271:210|143:193,1,221.00000000000003,2|8,3:0|2:0,2:0:0:0:
81,298,200564,1,4,2:1:0:0:
81,298,200734,2,0,P|141:238|63:131,1,221.00000000000003,2|12,3:0|2:0,2:0:0:0:
12,13,201242,1,0,1:0:0:0:
12,13,201327,1,0,1:0:0:0:
12,13,201412,5,2,3:0:0:0:
133,61,201581,1,2,3:0:0:0:
62,216,201751,1,14,2:0:0:0:
70,224,202090,5,6,3:2:0:0:
70,224,202259,1,0,3:0:0:0:
70,224,202429,2,0,P|40:179|25:122,1,93.5,10|2,2:0|1:0,2:0:0:0:
311,111,202768,5,2,3:0:0:0:
311,111,202937,1,0,3:0:0:0:
311,111,203106,2,0,P|333:62|373:19,1,93.5,10|0,2:0|1:0,2:0:0:0:
167,129,203445,5,2,3:0:0:0:
167,129,203615,1,2,3:0:0:0:
167,129,203784,2,0,P|148:78|146:19,1,93.5,10|2,2:0|1:0,2:0:0:0:
430,188,204123,5,2,3:0:0:0:
430,188,204293,1,0,3:0:0:0:
430,188,204462,2,0,P|474:158|531:143,1,93.5,14|2,2:0|2:0,2:0:0:0:
286,309,204801,5,6,3:2:0:0:
286,309,204971,1,0,3:0:0:0:
286,309,205140,2,0,P|220:285|197:253,1,93.5,10|2,2:0|1:0,2:0:0:0:
395,104,205479,5,2,3:0:0:0:
395,104,205649,1,2,3:0:0:0:
395,104,205818,2,0,P|452:63|491:63,1,93.5,10|10,2:0|2:0,2:0:0:0:
175,168,206157,5,2,3:0:0:0:
175,168,206327,1,0,3:0:0:0:
175,168,206496,2,0,P|127:219|88:228,1,93.5,10|10,2:0|2:0,2:0:0:0:
454,236,206835,5,6,3:2:0:0:
454,236,207005,1,0,3:0:0:0:
454,236,207174,2,0,P|456:165|479:134,1,93.5,12|0,2:0|2:0,2:0:0:0:
490,130,207429,1,0,2:0:0:0:
495,102,207513,1,4,3:2:0:0:
495,102,207852,6,0,P|408:94|408:-19,2,204.00000000000006,10|2|10,2:0|3:0|2:0,2:0:0:0:
344,268,208784,1,8,2:0:0:0:
344,268,208869,2,0,P|306:209|266:211,1,102.00000000000003,2|2,3:0|3:0,2:0:0:0:
230,146,209208,1,10,2:0:0:0:
199,304,209378,1,2,2:0:0:0:
234,150,209547,2,0,B|193:135|193:135|175:141|175:141|113:116,1,102.00000000000003,2|0,3:0|3:0,2:0:0:0:
111,122,209801,1,0,2:0:0:0:
111,122,209886,1,10,2:0:0:0:
234,65,210056,1,0,3:0:0:0:
21,190,210225,5,10,2:0:0:0:
21,190,210564,2,0,P|5:116|10:59,2,102.00000000000003,10|2|10,2:0|3:0|2:0,2:0:0:0:
101,222,211073,1,0,3:0:0:0:
190,57,211242,2,0,L|299:24,1,102.00000000000003,10|0,2:0|3:0,2:0:0:0:
356,68,211581,5,10,2:0:0:0:
356,68,211751,1,0,3:0:0:0:
205,149,211920,1,10,2:0:0:0:
205,149,212090,1,2,3:0:0:0:
394,144,212259,2,0,P|460:158|481:198,1,102.00000000000003,10|0,2:0|3:0,2:0:0:0:
485,213,212513,1,8,2:0:0:0:
485,213,212598,2,0,L|463:316,1,102.00000000000003,10|2,2:0|3:0,2:0:0:0:
303,150,212937,1,10,2:0:0:0:
303,150,213276,5,10,2:0:0:0:
291,225,213445,1,10,2:0:0:0:
118,193,213615,5,10,2:0:0:0:
142,265,213784,1,8,2:0:0:0:
289,224,213954,2,0,P|220:204|183:190,1,85,10|8,2:0|2:0,2:0:0:0:
118,28,214293,5,10,2:0:0:0:
118,193,214462,1,10,2:0:0:0:
20,59,214632,1,10,2:0:0:0:
177,110,214801,1,10,2:0:0:0:
20,161,214971,1,2,3:0:0:0:
25,185,215056,1,8,2:0:0:0:
30,209,215140,1,8,2:0:0:0:
36,233,215225,1,8,2:0:0:0:
41,258,215310,2,0,L|52:311,3,42.5,2|8|8|8,3:0|2:0|2:0|2:0,2:0:0:0:
137,384,215649,6,0,B|170:270|170:270|162:199|162:199|200:37,1,340,6|0,3:2|2:0,2:0:0:0:
196,53,217005,5,8,2:0:0:0:
331,149,217174,1,2,1:0:0:0:
375,54,217344,2,0,P|357:114|315:145,1,85,2|10,1:0|2:0,2:0:0:0:
456,243,217683,2,0,P|397:221|347:236,1,85,10|0,2:0|3:0,2:0:0:0:
161,271,218022,1,10,2:0:0:0:
161,271,218106,1,0,2:0:0:0:
161,271,218191,2,0,L|218:284,1,42.5,0|0,2:0|2:0,2:0:0:0:
260,380,218361,6,0,P|317:377|339:337,1,85,4|0,3:2|2:0,2:0:0:0:
344,335,218615,1,0,2:0:0:0:
344,335,218700,2,0,L|451:310,1,85,10|8,2:0|2:3,2:0:0:0:
305,155,219039,6,0,P|274:227|191:284,1,170,2|8,3:0|2:0,2:0:0:0:
130,246,219547,1,10,2:3:0:0:
190,102,219717,1,2,3:0:0:0:
27,263,219886,1,10,2:3:0:0:
27,263,220225,6,0,B|9:191|9:191|17:173|17:173|-6:70,1,170,10|10,2:3|2:3,2:0:0:0:
190,102,220734,2,0,P|131:127|107:122,1,85,10|10,2:0|2:3,2:0:0:0:
230,13,221073,6,0,L|316:51,1,85,0|8,3:0|2:3,2:0:0:0:
330,58,221327,1,0,2:0:0:0:
330,58,221412,2,0,P|389:42|406:10,1,85,10|8,2:0|2:3,2:0:0:0:
512,40,221751,6,0,P|411:74|383:149,1,170,2|8,3:0|2:0,2:0:0:0:
510,268,222259,2,0,L|307:220,1,170,10|10,2:3|2:3,2:0:0:0:
319,223,222683,1,0,2:0:0:0:
319,223,222768,2,0,P|258:228|237:255,1,85,10|10,2:0|2:3,2:0:0:0:
225,316,223106,5,2,3:0:0:0:
65,238,223276,1,14,2:0:0:0:
7,326,223445,2,0,L|58:239,1,85,14|2,2:0|2:0,2:0:0:0:
112,135,223784,6,0,P|94:86|59:84,1,85,4|0,3:2|2:0,2:0:0:0:
51,104,224039,1,0,2:0:0:0:
51,104,224123,2,0,L|0:190,1,85,10|8,2:0|2:3,2:0:0:0:
225,82,224462,6,0,P|250:146|327:230,1,170,2|8,3:0|2:0,2:0:0:0:
388,236,224971,1,10,2:3:0:0:
261,269,225140,1,2,3:0:0:0:
136,383,225310,1,10,2:3:0:0:
136,383,225649,6,0,B|115:309|115:309|125:291|125:291|103:204,1,170,10|10,2:3|2:3,2:0:0:0:
225,82,226157,2,0,P|178:73|165:36,1,85,10|10,2:0|2:3,2:0:0:0:
295,143,226496,6,0,L|392:163,1,85,0|8,3:0|2:3,2:0:0:0:
403,165,226751,1,0,2:0:0:0:
403,165,226835,1,14,2:0:0:0:
471,299,227005,2,0,P|496:305|528:292,2,42.5,8|8|10,2:0|2:0|3:2,2:0:0:0:
419,245,227344,1,0,1:0:0:0:
354,380,227513,1,0,3:0:0:0:
354,380,227683,2,0,P|308:326|210:305,1,170,14|10,2:0|2:0,2:0:0:0:
152,361,228191,5,10,2:0:0:0:
152,361,228361,1,10,2:0:0:0:
154,197,228530,2,0,P|111:164|70:183,1,85,14|10,2:0|2:0,2:0:0:0:
18,51,228869,1,10,3:2:0:0:
30,54,228954,1,0,1:0:0:0:
42,58,229039,1,8,2:0:0:0:
54,62,229123,1,8,2:0:0:0:
65,66,229208,6,0,B|104:57|104:57|113:65|113:65|185:47,1,93.5,4|0,3:2|2:0,2:0:0:0:
176,51,229462,1,0,2:0:0:0:
176,51,229547,1,10,2:0:0:0:
270,114,229717,1,8,2:3:0:0:
374,58,229886,6,0,P|299:120|262:231,1,187,2|8,3:0|2:0,2:0:0:0:
314,262,230395,1,10,2:3:0:0:
423,217,230564,1,2,3:0:0:0:
312,373,230734,2,0,L|206:346,1,93.5,10|8,2:3|2:0,2:0:0:0:
265,201,231073,6,0,L|77:232,1,187,10|10,2:3|2:3,2:0:0:0:
56,52,231581,2,0,L|30:160,1,93.5,10|10,2:0|2:3,2:0:0:0:
266,118,231920,6,0,P|249:69|204:56,1,93.5,0|8,3:0|2:3,2:0:0:0:
189,57,232174,1,0,2:0:0:0:
189,57,232259,1,10,2:0:0:0:
162,168,232429,1,8,2:3:0:0:
34,142,232598,6,0,P|14:208|24:249,1,93.5,2|8,3:0|2:3,2:0:0:0:
83,280,232937,1,8,2:0:0:0:
294,173,233106,2,0,B|250:268|250:268|252:288|252:288|218:369,1,187,14|10,2:0|2:0,2:0:0:0:
225,371,233530,1,2,2:0:0:0:
225,371,233615,2,0,P|272:374|322:335,1,93.5,2|2,3:2|1:0,2:0:0:0:
375,251,233954,5,2,3:0:0:0:
375,251,234123,1,2,1:0:0:0:
486,169,234293,1,2,1:0:0:0:
330,129,234462,1,14,2:0:0:0:
492,280,234632,6,0,P|452:325|404:329,1,93.5,0|0,3:0|2:0,2:0:0:0:
398,325,234886,1,0,2:0:0:0:
398,325,234971,1,10,2:0:0:0:
333,248,235140,1,8,2:3:0:0:
171,292,235310,6,0,P|158:215|125:106,1,187,2|8,3:0|2:0,2:0:0:0:
65,67,235818,1,10,2:3:0:0:
239,87,235988,1,2,3:0:0:0:
73,174,236157,2,0,P|22:162|22:107,1,93.5,10|8,2:3|2:0,2:0:0:0:
154,4,236496,6,0,L|340:43,1,187,10|10,2:3|2:0,2:0:0:0:
360,46,236920,1,8,2:0:0:0:
402,64,237005,1,10,3:2:0:0:
428,102,237090,1,8,2:0:0:0:
429,148,237174,1,10,2:0:0:0:
405,188,237259,1,8,2:0:0:0:
364,209,237344,6,0,B|373:252|373:252|368:268|368:268|380:334,1,93.5,8|0,2:0|2:0,2:0:0:0:
379,323,237598,1,0,2:0:0:0:
379,323,237683,2,0,P|314:365|237:302,1,170,2|2,2:0|2:0,2:0:0:0:
236,57,238530,6,0,P|193:35|133:96,1,136,2|2,2:0|2:0,2:0:0:0:
130,102,238954,1,0,2:0:0:0:
130,102,239039,2,0,P|101:135|54:133,1,68,2|2,2:0|2:0,2:0:0:0:
19,88,239378,1,2,2:0:0:0:
19,88,239547,1,2,2:0:0:0:
50,234,239717,1,2,2:0:0:0:
17,302,239886,6,0,B|64:319|64:319|225:289|225:289|412:345|412:345|479:338,1,476.0000000000002,14|0,3:2|2:0,2:0:0:0:
