osu file format v14

[General]
AudioFilename: audio.mp3
AudioLeadIn: 0
PreviewTime: 48022
Countdown: 0
SampleSet: Soft
StackLeniency: 1
Mode: 0
LetterboxInBreaks: 0
WidescreenStoryboard: 0

[Editor]
DistanceSpacing: 0.7
BeatDivisor: 8
GridSize: 32
TimelineZoom: 1.7

[Metadata]
Title:Otose Thunder
TitleUnicode:おとせサンダー
Artist:BotchiBoromaru
ArtistUnicode:ぼっちぼろまる
Creator:Ryuusei Aika
Version:Rising
Source:
Tags:Bakugo- Shiny Braixen Battle LimeTwist Japanese Rock J-Rock JRock BocchiBoromaru Borotchi shoot ナオ OK bass ゴブリエル tomoboP まご山つく蔵
BeatmapID:3707336
BeatmapSetID:1807695

[Difficulty]
HPDrainRate:5.4
CircleSize:4.2
OverallDifficulty:9.2
ApproachRate:9.2
SliderMultiplier:1.9
SliderTickRate:1

[Events]
//Background and Video events
0,0,"bg.jpg",0,0
Video,0,"video.mp4"
//Break Periods
//Storyboard Layer 0 (Background)
//Storyboard Layer 1 (Fail)
//Storyboard Layer 2 (Pass)
//Storyboard Layer 3 (Foreground)
//Storyboard Layer 4 (Overlay)
//Storyboard Sound Samples

[TimingPoints]
735,338.983050847458,4,2,1,60,1,0
2429,-83.3333333333333,4,2,1,60,0,0
2768,338.983050847458,4,2,1,80,1,0
13615,-125,4,2,1,60,0,0
24462,-125,4,2,1,70,0,0
25140,-111.111111111111,4,2,1,70,0,0
32937,-100,4,2,1,70,0,0
35310,-111.111111111111,4,2,1,70,0,0
36666,-83.3333333333333,4,2,1,70,0,0
37683,-100,4,2,1,70,0,0
38022,-111.111111111111,4,2,1,70,0,0
42768,-83.3333333333333,4,2,1,70,0,0
43445,-99.9999999999999,4,2,1,70,0,0
48869,-99.9999999999999,4,2,1,100,0,1
51242,-90.9090909090909,4,2,1,100,0,1
57005,-83.3333333333333,4,2,1,100,0,1
65140,-90.9090909090909,4,2,1,100,0,0
69886,-83.3333333333333,4,2,1,100,0,0
70564,-83.3333333333333,4,2,1,100,0,1
73615,-83.3333333333333,4,2,1,44,0,1
73784,-83.3333333333333,4,2,1,51,0,1
73954,-83.3333333333333,4,2,1,58,0,1
74123,-83.3333333333333,4,2,1,65,0,1
74293,-83.3333333333333,4,2,1,72,0,1
74462,-83.3333333333333,4,2,1,79,0,1
74632,-83.3333333333333,4,2,1,86,0,1
74801,-83.3333333333333,4,2,1,93,0,1
74971,-83.3333333333333,4,2,1,100,0,1
75988,-83.3333333333333,4,2,1,80,0,0
76327,-100,4,2,1,80,0,0
85310,-90.9090909090909,4,2,1,80,0,0
86835,-142.857142857143,4,2,1,60,0,0
94632,-125,4,2,1,60,0,0
96327,-125,4,2,1,70,0,0
97005,-111.111111111111,4,2,1,70,0,0
97683,-99.9999999999999,4,2,1,70,0,0
109208,-111.111111111111,4,2,1,70,0,0
109886,-100,4,2,1,70,0,0
111242,-100,4,2,1,100,0,1
113615,-83.3333333333333,4,2,1,100,0,1
127513,-90.9090909090909,4,2,1,100,0,0
130564,-90.9090909090909,4,2,1,60,0,0
131751,-90.9090909090909,4,2,1,80,0,0
133276,-90.9090909090909,4,2,1,60,0,0
137174,-90.9090909090909,4,2,1,80,0,0
138700,-90.9090909090909,4,2,1,60,0,0
139886,-83.3333333333333,4,2,1,80,0,0
141073,-90.9090909090909,4,2,1,80,0,0
152768,-83.3333333333333,4,2,1,80,0,0
153276,-111.111111111111,4,2,1,80,0,0
154632,-83.3333333333333,4,2,1,80,0,0
155649,-111.111111111111,4,2,1,80,0,0
160734,-83.3333333333333,4,2,1,80,0,0
163784,-100,4,2,1,80,0,0
164123,-111.111111111111,4,2,1,80,0,0
165988,-99.9999999999999,4,2,1,80,0,0
166835,-250,4,2,1,50,0,0
177344,-142.857142857143,4,2,1,50,0,0
183106,-125,4,2,1,40,0,0
183445,-125,4,2,1,50,0,0
183784,-111.111111111111,4,2,1,60,0,0
184123,-111.111111111111,4,2,1,70,0,0
184462,-111.111111111111,4,2,1,80,0,0
185818,-111.111111111111,4,2,1,100,0,1
190225,-83.3333333333334,4,2,1,100,0,1
202090,-83.3333333333334,4,2,1,100,0,0
203106,-90.9090909090909,4,2,1,100,0,0
207513,-90.9090909090909,4,2,1,100,0,1
207683,-83.3333333333333,4,2,1,100,0,1
213276,-83.3333333333333,4,2,1,44,0,1
213445,-83.3333333333333,4,2,1,51,0,1
213615,-83.3333333333333,4,2,1,58,0,1
213784,-83.3333333333333,4,2,1,65,0,1
213954,-83.3333333333333,4,2,1,72,0,1
214123,-83.3333333333333,4,2,1,79,0,1
214293,-83.3333333333333,4,2,1,86,0,1
214462,-83.3333333333333,4,2,1,93,0,1
214632,-83.3333333333333,4,2,1,100,0,1
215649,-100,4,2,1,100,0,0
218022,-76.9230769230769,4,2,1,100,0,0
218361,-100,4,2,1,80,0,0
227683,-90.9090909090909,4,2,1,80,0,0
229208,-90.9090909090909,4,2,1,90,0,1
230734,-83.3333333333333,4,2,1,90,0,1
237344,-83.3333333333333,4,2,1,90,0,0
237683,-142.857142857143,4,2,1,40,0,0
239886,-100,4,2,1,80,0,0

[Colours]
Combo1 : 255,159,64
Combo2 : 0,191,191

[HitObjects]
512,192,735,5,4,3:2:0:0:
467,74,960,5,4,3:2:0:0:
342,54,1186,5,4,3:2:0:0:
262,152,1412,5,4,3:2:0:0:
307,271,1638,5,4,3:2:0:0:
433,291,1864,5,4,3:2:0:0:
377,126,2429,6,0,B|369:172|369:172|385:193|385:193|378:234,1,114,2|0,2:0|2:0,2:0:0:0:
38,279,2768,6,0,P|84:248|130:249,1,95,4|0,3:2|2:0,2:0:0:0:
122,247,3022,1,0,2:0:0:0:
122,247,3106,1,10,2:0:0:0:
148,155,3276,1,8,2:3:0:0:
212,273,3445,1,2,3:0:0:0:
240,181,3615,1,8,2:3:0:0:
297,296,3784,2,0,P|344:303|400:272,1,95,8|10,2:0|2:3,2:0:0:0:
212,273,4123,5,2,3:0:0:0:
332,206,4293,2,0,P|369:178|388:135,1,95,10|8,2:3|2:0,2:0:0:0:
375,0,4632,2,0,P|337:26|319:70,1,95,10|0,2:3|3:0,2:0:0:0:
457,200,4971,1,10,2:3:0:0:
457,200,5056,1,2,2:0:0:0:
457,200,5140,1,10,2:0:0:0:
478,107,5310,1,10,2:3:0:0:
436,293,5479,6,0,P|392:322|346:310,1,95,0|8,3:0|2:3,2:0:0:0:
352,314,5734,1,0,2:0:0:0:
352,314,5818,1,10,2:0:0:0:
301,239,5988,1,8,2:3:0:0:
277,367,6157,1,2,3:0:0:0:
225,291,6327,2,0,P|210:248|229:177,1,95,8|8,2:3|2:0,2:0:0:0:
116,89,6666,6,0,P|190:147|282:165,1,190,10|10,2:3|2:3,2:0:0:0:
310,159,7090,1,2,2:0:0:0:
337,152,7174,1,10,2:0:0:0:
354,25,7344,1,10,2:3:0:0:
456,104,7513,1,2,3:0:0:0:
204,165,7683,5,14,2:0:0:0:
357,283,7852,1,14,2:0:0:0:
383,93,8022,1,2,2:0:0:0:
319,350,8191,6,0,P|278:316|271:273,1,95,4|0,3:2|2:0,2:0:0:0:
270,276,8445,1,0,2:0:0:0:
270,276,8530,2,0,L|277:182,1,95,10|8,2:0|2:3,2:0:0:0:
191,316,8869,1,2,3:0:0:0:
151,237,9039,1,8,2:3:0:0:
112,356,9208,1,8,2:0:0:0:
72,277,9378,1,10,2:3:0:0:
191,316,9547,5,2,3:0:0:0:
72,277,9717,2,0,P|37:239|37:191,1,95,10|8,2:3|2:0,2:0:0:0:
71,79,10056,1,10,2:3:0:0:
304,159,10395,1,10,2:3:0:0:
304,159,10479,1,2,2:0:0:0:
304,159,10564,1,10,2:0:0:0:
330,74,10734,1,10,2:3:0:0:
243,93,10903,6,0,P|218:135|227:196,1,95,0|8,3:0|2:3,2:0:0:0:
231,199,11157,1,0,2:0:0:0:
231,199,11242,2,0,L|220:323,1,95,10|8,2:0|2:0,2:0:0:0:
221,322,11496,1,8,2:0:0:0:
219,350,11581,1,10,3:2:0:0:
307,277,11751,1,0,1:0:0:0:
141,313,11920,1,0,3:0:0:0:
307,277,12090,6,0,P|382:290|426:345,1,142.5,14|0,2:0|2:0,2:0:0:0:
423,356,12429,5,10,2:0:0:0:
310,194,12598,1,10,2:0:0:0:
506,177,12768,1,10,2:0:0:0:
393,15,12937,2,0,P|365:59|372:106,1,95,14|10,2:0|2:0,2:0:0:0:
401,120,13191,1,8,2:0:0:0:
428,145,13276,1,10,3:2:0:0:
434,182,13361,1,8,2:0:0:0:
419,216,13445,1,0,1:0:0:0:
263,65,13615,6,0,L|175:89,1,76,6|2,3:2|2:0,2:0:0:0:
127,244,13954,2,0,L|218:219,1,76,10|10,2:0|2:3,2:0:0:0:
86,178,14293,2,0,L|67:329,1,152,2|8,3:0|2:0,2:0:0:0:
0,285,14801,5,10,2:3:0:0:
58,110,14971,1,2,3:0:0:0:
204,228,15140,1,10,2:3:0:0:
177,330,15310,5,10,2:0:0:0:
102,256,15479,1,10,2:3:0:0:
204,228,15649,1,2,3:0:0:0:
368,33,15988,5,10,2:0:0:0:
422,162,16157,1,10,2:3:0:0:
302,93,16327,1,2,3:0:0:0:
440,78,16496,1,8,2:3:0:0:
336,170,16666,2,0,P|263:168|219:109,1,152,10|0,2:0|3:0,2:0:0:0:
422,162,17174,6,0,L|410:267,1,76,10|8,2:3|2:0,2:0:0:0:
413,237,17513,1,10,2:3:0:0:
302,93,17683,5,2,3:0:0:0:
440,78,17852,1,10,2:3:0:0:
337,170,18022,1,10,2:0:0:0:
368,33,18191,1,10,2:3:0:0:
422,162,18361,5,2,3:0:0:0:
368,45,18530,1,10,2:3:0:0:
343,159,18700,1,10,2:0:0:0:
428,82,18869,1,10,2:3:0:0:
313,95,19039,6,0,P|276:91|247:66,1,76,2|10,3:0|2:3,2:0:0:0:
189,200,19378,2,0,P|226:204|255:229,1,76,10|10,2:0|2:3,2:0:0:0:
110,251,19717,2,0,L|118:137,1,114,2|0,3:0|2:0,2:0:0:0:
120,117,20056,1,10,2:0:0:0:
36,159,20225,1,10,2:3:0:0:
205,77,20395,5,2,3:0:0:0:
42,65,20564,1,10,2:3:0:0:
198,169,20734,1,10,2:0:0:0:
127,24,20903,1,10,2:3:0:0:
114,192,21073,2,0,L|120:117,1,76,2|8,3:0|2:3,2:0:0:0:
369,89,21412,5,10,2:0:0:0:
288,83,21581,1,10,2:3:0:0:
363,170,21751,2,0,P|400:164|431:142,1,76,2|8,3:0|2:3,2:0:0:0:
247,228,22090,2,0,P|270:198|277:160,1,76,10|8,2:0|2:3,2:0:0:0:
178,263,22429,5,2,3:0:0:0:
351,376,22598,1,10,2:3:0:0:
356,273,22768,1,14,2:0:0:0:
265,320,22937,1,10,2:0:0:0:
231,337,23022,1,8,2:0:0:0:
197,354,23106,5,10,3:2:0:0:
159,172,23276,1,2,1:0:0:0:
105,373,23445,1,2,1:0:0:0:
66,190,23615,1,2,3:0:0:0:
244,248,23784,1,10,2:0:0:0:
140,271,23954,5,0,2:0:0:0:
140,271,24039,1,0,2:0:0:0:
140,271,24123,2,0,P|82:286|26:248,1,114,0|0,2:0|2:0,2:0:0:0:
24,250,24462,5,6,3:2:0:0:
102,125,24632,1,2,2:0:0:0:
1,154,24801,1,10,2:0:0:0:
79,29,24971,1,10,2:3:0:0:
181,138,25140,2,0,L|274:153,1,85.5000000000001,2|8,3:0|2:3,2:0:0:0:
152,63,25479,5,10,2:0:0:0:
131,200,25649,1,10,2:3:0:0:
237,59,25818,1,2,3:0:0:0:
210,230,25988,1,10,2:3:0:0:
322,55,26157,1,10,2:0:0:0:
237,59,26327,1,10,2:3:0:0:
322,55,26496,2,0,L|415:70,1,85.5000000000001,2|8,3:0|2:3,2:0:0:0:
324,254,26835,5,10,2:0:0:0:
441,160,27005,1,10,2:3:0:0:
399,306,27174,1,2,3:0:0:0:
349,164,27344,1,8,2:3:0:0:
475,246,27513,1,10,2:0:0:0:
98,266,27852,1,0,3:0:0:0:
45,330,28022,6,0,P|20:296|15:254,2,85.5000000000001,10|8|10,2:3|2:0|2:3,2:0:0:0:
151,202,28530,1,2,3:0:0:0:
208,357,28700,1,10,2:3:0:0:
98,266,28869,1,10,2:0:0:0:
179,279,29039,1,10,2:3:0:0:
123,125,29208,1,2,3:0:0:0:
204,138,29378,1,10,2:3:0:0:
72,189,29547,1,10,2:0:0:0:
94,49,29717,1,10,2:3:0:0:
94,49,29801,1,0,2:0:0:0:
93,49,29886,6,0,P|59:72|42:111,1,85.5000000000001,2|10,3:0|2:3,2:0:0:0:
204,138,30225,2,0,P|288:131|356:81,2,171,10|2|10,2:0|3:0|2:0,2:0:0:0:
174,62,31073,1,10,2:3:0:0:
204,138,31242,6,0,L|188:229,1,85.5000000000001,2|10,3:0|2:3,2:0:0:0:
167,348,31581,1,10,2:0:0:0:
115,209,31751,1,10,2:3:0:0:
262,234,31920,1,2,3:0:0:0:
142,279,32090,1,8,2:0:0:0:
111,290,32174,1,8,2:0:0:0:
81,301,32259,1,10,3:2:0:0:
215,292,32429,1,10,2:0:0:0:
239,312,32513,1,8,2:0:0:0:
264,332,32598,5,6,3:2:0:0:
276,149,32768,1,2,3:0:0:0:
429,251,32937,2,0,P|369:222|364:152,1,142.5,10|8,2:0|2:0,2:0:0:0:
377,133,33276,5,2,3:0:0:0:
330,300,33445,1,2,3:0:0:0:
499,258,33615,2,0,P|529:196|491:140,1,142.5,10|0,2:0|2:0,2:0:0:0:
470,128,33954,5,10,2:0:0:0:
407,320,34123,1,2,3:0:0:0:
278,65,34293,1,10,2:0:0:0:
215,257,34462,1,10,2:0:0:0:
204,291,34547,1,8,2:0:0:0:
193,324,34632,5,10,3:2:0:0:
298,165,34801,1,0,1:0:0:0:
325,296,34971,1,0,3:0:0:0:
166,192,35140,1,0,1:0:0:0:
166,192,35225,1,0,1:0:0:0:
166,192,35310,6,0,L|53:214,1,85.5000000000001,4|0,3:2|3:0,2:0:0:0:
26,161,35564,1,0,2:0:0:0:
12,150,35649,1,10,2:0:0:0:
175,297,35988,6,0,L|62:319,1,85.5000000000001,2|2,3:0|3:0,2:0:0:0:
35,265,36242,1,0,2:0:0:0:
21,254,36327,1,10,2:0:0:0:
110,129,36496,1,2,2:0:0:0:
110,129,36581,1,0,3:0:0:0:
109,129,36666,6,0,P|142:55|83:1,1,171,6|0,3:2|2:0,2:0:0:0:
53,74,37005,2,0,P|149:97|180:26,1,171,6|0,3:2|2:0,2:0:0:0:
240,1,37344,2,0,P|296:6|341:41,1,114,6|0,3:2|2:0,2:0:0:0:
278,159,37683,2,0,P|231:154|194:125,1,95,10|2,2:0|3:0,2:0:0:0:
278,159,38022,6,0,P|222:211|211:261,1,128.25,6|0,3:2|2:0,2:0:0:0:
218,279,38361,2,0,P|191:305|144:308,1,85.5000000000001,10|2,2:0|2:0,2:0:0:0:
86,266,38615,1,8,2:0:0:0:
77,247,38700,2,0,L|61:364,1,85.5000000000001,2|0,3:0|3:0,2:0:0:0:
298,308,39039,2,0,L|281:181,1,128.25,10|8,2:0|2:0,2:0:0:0:
278,159,39378,5,2,3:0:0:0:
442,144,39547,1,2,3:0:0:0:
373,293,39717,2,0,P|405:258|397:209,1,85.5000000000001,10|0,2:0|2:0,2:0:0:0:
387,202,39971,1,8,2:0:0:0:
387,202,40056,2,0,P|365:168|367:116,1,85.5000000000001,2|0,3:0|3:0,2:0:0:0:
412,69,40310,1,0,2:0:0:0:
435,64,40395,1,8,2:0:0:0:
347,33,40564,1,0,2:0:0:0:
324,38,40649,1,0,2:0:0:0:
309,51,40734,6,0,P|285:81|288:141,1,85.5000000000001,4|0,3:2|3:0,2:0:0:0:
282,126,40988,1,0,2:0:0:0:
282,126,41073,2,0,L|200:151,1,85.5000000000001,10|2,2:0|2:0,2:0:0:0:
130,172,41327,1,8,2:0:0:0:
107,178,41412,1,2,3:0:0:0:
264,216,41581,1,2,3:0:0:0:
154,326,41751,2,0,L|175:243,1,85.5000000000001,10|2,2:0|3:0,2:0:0:0:
70,354,42090,5,6,3:2:0:0:
242,298,42259,1,2,2:0:0:0:
107,178,42429,1,6,3:2:0:0:
174,238,42598,1,2,2:0:0:0:
88,266,42768,6,0,P|50:247|18:180,1,114,6|8,3:2|2:0,2:0:0:0:
24,145,43022,1,8,2:0:0:0:
46,112,43106,1,8,3:2:0:0:
80,92,43191,1,8,2:0:0:0:
119,89,43276,1,10,2:0:0:0:
156,103,43361,1,8,2:0:0:0:
182,130,43445,6,0,P|251:143|309:104,1,142.5,6|0,3:2|2:0,2:0:0:0:
343,37,43784,1,8,2:0:0:0:
281,213,43954,1,2,3:0:0:0:
465,178,44123,1,10,2:0:0:0:
465,178,44293,1,0,3:0:0:0:
404,355,44462,1,10,2:0:0:0:
350,173,44632,1,2,3:0:0:0:
219,310,44801,5,10,2:0:0:0:
405,229,44971,1,2,3:0:0:0:
219,310,45140,1,10,2:0:0:0:
331,339,45310,1,2,3:0:0:0:
276,159,45479,6,0,P|246:188|241:251,1,95.0000000000001,10|0,2:0|3:0,2:0:0:0:
58,298,45818,2,0,P|101:280|147:292,1,95.0000000000001,10|0,2:0|2:0,2:0:0:0:
70,156,46157,6,0,P|116:162|150:195,1,95.0000000000001,6|8,3:2|2:0,2:0:0:0:
156,159,46412,1,8,2:0:0:0:
162,124,46496,1,8,2:0:0:0:
168,89,46581,1,8,2:0:0:0:
174,54,46666,1,8,2:0:0:0:
262,0,46835,1,0,3:0:0:0:
258,26,46920,1,0,3:0:0:0:
254,52,47005,5,8,2:0:0:0:
276,80,47090,1,8,2:0:0:0:
311,85,47174,1,8,2:0:0:0:
342,67,47259,1,0,1:0:0:0:
353,33,47344,2,0,L|399:40,1,47.5,0|0,3:0|1:0,2:0:0:0:
497,58,47513,1,8,2:0:0:0:
497,58,48022,5,6,3:2:0:0:
364,137,48191,1,2,2:0:0:0:
458,227,48361,1,10,2:0:0:0:
440,265,48445,1,8,2:0:0:0:
399,279,48530,1,10,2:0:0:0:
363,257,48615,1,8,2:0:0:0:
321,247,48700,1,8,2:0:0:0:
279,259,48784,1,8,2:0:0:0:
281,316,48869,5,6,3:2:0:0:
263,100,49039,1,0,2:0:0:0:
281,316,49208,5,8,2:0:0:0:
263,100,49378,1,8,2:3:0:0:
281,316,49547,5,0,3:0:0:0:
263,100,49717,1,8,2:3:0:0:
281,316,49886,5,8,2:0:0:0:
263,100,50056,1,8,2:3:0:0:
281,316,50225,5,0,3:0:0:0:
263,100,50395,1,8,2:3:0:0:
281,316,50564,5,8,2:0:0:0:
212,157,50734,1,10,2:3:0:0:
332,259,50903,1,2,3:0:0:0:
183,311,51073,1,10,2:3:0:0:
272,208,51242,2,0,P|226:234|164:220,1,104.5,10|8,2:0|2:3,2:0:0:0:
429,262,51581,5,2,3:0:0:0:
443,100,51751,1,8,2:3:0:0:
429,262,51920,5,8,2:0:0:0:
443,100,52090,1,8,2:3:0:0:
429,262,52259,5,0,3:0:0:0:
443,100,52429,1,8,2:3:0:0:
429,262,52598,5,8,2:0:0:0:
443,100,52768,1,8,2:3:0:0:
429,262,52937,5,0,3:0:0:0:
443,100,53106,1,8,2:3:0:0:
429,262,53276,6,0,P|484:233|496:189,1,104.5,8|8,2:0|2:3,2:0:0:0:
498,179,53530,1,0,2:0:0:0:
498,179,53615,1,2,3:0:0:0:
355,250,53784,1,10,2:0:0:0:
488,339,53954,1,10,3:2:0:0:
341,94,54208,1,0,2:0:0:0:
341,94,54293,6,0,P|307:146|319:190,1,104.5,6|0,3:2|2:0,2:0:0:0:
339,195,54547,1,0,2:0:0:0:
351,218,54632,2,0,P|327:254|245:254,1,104.5,10|8,2:0|2:3,2:0:0:0:
152,158,54971,2,0,P|183:118|234:111,1,104.5,2|8,3:0|2:3,2:0:0:0:
73,74,55310,2,0,L|62:250,1,156.75,10|0,2:0|2:0,2:0:0:0:
63,256,55649,5,2,3:0:0:0:
252,189,55818,1,10,2:3:0:0:
81,333,55988,1,10,2:0:0:0:
270,266,56157,1,10,2:3:0:0:
156,355,56327,2,0,P|193:316|190:263,1,104.5,2|8,3:0|2:3,2:0:0:0:
181,68,56666,2,0,P|144:107|147:160,1,104.5,10|8,2:0|2:3,2:0:0:0:
144,155,56920,1,0,2:0:0:0:
144,155,57005,6,0,L|386:193,1,228,2|10,3:0|2:0,2:0:0:0:
501,211,57429,1,0,2:0:0:0:
501,211,57513,2,0,L|435:225,1,57,8|0,2:3|2:0,2:0:0:0:
379,271,57683,6,0,L|153:235,1,228,2|10,3:0|2:0,2:0:0:0:
454,302,58191,2,0,L|510:291,1,57,8|0,2:3|2:0,2:0:0:0:
463,110,58361,6,0,L|445:222,1,114,10|0,3:2|1:0,2:0:0:0:
444,222,58615,1,0,1:0:0:0:
444,222,58700,1,0,3:0:0:0:
358,109,58869,1,10,2:0:0:0:
304,240,59039,1,2,3:0:0:0:
218,127,59208,1,10,2:0:0:0:
194,96,59293,1,8,2:0:0:0:
159,85,59378,1,2,3:0:0:0:
200,251,59547,1,0,1:0:0:0:
219,234,59632,1,0,1:0:0:0:
227,210,59717,6,0,L|112:178,1,114,6|0,3:2|2:0,2:0:0:0:
101,177,59971,1,0,2:0:0:0:
101,177,60056,5,8,2:0:0:0:
76,251,60225,1,4,2:1:0:0:
294,177,60395,5,0,3:0:0:0:
319,251,60564,1,4,2:1:0:0:
81,92,60734,5,8,2:0:0:0:
106,166,60903,1,4,2:1:0:0:
314,92,61073,5,0,3:0:0:0:
289,166,61242,1,4,2:1:0:0:
199,0,61412,6,0,B|207:46|207:46|191:67|191:67|198:108,1,114,8|6,2:0|2:1,2:0:0:0:
197,107,61666,1,0,2:0:0:0:
197,107,61751,1,2,3:0:0:0:
326,322,61920,1,6,2:1:0:0:
365,150,62090,1,10,2:0:0:0:
152,295,62259,1,6,2:1:0:0:
310,242,62429,5,2,3:0:0:0:
326,322,62598,1,4,2:1:0:0:
91,242,62768,5,8,2:0:0:0:
75,322,62937,1,4,2:1:0:0:
372,189,63106,5,2,3:0:0:0:
388,269,63276,1,4,2:1:0:0:
30,189,63445,5,8,2:0:0:0:
14,269,63615,1,4,2:1:0:0:
298,54,63784,5,2,3:0:0:0:
314,134,63954,1,4,2:1:0:0:
104,54,64123,5,12,2:0:0:0:
88,134,64293,1,2,1:0:0:0:
94,157,64378,1,0,1:0:0:0:
101,181,64462,1,2,3:0:0:0:
266,225,64632,1,2,3:0:0:0:
146,345,64801,1,14,2:0:0:0:
416,22,65140,6,0,P|387:66|388:117,1,104.5,6|2,3:2|3:0,2:0:0:0:
387,116,65479,1,10,2:0:0:0:
469,90,65649,1,2,1:0:0:0:
309,105,65818,6,0,P|259:92|226:52,1,104.5,2|0,3:0|3:0,2:0:0:0:
226,52,66073,1,0,2:0:0:0:
226,52,66157,1,10,2:0:0:0:
304,19,66327,2,0,P|316:41|316:71,1,52.25,0|0,1:0|1:0,2:0:0:0:
297,142,66496,6,0,P|260:178|209:187,1,104.5,2|2,3:0|3:0,2:0:0:0:
210,187,66751,1,0,2:0:0:0:
210,187,66835,1,10,2:0:0:0:
107,75,67005,1,2,1:0:0:0:
96,152,67174,6,0,L|83:255,1,104.5,2|0,3:0|3:0,2:0:0:0:
79,288,67429,1,0,2:0:0:0:
76,321,67513,1,12,2:0:0:0:
0,278,67683,1,2,2:0:0:0:
160,296,67852,6,0,L|263:308,1,104.5,6|0,3:2|3:0,2:0:0:0:
406,201,68191,2,0,P|417:250|392:295,1,104.5,10|0,2:0|1:0,2:0:0:0:
371,311,68445,1,0,1:0:0:0:
346,318,68530,1,2,3:0:0:0:
414,387,68700,1,0,3:0:0:0:
414,387,68784,1,0,2:0:0:0:
414,387,68869,1,10,2:0:0:0:
478,348,69039,2,0,L|490:280,1,52.25,2|0,1:0|1:0,2:0:0:0:
493,271,69208,5,2,3:0:0:0:
342,240,69378,1,2,3:0:0:0:
342,240,69462,1,0,2:0:0:0:
342,240,69547,1,10,2:0:0:0:
404,128,69717,2,0,P|425:143|435:167,1,52.25,2|0,1:0|1:0,2:0:0:0:
417,255,69886,6,0,L|364:367,1,114,6|0,3:2|3:0,2:0:0:0:
297,343,70140,2,0,L|236:331,1,57,0|12,2:0|2:0,2:0:0:0:
71,301,70395,1,0,2:0:0:0:
71,301,70479,1,0,2:0:0:0:
71,301,70564,5,4,3:2:0:0:
217,260,70734,1,0,3:0:0:0:
88,74,70903,2,0,P|53:147|96:226,1,171,10|8,2:0|2:0,2:0:0:0:
228,188,71242,2,0,L|247:59,1,114,2|0,3:0|3:0,2:0:0:0:
195,18,71496,1,0,2:0:0:0:
184,2,71581,1,10,2:0:0:0:
364,217,71835,1,8,2:0:0:0:
364,217,71920,5,2,3:0:0:0:
150,148,72090,1,2,3:0:0:0:
198,368,72259,1,10,2:0:0:0:
238,246,72429,1,2,2:0:0:0:
139,323,72598,2,0,P|84:322|46:280,1,114,2|0,3:0|3:0,2:0:0:0:
273,364,72937,2,0,L|420:333,1,114,8|0,2:0|3:0,2:0:0:0:
164,253,73276,5,14,2:0:0:0:
164,253,73445,1,0,2:0:0:0:
311,162,73615,1,10,2:0:0:0:
311,162,73784,1,10,2:0:0:0:
220,15,73954,1,10,2:0:0:0:
220,15,74123,1,8,2:0:0:0:
73,106,74293,1,10,2:0:0:0:
180,181,74462,1,10,2:0:0:0:
62,237,74632,5,10,2:0:0:0:
153,105,74801,1,10,2:0:0:0:
161,343,74971,1,14,2:0:0:0:
252,211,75140,5,10,2:0:0:0:
212,197,75225,1,8,2:0:0:0:
170,205,75310,1,10,2:0:0:0:
139,234,75395,1,8,2:0:0:0:
127,274,75479,1,8,2:0:0:0:
137,315,75564,1,8,2:0:0:0:
165,347,75649,2,0,L|290:364,1,114,10|0,2:0|1:0,2:0:0:0:
389,377,75903,1,0,1:0:0:0:
417,381,75988,5,6,3:2:0:0:
343,300,76157,1,0,2:0:0:0:
343,300,76242,1,0,2:0:0:0:
343,300,76327,2,0,P|323:255|334:210,1,95,10|8,2:0|2:3,2:0:0:0:
467,52,76666,2,0,P|422:66|395:104,1,95,2|8,3:0|2:3,2:0:0:0:
400,251,77005,1,8,2:0:0:0:
325,136,77174,5,10,2:3:0:0:
451,176,77344,1,2,3:0:0:0:
325,136,77513,2,0,L|231:151,1,95,10|8,2:3|2:0,2:0:0:0:
43,182,77852,1,10,2:3:0:0:
272,64,78191,1,10,2:3:0:0:
272,64,78276,1,2,2:0:0:0:
272,64,78361,1,10,2:0:0:0:
164,124,78530,2,0,P|135:165|149:211,1,95,10|0,2:3|3:0,2:0:0:0:
256,296,78869,5,8,2:3:0:0:
275,311,78954,1,0,2:0:0:0:
293,326,79039,1,10,2:0:0:0:
169,331,79208,2,0,L|175:284,1,47.5,8|0,2:3|2:0,2:0:0:0:
175,284,79378,2,0,P|131:307|80:302,1,95,2|8,3:0|2:3,2:0:0:0:
227,217,79717,1,8,2:0:0:0:
311,341,79886,6,0,P|404:363|459:297,1,190,10|10,2:3|2:3,2:0:0:0:
453,274,80310,1,2,2:0:0:0:
436,257,80395,1,10,2:0:0:0:
474,140,80564,1,10,2:3:0:0:
353,165,80734,1,2,3:0:0:0:
499,62,80903,1,14,2:0:0:0:
297,104,81073,1,14,2:0:0:0:
385,25,81242,1,2,2:0:0:0:
345,243,81412,6,0,P|307:275|260:273,1,95,4|0,3:2|2:0,2:0:0:0:
263,274,81666,1,0,2:0:0:0:
263,274,81751,2,0,P|216:274|181:305,1,95,10|8,2:0|2:3,2:0:0:0:
141,123,82090,2,0,L|130:217,1,95,2|8,3:0|2:3,2:0:0:0:
219,179,82429,1,8,2:0:0:0:
54,251,82598,5,10,2:3:0:0:
182,305,82768,1,2,3:0:0:0:
63,168,82937,2,0,L|73:73,1,95,10|8,2:3|2:0,2:0:0:0:
73,73,83191,1,0,2:0:0:0:
73,73,83276,1,10,2:3:0:0:
321,0,83615,1,10,2:3:0:0:
298,7,83700,1,2,2:0:0:0:
275,14,83784,2,0,P|251:55|264:108,1,95,10|10,2:0|2:3,2:0:0:0:
140,141,84123,6,0,P|186:145|219:179,1,95,0|8,3:0|2:3,2:0:0:0:
222,207,84378,1,0,2:0:0:0:
217,234,84462,2,0,L|99:262,1,95,14|8,2:0|2:0,2:0:0:0:
54,271,84717,1,8,2:0:0:0:
31,276,84801,1,10,3:2:0:0:
107,328,84971,1,0,1:0:0:0:
107,328,85140,1,0,3:0:0:0:
313,272,85310,6,0,P|306:195|338:125,1,156.75,14|0,2:0|2:0,2:0:0:0:
390,73,85649,5,10,2:0:0:0:
456,308,85818,1,10,2:0:0:0:
465,75,85988,5,10,2:0:0:0:
379,304,86157,1,14,2:0:0:0:
512,192,86327,5,10,2:0:0:0:
512,192,86412,1,8,2:0:0:0:
512,192,86496,1,10,2:0:0:0:
512,192,86581,1,8,2:0:0:0:
512,192,86666,1,8,2:0:0:0:
512,192,86751,1,8,2:0:0:0:
511,192,86835,6,0,P|481:213|448:215,1,66.4999999999999,6|2,3:2|2:0,2:0:0:0:
323,189,87174,1,10,3:1:0:0:
323,189,87344,1,10,2:3:0:0:
394,158,87513,2,0,L|416:289,1,133,10|8,3:1|3:1,2:0:0:0:
431,379,88022,1,10,2:3:0:0:
343,302,88191,6,0,L|272:295,1,66.4999999999999,10|10,3:1|2:3,2:0:0:0:
148,212,88530,2,0,L|215:219,1,66.4999999999999,10|10,3:1|2:3,2:0:0:0:
299,164,88869,2,0,L|277:296,1,133,10|10,3:1|3:1,2:0:0:0:
73,204,89547,5,10,3:1:0:0:
312,86,89886,1,10,3:1:0:0:
489,287,90225,1,8,3:1:0:0:
421,332,90395,2,0,L|407:252,1,66.4999999999999,10|10,2:3|3:1,2:0:0:0:
410,266,90734,1,10,2:3:0:0:
342,311,90903,6,0,P|322:328|263:333,2,66.4999999999999,10|10|10,3:1|2:3|3:1,2:0:0:0:
398,194,91412,1,10,2:3:0:0:
202,225,91581,2,0,P|264:247|330:239,1,133,10|10,3:1|3:1,2:0:0:0:
256,0,92259,6,0,P|230:60|180:103,1,133,10|10,3:1|3:1,2:0:0:0:
113,75,92768,2,0,P|80:82|54:102,1,66.4999999999999,10|10,2:3|3:1,2:0:0:0:
256,320,93276,2,0,L|334:306,1,66.4999999999999,10|10,3:1|2:3,2:0:0:0:
180,332,93615,6,0,L|68:351,1,99.7499999999999,10|0,3:1|2:0,2:0:0:0:
55,353,93954,1,10,3:1:0:0:
97,202,94123,2,0,P|117:228|118:261,1,66.4999999999999,10|10,2:3|3:1,2:0:0:0:
37,366,94462,1,8,2:3:0:0:
37,366,94547,1,8,2:3:0:0:
37,366,94632,6,0,L|5:296,1,76,10|10,3:1|2:3,2:0:0:0:
33,168,94971,1,10,3:1:0:0:
33,168,95140,1,10,2:3:0:0:
52,237,95310,2,0,L|79:87,1,152,10|10,3:1|3:1,2:0:0:0:
78,87,95818,1,10,2:3:0:0:
91,12,95988,2,0,P|156:30|178:69,1,114,10|0,2:0|2:0,2:0:0:0:
183,89,96327,5,14,2:0:0:0:
305,38,96496,1,2,1:0:0:0:
134,148,96666,1,2,3:0:0:0:
315,242,96835,1,10,2:0:0:0:
486,132,97005,6,0,P|452:159|395:152,1,85.5000000000001,14|8,2:0|2:0,2:0:0:0:
382,141,97259,1,8,2:0:0:0:
349,130,97344,1,8,2:0:0:0:
315,137,97429,1,8,2:0:0:0:
287,156,97513,1,8,2:0:0:0:
274,188,97598,1,8,2:0:0:0:
278,222,97683,6,0,L|170:237,1,95.0000000000001,6|2,3:2|3:0,2:0:0:0:
250,67,98022,1,10,2:0:0:0:
362,210,98191,1,2,2:0:0:0:
216,151,98361,6,0,L|162:158,1,47.5,2|2,3:0|2:0,2:0:0:0:
131,162,98530,2,0,P|114:135|120:102,1,47.5,2|2,3:0|2:0,2:0:0:0:
140,51,98700,1,10,2:0:0:0:
140,51,98784,1,2,2:0:0:0:
140,51,98869,1,0,2:0:0:0:
44,97,99039,6,0,P|29:115|26:139,1,47.5,2|2,3:0|2:0,2:0:0:0:
54,209,99208,2,0,L|47:256,1,47.5,2|0,3:0|2:0,2:0:0:0:
36,332,99378,1,10,2:0:0:0:
34,341,99462,1,0,2:0:0:0:
33,350,99547,1,2,2:0:0:0:
107,303,99717,5,2,3:0:0:0:
178,274,99886,2,0,L|215:302,1,47.5,2|0,2:0|3:0,2:0:0:0:
238,320,100056,1,10,2:0:0:0:
306,374,100225,1,0,2:0:0:0:
306,374,100310,1,8,2:0:0:0:
306,374,100395,6,0,P|328:332|318:287,1,95.0000000000001,2|2,3:0|3:0,2:0:0:0:
280,226,100649,1,2,2:0:0:0:
275,217,100734,2,0,L|281:169,1,47.5,10|0,2:0|2:0,2:0:0:0:
359,187,100903,2,0,L|365:139,1,47.5,2|8,2:0|2:0,2:0:0:0:
376,64,101073,5,2,3:0:0:0:
394,61,101157,1,2,2:0:0:0:
412,66,101242,1,2,3:0:0:0:
425,79,101327,1,2,2:0:0:0:
431,96,101412,1,10,2:0:0:0:
292,94,101666,1,8,2:0:0:0:
292,94,101751,6,0,P|257:128|195:126,1,95.0000000000001,2|2,3:0|2:0,2:0:0:0:
191,123,102005,1,0,3:0:0:0:
181,101,102090,1,10,2:0:0:0:
165,243,102259,1,10,2:0:0:0:
51,159,102429,5,2,3:0:0:0:
49,123,102513,1,0,2:0:0:0:
62,90,102598,1,0,2:0:0:0:
88,66,102683,1,2,3:0:0:0:
121,56,102768,1,10,2:0:0:0:
93,226,103022,1,8,2:0:0:0:
93,226,103106,6,0,L|36:254,1,47.5,2|2,3:0|2:0,2:0:0:0:
51,328,103276,2,0,L|93:307,1,47.5,2|2,3:0|2:0,2:0:0:0:
115,297,103445,1,10,2:0:0:0:
181,373,103615,2,0,P|157:377|136:367,1,47.5,2|8,2:0|2:0,2:0:0:0:
185,378,103784,6,0,L|200:333,1,47.5,2|0,3:0|2:0,2:0:0:0:
272,305,103954,2,0,L|287:260,1,47.5,2|2,3:0|2:0,2:0:0:0:
359,232,104123,1,10,2:0:0:0:
366,209,104208,1,0,2:0:0:0:
378,191,104293,2,0,L|393:146,1,47.5,2|8,2:0|2:0,2:0:0:0:
412,74,104462,5,0,3:0:0:0:
278,110,104632,2,0,P|293:128|314:141,1,47.5,2|0,2:0|3:0,2:0:0:0:
393,146,104801,2,0,L|483:176,1,95.0000000000001,10|2,2:0|3:0,2:0:0:0:
505,185,105056,2,0,L|448:194,1,47.5,8|2,2:0|3:0,2:0:0:0:
425,271,105225,1,8,2:0:0:0:
448,268,105310,2,0,L|494:260,1,47.5,2|0,2:0|3:0,2:0:0:0:
437,343,105479,2,0,B|390:350|390:350|355:318,1,95.0000000000001,10|0,2:0|3:0,2:0:0:0:
200,176,105818,5,12,2:0:0:0:
143,124,105988,1,2,3:0:0:0:
341,131,106157,5,10,2:0:0:0:
357,55,106327,1,2,3:0:0:0:
265,135,106496,5,10,2:0:0:0:
241,61,106666,1,2,3:0:0:0:
408,165,106835,5,10,2:0:0:0:
460,107,107005,1,2,3:0:0:0:
356,223,107174,6,0,L|324:258,1,47.5,14|0,2:0|2:0,2:0:0:0:
244,345,107344,2,0,L|276:310,1,47.5,2|0,3:0|3:0,2:0:0:0:
300,284,107513,6,0,P|275:245|228:233,1,95.0000000000001,10|2,2:0|3:0,2:0:0:0:
192,239,107768,1,0,3:0:0:0:
168,268,107852,1,2,1:0:0:0:
170,244,107937,1,0,1:0:0:0:
172,220,108022,1,2,3:0:0:0:
174,197,108106,1,2,3:0:0:0:
176,173,108191,1,2,1:0:0:0:
64,221,108361,2,0,L|91:261,1,47.5,0|0,3:0|2:0,2:0:0:0:
160,363,108530,5,10,2:0:0:0:
352,20,109208,2,0,P|320:48|278:50,1,85.5000000000001,8|0,2:0|2:0,2:0:0:0:
251,39,109462,1,0,2:0:0:0:
251,39,109547,2,0,L|190:34,2,42.75,0|0|0,2:0|2:0|2:0,2:0:0:0:
305,215,109886,6,0,P|274:180|272:134,1,95,4|0,3:2|2:0,2:0:0:0:
272,133,110140,1,0,2:0:0:0:
272,132,110225,2,0,L|332:136,1,47.5,4|0,3:2|2:0,2:0:0:0:
391,140,110395,2,0,L|451:144,1,47.5,2|0,2:0|2:0,2:0:0:0:
510,148,110564,1,6,3:2:0:0:
468,329,110903,2,0,P|410:288|340:289,1,142.5,2|0,2:0|2:0,2:0:0:0:
282,329,111242,5,6,3:2:0:0:
262,89,111412,1,0,2:0:0:0:
282,329,111581,5,8,2:0:0:0:
262,89,111751,1,8,2:3:0:0:
282,329,111920,5,0,3:0:0:0:
262,89,112090,1,8,2:3:0:0:
282,329,112259,5,8,2:0:0:0:
262,89,112429,1,8,2:3:0:0:
282,329,112598,5,0,3:0:0:0:
262,89,112768,1,8,2:3:0:0:
282,329,112937,5,8,2:0:0:0:
203,214,113106,1,10,2:3:0:0:
330,125,113276,1,2,3:0:0:0:
136,179,113445,1,10,2:3:0:0:
212,294,113615,2,0,P|138:322|74:267,1,171,10|0,2:0|2:0,2:0:0:0:
83,262,113954,5,2,3:0:0:0:
67,82,114123,1,8,2:3:0:0:
83,262,114293,5,8,2:0:0:0:
67,82,114462,1,8,2:3:0:0:
83,262,114632,5,0,3:0:0:0:
67,82,114801,1,8,2:3:0:0:
83,262,114971,5,8,2:0:0:0:
67,82,115140,1,8,2:3:0:0:
83,262,115310,5,0,3:0:0:0:
67,82,115479,1,8,2:3:0:0:
83,262,115649,6,0,P|42:222|59:168,1,114,8|8,2:0|2:3,2:0:0:0:
77,161,115903,1,0,2:0:0:0:
77,161,115988,1,2,3:0:0:0:
250,139,116157,1,10,2:0:0:0:
145,1,116327,1,10,2:0:0:0:
158,101,116496,2,0,P|181:86|198:45,1,57,0|0,2:0|2:0,2:0:0:0:
178,24,116666,5,6,3:2:0:0:
225,214,116835,1,2,2:0:0:0:
397,120,117005,1,10,2:0:0:0:
275,64,117174,1,10,2:3:0:0:
347,270,117344,2,0,P|293:310|244:304,1,114,2|8,3:0|2:3,2:0:0:0:
421,189,117683,5,10,2:0:0:0:
302,205,117852,1,10,2:3:0:0:
441,332,118022,1,2,3:0:0:0:
322,348,118191,1,10,2:3:0:0:
471,254,118361,5,10,2:0:0:0:
353,137,118530,1,10,2:3:0:0:
272,283,118700,2,0,P|218:323|169:317,1,114,2|8,3:0|2:3,2:0:0:0:
245,100,119039,2,0,P|287:63|343:64,1,114,10|8,2:0|2:3,2:0:0:0:
364,98,119293,1,0,2:0:0:0:
353,137,119378,5,2,3:0:0:0:
353,137,119462,2,0,P|343:202|363:245,1,114,2|0,2:0|2:0,2:0:0:0:
499,269,119717,2,0,L|517:197,1,57,10|0,2:0|2:0,2:0:0:0:
447,175,119886,2,0,L|433:230,1,57,8|0,2:3|2:0,2:0:0:0:
414,345,120056,5,2,3:0:0:0:
414,345,120140,1,2,2:0:0:0:
414,345,120225,2,0,P|354:318|307:326,1,114,8|10,2:3|2:0,2:0:0:0:
238,346,120479,2,0,L|184:363,1,57,2|8,2:0|2:3,2:0:0:0:
280,149,120734,6,0,L|155:188,1,114,14|0,2:0|1:0,2:0:0:0:
102,205,120988,1,0,1:0:0:0:
455,353,121242,5,14,2:0:0:0:
299,239,121412,1,2,3:0:0:0:
455,353,121581,5,8,2:0:0:0:
418,357,121666,1,8,2:0:0:0:
380,351,121751,1,10,2:0:0:0:
347,333,121835,1,8,2:0:0:0:
320,307,121920,1,8,2:0:0:0:
302,273,122005,1,8,2:0:0:0:
299,239,122090,6,0,P|321:159|398:128,1,171,6|0,3:2|2:0,2:0:0:0:
427,133,122429,5,8,2:0:0:0:
452,206,122598,1,4,1:0:0:0:
210,133,122768,5,0,3:0:0:0:
185,206,122937,1,4,1:0:0:0:
452,49,123106,5,8,2:0:0:0:
427,122,123276,1,4,1:0:0:0:
185,49,123445,5,0,3:0:0:0:
210,122,123615,1,4,1:0:0:0:
318,0,123784,6,0,P|357:50|338:122,1,114,8|6,2:0|1:0,2:0:0:0:
245,268,124123,1,2,3:0:0:0:
397,167,124293,1,6,1:0:0:0:
245,268,124462,1,10,2:0:0:0:
382,387,124632,1,6,1:0:0:0:
169,244,124801,5,2,3:0:0:0:
153,322,124971,1,4,1:0:0:0:
412,244,125140,5,8,2:0:0:0:
428,321,125310,1,4,1:0:0:0:
105,189,125479,5,2,3:0:0:0:
89,268,125649,1,4,1:0:0:0:
477,189,125818,5,8,2:0:0:0:
492,268,125988,1,4,1:0:0:0:
180,45,126157,5,2,3:0:0:0:
164,124,126327,1,4,1:0:0:0:
400,45,126496,5,8,2:0:0:0:
415,124,126666,1,0,1:0:0:0:
409,146,126751,1,0,1:0:0:0:
402,170,126835,1,2,3:0:0:0:
246,82,127005,1,0,3:0:0:0:
248,262,127174,1,14,2:0:0:0:
248,262,127513,6,0,P|275:216|272:163,1,104.5,6|0,3:2|3:0,2:0:0:0:
46,255,127852,2,0,P|128:267|181:326,1,156.75,10|8,2:0|2:0,2:0:0:0:
187,342,128191,5,2,3:0:0:0:
128,175,128361,1,0,3:0:0:0:
261,258,128530,5,10,2:0:0:0:
214,77,128700,1,0,3:0:0:0:
320,191,128869,5,10,2:0:0:0:
338,9,129039,1,0,3:0:0:0:
408,293,129208,6,0,B|399:236|399:236|420:207|420:207|410:145,1,156.75,14|0,2:0|2:0,2:0:0:0:
405,119,129547,1,2,3:0:0:0:
492,283,129717,1,8,2:0:0:0:
499,244,129801,1,8,2:0:0:0:
508,204,129886,1,10,3:2:0:0:
349,258,130056,1,8,2:0:0:0:
323,268,130140,1,8,2:0:0:0:
297,276,130225,5,6,3:2:0:0:
265,345,130564,1,8,2:3:0:0:
189,351,130903,1,8,2:1:0:0:
145,288,131242,1,8,2:1:0:0:
145,288,131412,1,0,2:0:0:0:
177,218,131581,1,8,2:1:0:0:
253,210,131751,5,4,3:2:0:0:
233,85,132005,1,4,3:2:0:0:
332,5,132259,1,4,3:2:0:0:
426,71,132485,5,4,3:2:0:0:
442,166,132711,5,4,3:2:0:0:
367,226,132937,5,4,3:2:0:0:
356,150,133276,1,8,2:1:0:0:
367,226,133615,1,8,2:1:0:0:
298,260,133954,1,8,2:1:0:0:
298,260,134123,1,0,2:0:0:0:
245,204,134293,1,8,2:1:0:0:
281,136,134462,5,4,3:2:0:0:
188,47,134717,1,4,3:2:0:0:
66,81,134971,1,4,3:2:0:0:
67,196,135197,5,4,3:2:0:0:
135,264,135423,5,4,3:2:0:0:
227,236,135649,5,4,3:2:0:0:
270,298,135988,1,8,2:1:0:0:
208,341,136327,1,8,2:1:0:0:
165,279,136666,1,8,2:1:0:0:
165,279,136835,1,0,2:0:0:0:
122,217,137005,1,8,2:1:0:0:
184,174,137174,5,4,3:2:0:0:
306,223,137429,1,4,3:2:0:0:
406,147,137683,1,4,3:2:0:0:
366,40,137909,5,4,3:2:0:0:
278,1,138135,5,4,3:2:0:0:
201,60,138361,5,4,3:2:0:0:
154,0,138700,1,8,2:1:0:0:
126,71,139039,1,8,2:1:0:0:
173,131,139378,1,8,2:1:0:0:
248,120,139547,1,0,2:0:0:0:
201,60,139717,1,8,2:1:0:0:
98,142,139886,6,0,P|73:195|74:253,1,114,4|0,3:2|2:0,2:0:0:0:
144,228,140140,2,0,P|115:179|68:147,1,114,4|0,3:2|2:0,2:0:0:0:
144,228,140395,2,0,L|75:333,1,114,4|8,3:2|2:0,2:0:0:0:
81,323,140649,2,0,L|105:374,2,57,8|8|8,2:0|2:0|2:0,2:0:0:0:
189,332,140903,1,8,2:0:0:0:
189,332,140988,1,8,2:0:0:0:
189,332,141073,6,0,P|270:353|348:339,1,156.75,6|0,3:2|2:0,2:0:0:0:
490,290,141412,2,0,L|534:337,1,52.25,10|0,2:0|2:0,2:0:0:0:
470,377,141581,2,0,L|434:338,1,52.25,10|0,2:3|2:0,2:0:0:0:
383,283,141751,5,2,3:0:0:0:
370,246,141835,1,2,2:0:0:0:
373,207,141920,1,10,2:3:0:0:
393,174,142005,1,2,2:0:0:0:
424,151,142090,5,10,2:0:0:0:
408,125,142174,1,2,2:0:0:0:
385,108,142259,1,10,2:3:0:0:
357,100,142344,1,2,2:0:0:0:
328,103,142429,6,0,P|303:113|275:113,1,52.25,2|2,3:0|2:0,2:0:0:0:
206,104,142598,2,0,P|185:88|171:63,1,52.25,10|2,2:3|2:0,2:0:0:0:
172,65,142768,2,0,L|64:48,1,104.5,10|10,2:0|2:3,2:0:0:0:
57,46,143022,1,0,2:0:0:0:
46,44,143106,5,2,3:0:0:0:
178,170,143276,1,10,2:3:0:0:
3,222,143445,1,10,2:0:0:0:
135,348,143615,2,0,P|103:307|109:256,1,104.5,10|0,2:3|3:0,2:0:0:0:
108,257,143869,1,8,2:0:0:0:
108,257,143954,1,8,2:3:0:0:
23,335,144123,6,0,P|177:313|241:365,1,209,10|2,2:0|3:0,2:0:0:0:
233,356,144547,1,8,2:0:0:0:
336,243,144717,1,2,2:0:0:0:
336,243,144801,2,0,L|319:379,1,104.5,8|10,2:0|2:3,2:0:0:0:
394,368,145056,1,0,2:0:0:0:
410,373,145140,1,2,3:0:0:0:
476,274,145310,6,0,P|451:287|409:288,1,52.25,10|0,2:3|2:0,2:0:0:0:
430,215,145479,1,10,2:0:0:0:
430,215,145564,1,2,2:0:0:0:
430,215,145649,2,0,P|406:199|384:163,1,52.25,2|2,2:3|2:0,2:0:0:0:
355,106,145818,5,14,2:0:0:0:
331,74,145903,1,2,2:0:0:0:
297,57,145988,1,10,2:0:0:0:
258,56,146073,1,10,2:0:0:0:
223,73,146157,5,2,3:0:0:0:
218,91,146242,1,8,2:0:0:0:
215,110,146327,1,10,2:0:0:0:
211,130,146412,1,8,2:0:0:0:
208,149,146496,6,0,P|167:190|113:192,1,104.5,6|0,3:2|2:0,2:0:0:0:
59,153,146751,2,0,P|44:103|78:45,1,104.5,2|0,2:0|2:0,2:0:0:0:
63,56,147005,1,10,2:3:0:0:
132,107,147174,1,0,3:0:0:0:
59,153,147344,2,0,L|45:215,1,52.25,10|0,2:3|2:0,2:0:0:0:
99,270,147513,1,8,2:0:0:0:
99,270,147598,1,0,2:0:0:0:
99,270,147683,2,0,L|85:332,1,52.25,10|0,2:3|2:0,2:0:0:0:
78,361,147852,5,2,3:0:0:0:
110,358,147937,1,10,2:0:0:0:
141,349,148022,1,10,2:3:0:0:
169,333,148106,1,2,2:0:0:0:
193,310,148191,1,10,2:0:0:0:
219,290,148276,1,2,2:0:0:0:
248,276,148361,1,10,2:3:0:0:
280,270,148445,1,2,2:0:0:0:
313,270,148530,6,0,P|337:277|364:303,1,52.25,2|2,3:0|2:0,2:0:0:0:
415,346,148700,1,10,2:3:0:0:
423,358,148784,1,2,2:0:0:0:
425,373,148869,2,0,L|436:302,1,52.25,10|2,2:0|2:0,2:0:0:0:
468,254,149039,6,0,L|506:266,2,34.8333333333333,10|2|2,2:3|2:0|2:0,2:0:0:0:
468,254,149208,6,0,P|423:218|412:169,1,104.5,2|10,3:0|2:3,2:0:0:0:
454,0,149547,2,0,P|499:36|510:85,1,104.5,12|10,2:0|2:0,2:0:0:0:
502,115,149801,1,8,2:0:0:0:
478,143,149886,1,0,3:0:0:0:
468,133,149971,1,8,2:0:0:0:
459,124,150056,1,10,2:0:0:0:
450,115,150140,1,8,2:0:0:0:
441,106,150225,1,8,2:0:0:0:
354,125,150395,1,2,1:0:0:0:
354,125,150479,1,2,1:0:0:0:
354,125,150564,5,6,3:2:0:0:
130,353,150734,1,2,3:0:0:0:
176,11,150903,5,10,2:0:0:0:
88,251,151073,1,10,2:0:0:0:
77,281,151157,1,8,2:0:0:0:
66,311,151242,5,2,3:0:0:0:
366,200,151412,1,2,3:0:0:0:
1,273,151581,5,10,2:0:0:0:
316,326,151751,1,2,3:0:0:0:
205,27,151920,5,10,2:0:0:0:
376,278,152090,1,2,3:0:0:0:
139,91,152259,5,14,2:0:0:0:
373,91,152429,1,2,3:0:0:0:
63,51,152598,5,2,1:0:0:0:
63,51,152683,1,0,1:0:0:0:
63,51,152768,2,0,L|66:107,1,57,2|0,3:0|3:0,2:0:0:0:
79,333,152937,1,14,2:0:0:0:
294,174,153106,1,2,2:0:0:0:
0,360,153276,6,0,L|12:259,1,85.5000000000001,6|0,3:2|3:0,2:0:0:0:
12,258,153530,1,0,2:0:0:0:
12,258,153615,2,0,P|76:312|161:307,1,171,10|2,2:0|3:0,2:0:0:0:
327,240,154123,2,0,P|343:230|364:199,2,42.75,2|0|10,3:0|2:0|2:0,2:0:0:0:
239,235,154462,1,10,2:0:0:0:
239,235,154547,1,8,2:0:0:0:
239,235,154632,6,0,L|225:368,1,114,6|2,3:2|2:0,2:0:0:0:
439,256,154971,2,0,L|427:142,1,114,6|2,3:2|2:0,2:0:0:0:
150,131,155310,2,0,P|206:184|304:166,1,171,6|0,3:2|2:0,2:0:0:0:
341,116,155649,2,0,P|346:67|303:16,1,85.5000000000001,10|2,2:0|2:0,2:0:0:0:
316,20,155903,1,8,2:0:0:0:
317,19,155988,6,0,L|247:100,1,85.5000000000001,6|2,3:2|3:0,2:0:0:0:
193,68,156242,2,0,L|140:57,1,42.75,0|10,2:0|2:0,2:0:0:0:
37,46,156496,1,2,2:0:0:0:
37,46,156581,1,8,2:0:0:0:
37,46,156666,2,0,P|74:94|56:210,1,171,2|10,3:0|2:0,2:0:0:0:
0,384,157259,1,8,2:0:0:0:
6,362,157344,6,0,L|113:380,1,85.5000000000001,2|2,3:0|3:0,2:0:0:0:
103,369,157598,1,0,2:0:0:0:
115,361,157683,1,10,2:0:0:0:
46,288,157852,2,0,P|68:276|112:277,1,42.75,2|8,2:0|2:0,2:0:0:0:
155,297,158022,2,0,L|274:324,1,85.5000000000001,2|0,3:0|3:0,2:0:0:0:
259,310,158276,1,0,2:0:0:0:
280,305,158361,1,12,2:0:0:0:
446,265,158530,1,0,2:0:0:0:
296,374,158700,5,4,3:2:0:0:
379,245,158869,2,0,L|307:241,1,42.75,0|0,3:0|2:0,2:0:0:0:
225,236,159039,1,10,2:0:0:0:
308,107,159208,1,2,3:0:0:0:
126,49,159378,2,0,P|96:79|106:138,1,85.5000000000001,10|10,2:0|2:0,2:0:0:0:
95,120,159632,1,8,2:0:0:0:
95,120,159717,5,10,3:2:0:0:
135,147,159801,1,8,2:0:0:0:
173,152,159886,1,10,2:0:0:0:
205,131,159971,1,8,2:0:0:0:
214,93,160056,5,6,3:2:0:0:
512,255,160395,1,6,3:2:0:0:
187,352,160734,2,0,L|296:319,1,114,6|8,3:2|2:0,2:0:0:0:
334,309,160988,1,8,2:0:0:0:
358,277,161073,1,10,3:2:0:0:
359,236,161157,1,8,2:0:0:0:
337,201,161242,1,2,1:0:0:0:
301,184,161327,1,8,2:0:0:0:
267,184,161412,5,6,3:2:0:0:
267,184,161581,1,0,3:0:0:0:
462,95,161751,1,10,2:0:0:0:
442,308,161920,1,2,3:0:0:0:
353,114,162090,5,10,2:0:0:0:
353,114,162259,1,0,3:0:0:0:
230,289,162429,1,10,2:0:0:0:
162,143,162598,1,2,3:0:0:0:
151,119,162683,1,0,3:0:0:0:
140,95,162768,5,10,2:0:0:0:
329,181,162937,1,2,3:0:0:0:
138,210,163106,1,10,2:0:0:0:
305,248,163276,1,2,3:0:0:0:
255,85,163445,5,10,2:0:0:0:
255,85,163615,1,0,3:0:0:0:
88,46,163784,2,0,P|37:61|10:99,1,95,10|0,2:0|3:0,2:0:0:0:
35,265,164123,6,0,L|25:153,1,85.5000000000001,10|0,2:0|3:0,2:0:0:0:
27,179,164378,1,0,3:0:0:0:
27,179,164462,2,0,L|72:198,1,42.75,12|0,2:0|2:0,2:0:0:0:
166,346,164632,2,0,L|126:329,1,42.75,12|0,2:0|2:0,2:0:0:0:
109,325,164801,1,0,3:0:0:0:
109,325,164886,1,0,3:0:0:0:
109,325,164971,6,0,P|97:302|110:271,1,42.75,12|0,2:0|2:0,2:0:0:0:
264,216,165140,2,0,P|281:249|262:293,1,85.5000000000001,12|0,2:0|3:0,2:0:0:0:
199,332,165395,1,0,3:0:0:0:
170,350,165479,1,8,2:0:0:0:
457,384,165988,6,0,P|426:326|459:248,1,142.5,6|0,3:2|2:0,2:0:0:0:
512,211,166327,1,10,2:0:0:0:
365,113,166496,1,2,1:0:0:0:
492,51,166666,1,0,1:0:0:0:
433,12,166835,6,0,B|202:-11|310:131|77:105,1,380,2|0,3:0|3:0,2:0:0:0:
21,65,168700,2,0,L|32:11,2,38,2|2|2,2:0|3:0|2:0,2:0:0:0:
81,106,169208,2,0,L|93:165,1,57,2|0,3:0|2:0,2:0:0:0:
102,187,169547,6,0,B|333:164|225:306|458:280,1,380,2|0,3:0|3:0,2:0:0:0:
454,280,171581,2,0,P|468:267|470:232,1,38,2|2,3:0|2:0,2:0:0:0:
414,208,171920,2,0,P|400:221|398:256,1,38,2|2,3:0|2:0,2:0:0:0:
394,238,172259,5,2,3:0:0:0:
256,320,172598,1,2,3:0:0:0:
118,238,172937,1,2,3:0:0:0:
256,156,173276,1,2,3:0:0:0:
256,156,173445,1,2,2:0:0:0:
256,156,173615,6,0,L|264:104,1,38,2|2,3:0|2:0,2:0:0:0:
192,110,173954,2,0,P|149:120|125:152,1,76,2|2,3:0|3:0,2:0:0:0:
244,231,174632,1,2,3:0:0:0:
379,175,174971,5,2,3:0:0:0:
264,87,175310,1,2,3:0:0:0:
373,161,175649,1,2,3:0:0:0:
317,27,175988,2,0,L|337:75,1,38,2|0,3:0|2:0,2:0:0:0:
367,147,176327,2,0,P|408:145|437:115,1,76,2|0,3:0|3:0,2:0:0:0:
433,122,176835,5,2,2:0:0:0:
493,72,177005,1,2,3:0:0:0:
420,46,177174,1,2,2:0:0:0:
506,148,177344,2,0,P|501:196|467:230,1,99.7499999999999,2|0,3:0|2:0,2:0:0:0:
446,243,177683,6,0,P|426:308|474:357,1,133,6|8,3:2|3:0,2:0:0:0:
391,323,178191,2,0,P|455:329|508:291,1,133,2|0,2:0|2:0,2:0:0:0:
508,290,178700,1,8,3:0:0:0:
317,309,179039,6,0,L|180:319,1,133,8|8,3:0|3:0,2:0:0:0:
178,243,179547,2,0,L|254:353,1,133,2|2,2:0|2:0,2:0:0:0:
254,353,180056,2,0,L|248:284,1,66.4999999999999,10|2,3:0|2:0,2:0:0:0:
236,153,180395,5,10,3:0:0:0:
110,199,180734,1,8,3:0:0:0:
254,158,181073,5,10,3:0:0:0:
21,116,181412,1,8,3:0:0:0:
271,162,181751,5,10,3:0:0:0:
169,14,182090,1,8,3:0:0:0:
169,14,182259,1,0,2:0:0:0:
120,69,182429,6,0,P|101:96|99:144,1,66.4999999999999,10|0,3:0|2:0,2:0:0:0:
172,209,182768,2,0,P|191:182|193:134,1,66.4999999999999,10|0,3:0|2:0,2:0:0:0:
169,14,183106,6,0,L|298:54,1,114,10|0,3:0|2:0,2:0:0:0:
308,28,183445,2,0,P|313:112|340:150,1,114,10|0,3:0|2:0,2:0:0:0:
352,158,183784,2,0,P|410:119|499:133,1,128.25,10|0,3:0|2:0,2:0:0:0:
506,136,184123,1,10,2:0:0:0:
501,168,184208,1,0,3:0:0:0:
496,200,184293,1,0,3:0:0:0:
491,232,184378,1,0,3:0:0:0:
486,264,184462,5,10,2:0:0:0:
182,101,184801,1,8,2:0:0:0:
512,0,185140,1,10,2:0:0:0:
260,87,185818,5,6,3:2:0:0:
279,324,185988,1,0,2:0:0:0:
259,86,186157,5,8,2:0:0:0:
279,324,186327,1,8,2:3:0:0:
260,87,186496,5,0,3:0:0:0:
279,324,186666,1,8,2:3:0:0:
260,87,186835,5,8,2:0:0:0:
279,324,187005,1,8,2:3:0:0:
260,87,187174,5,0,3:0:0:0:
279,324,187344,1,8,2:3:0:0:
260,87,187513,5,8,2:0:0:0:
329,237,187683,1,10,2:3:0:0:
126,228,187852,1,2,3:0:0:0:
294,161,188022,1,10,2:3:0:0:
160,303,188191,1,10,2:0:0:0:
227,232,188361,1,8,2:3:0:0:
43,242,188530,5,2,3:0:0:0:
169,89,188700,1,8,2:3:0:0:
43,242,188869,5,8,2:0:0:0:
169,89,189039,1,8,2:3:0:0:
43,242,189208,5,0,3:0:0:0:
169,89,189378,1,8,2:3:0:0:
43,242,189547,5,8,2:0:0:0:
169,89,189717,1,8,2:3:0:0:
43,242,189886,5,0,3:0:0:0:
169,89,190056,1,8,2:3:0:0:
43,242,190225,6,0,P|42:184|87:149,1,114,8|8,2:0|2:3,2:0:0:0:
114,148,190479,1,0,2:0:0:0:
114,148,190564,2,0,P|162:174|171:228,1,114,14|10,2:0|2:0,2:0:0:0:
152,264,190818,1,8,2:0:0:0:
158,302,190903,1,2,3:0:0:0:
187,328,190988,1,8,2:0:0:0:
226,336,191073,1,10,2:0:0:0:
265,329,191157,1,8,2:0:0:0:
296,305,191242,6,0,L|307:191,1,114,6|0,3:2|2:0,2:0:0:0:
306,191,191496,1,0,2:0:0:0:
306,191,191581,1,10,2:0:0:0:
187,139,191751,2,0,P|208:153|239:159,1,57,8|0,2:3|2:0,2:0:0:0:
361,125,191920,2,0,P|349:210|374:291,1,171,2|0,3:0|2:0,2:0:0:0:
439,355,192259,2,0,L|450:241,1,114,10|8,2:0|2:3,2:0:0:0:
456,167,192513,1,0,2:0:0:0:
458,138,192598,5,2,3:0:0:0:
281,90,192768,1,10,2:3:0:0:
441,0,192937,1,10,2:0:0:0:
295,0,193106,1,10,2:3:0:0:
384,119,193276,2,0,P|350:164|282:177,1,114,2|8,3:0|2:3,2:0:0:0:
126,67,193615,2,0,P|160:22|228:9,1,114,8|8,2:0|2:3,2:0:0:0:
212,25,193869,1,0,2:0:0:0:
210,42,193954,6,0,B|204:111|204:111|220:137|220:137|213:211,1,171,2|0,3:0|2:0,2:0:0:0:
206,290,194293,1,10,2:0:0:0:
183,295,194378,1,2,2:0:0:0:
160,300,194462,2,0,L|95:287,1,57,8|0,2:3|2:0,2:0:0:0:
254,358,194632,1,2,3:0:0:0:
277,363,194717,1,2,2:0:0:0:
300,368,194801,2,0,L|304:301,1,57,8|0,2:3|2:0,2:0:0:0:
310,228,194971,1,10,2:0:0:0:
310,228,195056,1,2,2:0:0:0:
310,228,195140,1,8,2:3:0:0:
310,228,195225,1,2,2:0:0:0:
310,228,195310,6,0,P|338:173|340:107,1,114,12|8,2:0|2:0,2:0:0:0:
330,48,195564,1,0,1:0:0:0:
319,21,195649,1,0,3:0:0:0:
422,205,195818,1,14,2:0:0:0:
155,117,195988,1,2,3:0:0:0:
188,128,196073,1,8,2:0:0:0:
221,139,196157,1,10,2:0:0:0:
51,246,196327,1,2,3:0:0:0:
256,360,196496,1,0,1:0:0:0:
139,295,196666,5,6,3:2:0:0:
114,368,196835,1,0,2:0:0:0:
371,295,197005,5,8,2:0:0:0:
398,368,197174,1,4,2:1:0:0:
121,209,197344,5,0,3:0:0:0:
145,282,197513,1,4,2:1:0:0:
391,209,197683,5,8,2:0:0:0:
365,282,197852,1,4,2:1:0:0:
254,203,198022,6,0,B|246:157|246:157|262:136|262:136|255:95,1,114,0|4,3:0|2:1,2:0:0:0:
250,73,198276,1,2,2:0:0:0:
250,73,198361,2,0,P|197:80|138:38,1,114,8|6,2:0|2:1,2:0:0:0:
345,139,198700,1,2,3:0:0:0:
125,243,198869,1,6,2:1:0:0:
304,292,199039,1,10,2:0:0:0:
166,375,199208,1,6,2:1:0:0:
125,243,199378,5,2,3:0:0:0:
108,322,199547,1,4,2:1:0:0:
388,243,199717,5,8,2:0:0:0:
404,322,199886,1,4,2:1:0:0:
65,189,200056,5,2,3:0:0:0:
49,268,200225,1,4,2:1:0:0:
447,189,200395,5,8,2:0:0:0:
463,268,200564,1,4,2:1:0:0:
135,34,200734,5,2,3:0:0:0:
121,113,200903,1,4,2:1:0:0:
377,34,201073,5,12,2:0:0:0:
392,113,201242,1,0,1:0:0:0:
384,141,201327,1,0,1:0:0:0:
375,169,201412,1,2,3:0:0:0:
323,337,201581,1,2,3:0:0:0:
214,131,201751,2,0,P|184:190|194:235,1,114,14|2,2:0|2:0,2:0:0:0:
427,372,202090,5,6,3:2:0:0:
300,238,202259,1,0,3:0:0:0:
477,291,202429,1,10,2:0:0:0:
323,337,202598,1,2,1:0:0:0:
303,342,202683,1,2,1:0:0:0:
283,347,202768,1,2,3:0:0:0:
388,264,202937,1,0,3:0:0:0:
388,264,203022,1,2,2:0:0:0:
388,264,203106,6,0,P|410:218|397:167,1,104.5,10|0,2:0|1:0,2:0:0:0:
350,111,203361,1,8,2:0:0:0:
322,96,203445,1,2,3:0:0:0:
210,238,203615,1,2,3:0:0:0:
142,123,203784,1,10,2:0:0:0:
49,219,203954,2,0,L|22:173,1,52.25,2|0,1:0|1:0,2:0:0:0:
11,155,204123,5,2,3:0:0:0:
139,230,204293,2,0,L|185:182,1,52.25,0|0,3:0|2:0,2:0:0:0:
273,91,204462,2,0,P|240:46|193:36,1,104.5,14|2,2:0|2:0,2:0:0:0:
168,49,204717,1,0,2:0:0:0:
168,49,204801,5,6,3:2:0:0:
274,190,204971,1,0,3:0:0:0:
336,44,205140,2,0,P|379:78|427:76,1,104.5,10|2,2:0|1:0,2:0:0:0:
440,71,205395,1,0,1:0:0:0:
451,60,205479,1,2,3:0:0:0:
431,167,205649,2,0,L|485:143,1,52.25,2|0,3:0|2:0,2:0:0:0:
497,138,205818,1,10,2:0:0:0:
436,257,205988,1,10,2:0:0:0:
452,263,206073,1,8,2:0:0:0:
468,269,206157,5,2,3:0:0:0:
369,232,206327,1,0,3:0:0:0:
387,337,206496,2,0,P|346:361|286:351,1,104.5,10|10,2:0|2:0,2:0:0:0:
275,339,206751,1,0,1:0:0:0:
275,339,206835,6,0,P|248:292|259:242,1,104.5,6|0,3:2|3:0,2:0:0:0:
306,191,207090,1,0,2:0:0:0:
301,160,207174,2,0,L|285:56,1,104.5,12|0,2:0|2:0,2:0:0:0:
158,160,207513,5,4,3:2:0:0:
168,288,207683,2,0,L|176:232,1,57,0|0,3:0|2:0,2:0:0:0:
360,16,207852,2,0,P|300:74|217:89,1,171,10|8,2:0|2:0,2:0:0:0:
16,59,208191,2,0,P|81:30|125:35,1,114,2|0,3:0|3:0,2:0:0:0:
122,34,208445,1,0,2:0:0:0:
122,34,208530,1,10,2:0:0:0:
54,273,208784,1,8,2:0:0:0:
54,273,208869,6,0,P|51:207|89:166,1,114,2|2,3:0|3:0,2:0:0:0:
139,137,209123,1,0,2:0:0:0:
160,142,209208,1,10,2:0:0:0:
245,196,209378,1,2,2:0:0:0:
221,211,209462,1,8,2:0:0:0:
193,216,209547,1,2,3:0:0:0:
321,187,209717,1,0,3:0:0:0:
221,44,209886,1,10,2:0:0:0:
288,0,210056,1,0,3:0:0:0:
129,108,210225,5,10,2:0:0:0:
141,29,210395,1,0,3:0:0:0:
383,108,210564,5,10,2:0:0:0:
371,29,210734,1,2,3:0:0:0:
116,99,210903,5,10,2:0:0:0:
128,20,211073,1,0,3:0:0:0:
395,99,211242,5,10,2:0:0:0:
384,20,211412,1,0,3:0:0:0:
100,267,211581,5,10,2:0:0:0:
111,187,211751,1,0,3:0:0:0:
412,267,211920,5,10,2:0:0:0:
401,187,212090,1,2,3:0:0:0:
84,256,212259,5,10,2:0:0:0:
95,176,212429,1,0,3:0:0:0:
428,256,212598,5,10,2:0:0:0:
417,176,212768,1,2,3:0:0:0:
256,384,212937,5,10,2:0:0:0:
326,23,213276,5,10,2:0:0:0:
200,80,213445,1,10,2:0:0:0:
326,170,213615,1,10,2:0:0:0:
248,18,213784,1,8,2:0:0:0:
248,181,213954,1,10,2:0:0:0:
418,83,214123,1,8,2:0:0:0:
363,293,214293,5,10,2:0:0:0:
173,154,214462,1,10,2:0:0:0:
371,0,214632,1,10,2:0:0:0:
443,243,214801,1,10,2:0:0:0:
443,282,214886,1,8,2:0:0:0:
420,315,214971,5,2,3:0:0:0:
380,337,215056,1,8,2:0:0:0:
334,329,215140,1,8,2:0:0:0:
302,296,215225,1,8,2:0:0:0:
272,260,215310,1,2,3:0:0:0:
227,248,215395,1,8,2:0:0:0:
182,257,215479,1,8,2:0:0:0:
149,288,215564,1,8,2:0:0:0:
141,329,215649,6,0,P|77:244|164:105,1,285,6|0,3:2|2:0,2:0:0:0:
273,202,217005,1,8,2:0:0:0:
256,0,217174,5,2,1:0:0:0:
151,174,217344,1,2,1:0:0:0:
355,176,217513,1,10,2:0:0:0:
375,140,217598,1,8,2:0:0:0:
367,100,217683,5,10,2:0:0:0:
343,64,217768,1,0,1:0:0:0:
301,53,217852,1,0,3:0:0:0:
263,74,217937,1,0,3:0:0:0:
255,117,218022,6,0,B|242:191|242:191|267:224|267:224|256:290,1,185.25,10|0,2:0|2:0,2:0:0:0:
204,347,218361,6,0,P|238:367|294:359,1,95,4|0,3:2|2:0,2:0:0:0:
308,351,218615,1,0,2:0:0:0:
321,337,218700,1,10,2:0:0:0:
181,264,218869,1,8,2:3:0:0:
290,196,219039,2,0,B|196:180,1,95,2|8,3:0|2:3,2:0:0:0:
384,212,219378,1,8,2:0:0:0:
306,102,219547,5,10,2:3:0:0:
400,118,219717,1,2,3:0:0:0:
322,8,219886,2,0,P|272:13|234:40,1,95,10|8,2:3|2:0,2:0:0:0:
110,209,220225,2,0,P|157:205|197:180,1,95,10|0,2:3|3:0,2:0:0:0:
92,75,220564,1,10,2:3:0:0:
92,75,220649,1,2,2:0:0:0:
92,75,220734,1,10,2:0:0:0:
152,15,220903,1,10,2:3:0:0:
32,134,221073,6,0,P|15:178|31:222,1,95,0|8,3:0|2:3,2:0:0:0:
46,233,221327,1,0,2:0:0:0:
65,234,221412,2,0,L|49:369,1,95,10|8,2:0|2:3,2:0:0:0:
220,364,221751,2,0,L|208:269,1,95,2|8,3:0|2:3,2:0:0:0:
188,99,222090,1,8,2:0:0:0:
136,298,222259,6,0,P|245:288|313:341,1,190,10|10,2:3|2:3,2:0:0:0:
322,356,222683,1,2,2:0:0:0:
335,381,222768,1,10,2:0:0:0:
281,218,222937,1,10,2:3:0:0:
450,253,223106,1,2,3:0:0:0:
414,0,223276,5,14,2:0:0:0:
356,201,223445,1,14,2:0:0:0:
211,51,223615,1,2,2:0:0:0:
381,284,223784,6,0,P|354:322|277:330,1,95,4|0,3:2|2:0,2:0:0:0:
309,336,224039,1,0,2:0:0:0:
309,336,224123,2,0,L|188:325,1,95,10|8,2:0|2:3,2:0:0:0:
209,135,224462,2,0,L|304:145,1,95,2|8,3:0|2:3,2:0:0:0:
212,250,224801,2,0,P|188:246|170:233,1,47.5,8|0,2:0|2:0,2:0:0:0:
151,210,224971,5,10,2:3:0:0:
284,257,225140,1,2,3:0:0:0:
177,349,225310,2,0,P|131:366|86:361,1,95,10|8,2:3|2:0,2:0:0:0:
17,242,225649,1,10,2:3:0:0:
384,160,225988,1,10,2:3:0:0:
384,160,226073,1,2,2:0:0:0:
384,160,226157,2,0,P|415:126|419:74,1,95,10|10,2:0|2:3,2:0:0:0:
307,177,226496,1,0,3:0:0:0:
497,160,226666,6,0,L|454:142,1,47.5,8|0,2:3|2:0,2:0:0:0:
279,70,226835,1,14,2:0:0:0:
353,293,227005,1,8,2:0:0:0:
356,264,227090,1,8,2:0:0:0:
360,235,227174,1,10,3:2:0:0:
280,305,227344,1,0,1:0:0:0:
423,316,227513,1,0,3:0:0:0:
240,165,227683,6,0,P|202:203|214:307,1,156.75,14|0,2:0|2:0,2:0:0:0:
239,365,228022,1,10,2:0:0:0:
116,198,228191,1,10,2:0:0:0:
287,224,228361,1,10,2:0:0:0:
68,339,228530,2,0,L|48:221,1,104.5,14|10,2:0|2:0,2:0:0:0:
45,204,228784,1,8,2:0:0:0:
40,173,228869,1,10,3:2:0:0:
35,142,228954,1,0,1:0:0:0:
30,111,229039,1,8,2:0:0:0:
25,80,229123,1,8,2:0:0:0:
20,49,229208,5,4,3:2:0:0:
196,116,229378,1,0,2:0:0:0:
196,116,229462,1,0,2:0:0:0:
196,116,229547,1,10,2:0:0:0:
348,4,229717,1,8,2:3:0:0:
108,83,229886,1,2,3:0:0:0:
327,76,230056,1,8,2:3:0:0:
141,192,230225,1,8,2:0:0:0:
275,23,230395,1,10,2:3:0:0:
300,238,230564,5,2,3:0:0:0:
458,51,230734,2,0,P|480:102|464:162,1,114,10|8,2:3|2:0,2:0:0:0:
375,314,231073,1,10,2:3:0:0:
323,164,231242,1,0,3:0:0:0:
191,253,231412,1,10,2:3:0:0:
167,268,231496,1,2,2:0:0:0:
143,285,231581,1,10,2:0:0:0:
214,179,231751,1,10,2:3:0:0:
259,300,231920,5,0,3:0:0:0:
66,276,232090,1,8,2:3:0:0:
66,276,232174,1,0,2:0:0:0:
66,276,232259,2,0,P|28:222|40:158,1,114,10|8,2:0|2:3,2:0:0:0:
237,105,232598,2,0,P|171:93|135:39,1,114,2|8,3:0|2:3,2:0:0:0:
132,38,232852,1,0,2:0:0:0:
133,15,232937,1,8,2:0:0:0:
311,47,233106,6,0,P|248:125|272:243,1,228,14|10,2:0|2:0,2:0:0:0:
298,264,233530,1,2,2:0:0:0:
298,264,233615,1,2,3:2:0:0:
186,250,233784,1,2,1:0:0:0:
343,204,233954,1,2,3:0:0:0:
242,334,234123,1,2,1:0:0:0:
400,289,234293,1,2,1:0:0:0:
167,323,234462,1,14,2:0:0:0:
254,104,234632,6,0,P|272:154|254:213,1,114,0|0,3:0|2:0,2:0:0:0:
234,230,234886,1,0,2:0:0:0:
207,241,234971,2,0,P|156:240|114:196,1,114,10|8,2:0|2:3,2:0:0:0:
324,58,235310,1,2,3:0:0:0:
145,91,235479,1,8,2:3:0:0:
383,118,235649,1,8,2:0:0:0:
182,172,235818,5,10,2:3:0:0:
406,37,235988,1,2,3:0:0:0:
411,299,236157,1,10,2:3:0:0:
333,168,236327,1,8,2:0:0:0:
450,365,236496,1,10,2:3:0:0:
472,253,236666,1,0,3:0:0:0:
269,265,236835,5,10,2:0:0:0:
228,267,236920,1,8,2:0:0:0:
192,249,237005,1,10,3:2:0:0:
166,218,237090,1,8,2:0:0:0:
129,201,237174,1,10,2:0:0:0:
88,202,237259,1,8,2:0:0:0:
55,225,237344,5,8,2:0:0:0:
129,366,237513,1,0,2:0:0:0:
129,366,237598,1,0,2:0:0:0:
129,366,237683,2,0,L|142:283,1,66.4999999999999,2|0,2:0|2:0,2:0:0:0:
22,248,238022,2,0,L|42:379,1,133,2|0,2:0|2:0,2:0:0:0:
1,116,238530,6,0,P|53:152|127:125,1,133,2|2,2:0|2:0,2:0:0:0:
116,135,238954,1,2,2:0:0:0:
116,135,239039,1,2,2:0:0:0:
108,40,239208,5,2,2:0:0:0:
221,115,239378,1,2,2:0:0:0:
232,21,239547,1,2,2:0:0:0:
292,142,239717,1,2,2:0:0:0:
512,0,239886,6,0,B|446:140|446:140|480:221|480:221|422:346,1,380,14|0,3:2|2:0,2:0:0:0:
