osu file format v14

[General]
AudioFilename: audio.mp3
AudioLeadIn: 0
PreviewTime: 28355
Countdown: 1
SampleSet: Normal
StackLeniency: 0.7
Mode: 0
LetterboxInBreaks: 0
WidescreenStoryboard: 0

[Editor]
Bookmarks: 27473,30120,44237
DistanceSpacing: 1.3
BeatDivisor: 4
GridSize: 16
TimelineZoom: 1

[Metadata]
Title:Apple Pen
TitleUnicode:Apple Pen
Artist:Botcash
ArtistUnicode:Botcash
Creator:mynamesfake
Version:PenPineappleApplePen
Source:Piko Taro
Tags:EDM Remix of Pen Pineapple Apple Pen
BeatmapID:1092088
BeatmapSetID:514048

[Difficulty]
HPDrainRate:6.5
CircleSize:4
OverallDifficulty:7
ApproachRate:9
SliderMultiplier:1.4
SliderTickRate:1

[Events]
//Background and Video events
0,0,"maxresdefault.jpg",0,0
//Break Periods
//Storyboard Layer 0 (Background)
//Storyboard Layer 1 (Fail)
//Storyboard Layer 2 (Pass)
//Storyboard Layer 3 (Foreground)
//Storyboard Sound Samples

[TimingPoints]
1885,441.176470588235,4,1,0,100,1,0
7179,-66.6666666666667,4,1,0,100,0,0
7620,-100,4,1,0,100,0,0
14237,-66.6666666666667,4,1,0,100,0,0
14679,-100,4,1,0,100,0,0
17326,-66.6666666666667,4,1,0,100,0,0
30120,-50,4,1,0,100,0,0

[HitObjects]
80,144,1885,6,0,B|160:144|224:160|160:240|256:304|320:272|320:272,1,280
192,48,3208,1,0,0:0:0:0:
320,128,3649,2,0,B|400:192|400:272|304:288|208:272|208:272,1,280
128,96,4973,1,0,0:0:0:0:
80,192,5193,1,0,0:0:0:0:
128,288,5414,6,0,B|208:288|224:224|176:176|272:128|336:112,1,280
352,240,6517,1,0,0:0:0:0:
224,304,6737,1,0,0:0:0:0:
192,160,6958,1,0,0:0:0:0:
96,48,7179,6,0,P|48:96|48:112,1,52.5000020027161
96,256,7399,2,0,P|128:304|144:304,1,52.5000020027161
288,176,7620,2,0,P|272:128|240:128,2,70
320,320,8282,1,0,0:0:0:0:
416,144,8502,1,0,0:0:0:0:
208,192,8723,1,0,0:0:0:0:
96,288,8943,5,0,0:0:0:0:
144,64,9164,1,0,0:0:0:0:
128,304,9384,1,0,0:0:0:0:
336,160,9605,1,0,0:0:0:0:
224,48,9826,2,0,B|160:64|96:64|96:128,1,140
128,272,10487,1,0,0:0:0:0:
320,304,10708,5,0,0:0:0:0:
112,176,10929,1,0,0:0:0:0:
320,64,11149,1,0,0:0:0:0:
320,272,11370,1,0,0:0:0:0:
64,112,11590,2,0,P|144:48|192:48,1,140
240,272,12252,1,0,0:0:0:0:
368,192,12473,5,0,0:0:0:0:
80,48,12693,1,0,0:0:0:0:
352,208,12914,1,0,0:0:0:0:
64,256,13134,1,0,0:0:0:0:
352,112,13355,6,0,B|304:112|288:96|288:80|224:128|256:128|208:96,1,140
160,64,14017,1,0,0:0:0:0:
400,208,14237,2,0,P|368:160|352:160,1,52.5000020027161
128,192,14458,2,0,P|128:256|144:256,1,52.5000020027161
272,304,14679,2,0,P|320:272|320:240,2,70
352,128,15340,5,0,0:0:0:0:
128,96,15561,2,0,B|64:128|96:160|96:176,1,70
208,272,16002,1,0,0:0:0:0:
432,96,16223,6,0,L|432:144,1,35
80,256,16443,2,0,L|80:208,1,35
256,80,16664,2,0,B|272:144|256:160|240:160,2,70
160,272,17326,6,0,P|128:224|144:208,1,52.5000020027161
352,48,17546,2,0,P|400:64|400:96,1,52.5000020027161
368,224,17767,2,0,B|304:192|304:192|256:192,2,105.000004005432
160,64,18429,1,0,0:0:0:0:
80,288,18649,1,0,0:0:0:0:
352,144,18870,1,0,0:0:0:0:
112,288,19090,1,0,0:0:0:0:
176,48,19311,1,0,0:0:0:0:
240,192,19532,6,0,B|160:192|144:160|192:128,1,105.000004005432
272,96,19973,6,0,B|352:96|368:128|320:160,1,105.000004005432
368,240,20414,2,0,B|320:208|320:208|288:256|288:256|256:208|256:208|240:256,1,210.000008010865
64,320,21076,1,0,0:0:0:0:
144,64,21296,6,0,L|208:32,1,52.5000020027161
400,288,21517,2,0,L|352:320,1,52.5000020027161
176,256,21737,2,0,B|224:208|192:192|224:160,2,105.000004005432
352,336,22399,1,0,0:0:0:0:
256,48,22620,2,0,B|176:48|192:112|272:112|352:128|192:176|192:176,1,210.000008010865
64,176,23282,5,0,0:0:0:0:
240,272,23502,1,0,0:0:0:0:
144,48,23723,1,0,0:0:0:0:
336,144,23943,2,0,B|272:192|240:144|256:96|224:96|224:96|176:176,1,210.000008010865
176,304,24605,1,0,0:0:0:0:
384,288,24826,5,0,0:0:0:0:
128,64,25046,1,0,0:0:0:0:
240,240,25267,1,0,0:0:0:0:
400,80,25487,2,0,B|336:80|320:48|288:96,3,105.000004005432
96,112,26370,5,0,0:0:0:0:
112,272,26590,5,0,0:0:0:0:
144,304,26701,1,0,0:0:0:0:
192,320,26811,1,0,0:0:0:0:
240,320,26921,1,0,0:0:0:0:
288,304,27032,1,0,0:0:0:0:
336,272,27142,1,0,0:0:0:0:
368,224,27252,1,0,0:0:0:0:
384,176,27362,1,0,0:0:0:0:
288,112,27473,5,0,0:0:0:0:
240,80,27583,1,0,0:0:0:0:
192,80,27693,1,0,0:0:0:0:
144,112,27804,1,0,0:0:0:0:
128,160,27914,1,0,0:0:0:0:
128,208,28024,1,0,0:0:0:0:
144,240,28134,1,0,0:0:0:0:
176,272,28245,1,0,0:0:0:0:
224,288,28355,1,0,0:0:0:0:
368,64,30120,6,0,B|416:128|416:128|368:176,1,140
288,272,30561,1,0,0:0:0:0:
160,144,30782,1,0,0:0:0:0:
128,112,30892,1,0,0:0:0:0:
96,80,31002,2,0,P|32:128|48:144,1,70
336,320,31223,5,0,0:0:0:0:
384,304,31333,1,0,0:0:0:0:
416,272,31443,2,0,P|432:192|448:192,1,70
352,112,31664,5,0,0:0:0:0:
304,176,31774,1,0,0:0:0:0:
240,224,31884,2,0,P|176:192|176:128,1,140
80,304,32326,1,0,0:0:0:0:
256,32,32546,1,0,0:0:0:0:
288,48,32657,1,0,0:0:0:0:
320,80,32767,2,0,P|352:144|352:144,1,70
208,288,32987,5,0,0:0:0:0:
160,272,33098,1,0,0:0:0:0:
112,240,33208,2,0,L|80:176,1,70
128,112,33429,5,0,0:0:0:0:
208,144,33539,1,0,0:0:0:0:
288,176,33649,1,0,0:0:0:0:
432,304,33870,5,0,0:0:0:0:
384,320,33980,1,0,0:0:0:0:
336,304,34090,2,0,B|256:288|272:256|320:224,1,70
64,112,34311,5,0,0:0:0:0:
96,80,34421,1,0,0:0:0:0:
144,64,34532,2,0,P|224:64|224:96,1,70
384,192,34752,5,0,0:0:0:0:
368,240,34862,1,0,0:0:0:0:
320,272,34973,2,0,L|240:256,1,70
240,128,35193,5,0,0:0:0:0:
192,192,35304,1,0,0:0:0:0:
112,224,35414,1,0,0:0:0:0:
448,256,35634,6,0,L|416:320,2,70
176,320,36076,1,0,0:0:0:0:
384,64,36296,1,0,0:0:0:0:
80,128,36517,1,0,0:0:0:0:
352,272,36737,6,0,B|352:176|352:176|272:160,1,140
128,288,37179,5,0,0:0:0:0:
176,96,37399,1,0,0:0:0:0:
224,80,37509,1,0,0:0:0:0:
272,80,37620,2,0,L|336:112,1,70
320,304,37840,5,0,0:0:0:0:
272,320,37951,1,0,0:0:0:0:
224,304,38061,2,0,L|160:272,1,70
96,128,38282,5,0,0:0:0:0:
176,80,38392,1,0,0:0:0:0:
272,96,38502,2,0,L|336:144,2,70
304,256,38833,1,0,0:0:0:0:
208,192,38943,6,0,B|128:160|112:208|128:256,1,140
368,336,39384,1,0,0:0:0:0:
304,112,39605,1,0,0:0:0:0:
272,128,39715,1,0,0:0:0:0:
240,96,39826,2,0,P|320:64|336:80,1,70
384,208,40046,2,0,P|320:240|304:240,1,70
160,272,40267,5,0,0:0:0:0:
208,240,40377,1,0,0:0:0:0:
224,192,40487,2,0,L|192:128,1,70
64,64,40708,2,0,L|80:144,1,70
64,256,40929,5,0,0:0:0:0:
96,288,41039,1,0,0:0:0:0:
144,304,41149,2,0,L|224:304,1,70
432,128,41370,1,0,0:0:0:0:
400,96,41480,1,0,0:0:0:0:
352,80,41590,2,0,L|288:112,1,70
96,112,41811,5,0,0:0:0:0:
128,192,41921,1,0,0:0:0:0:
192,256,42032,2,0,B|272:256|256:208|224:192,1,70
224,128,42252,2,0,B|288:96|304:128|288:144,1,70
336,240,42473,1,0,0:0:0:0:
416,304,44237,6,0,B|368:240|368:240|416:192,1,140
288,112,44678,1,0,0:0:0:0:
160,240,44899,1,0,0:0:0:0:
128,272,45009,1,0,0:0:0:0:
96,304,45119,2,0,P|32:256|48:240,1,70
336,64,45340,5,0,0:0:0:0:
384,80,45450,1,0,0:0:0:0:
416,112,45560,2,0,P|432:192|448:192,1,70
256,304,45781,5,0,0:0:0:0:
256,224,45891,1,0,0:0:0:0:
192,160,46001,2,0,P|256:128|256:64,1,140
400,80,46443,1,0,0:0:0:0:
224,352,46663,1,0,0:0:0:0:
192,336,46774,1,0,0:0:0:0:
160,304,46884,2,0,P|128:240|128:240,1,70
272,96,47104,5,0,0:0:0:0:
320,112,47215,1,0,0:0:0:0:
368,144,47325,2,0,L|400:208,1,70
352,272,47546,5,0,0:0:0:0:
272,240,47656,1,0,0:0:0:0:
192,208,47767,2,0,P|160:272|128:272,1,70
48,80,47987,5,0,0:0:0:0:
96,64,48097,1,0,0:0:0:0:
144,80,48207,2,0,B|224:96|208:128|160:160,1,70
416,272,48428,5,0,0:0:0:0:
384,304,48538,1,0,0:0:0:0:
336,320,48649,2,0,P|256:320|256:288,1,70
96,192,48869,5,0,0:0:0:0:
112,144,48979,1,0,0:0:0:0:
160,112,49090,2,0,L|240:128,1,70
240,256,49310,5,0,0:0:0:0:
304,192,49421,1,0,0:0:0:0:
384,160,49531,1,0,0:0:0:0:
32,128,49751,6,0,L|64:64,2,70
304,64,50193,1,0,0:0:0:0:
96,320,50413,1,0,0:0:0:0:
400,256,50634,1,0,0:0:0:0:
128,112,50855,6,0,B|192:144|128:176|64:176|128:224,1,140
352,96,51296,5,0,0:0:0:0:
304,288,51516,1,0,0:0:0:0:
256,304,51626,1,0,0:0:0:0:
208,304,51737,2,0,L|144:272,1,70
160,80,51957,5,0,0:0:0:0:
208,64,52068,1,0,0:0:0:0:
256,80,52178,2,0,L|320:112,1,70
400,256,52399,5,0,0:0:0:0:
304,288,52509,1,0,0:0:0:0:
208,288,52619,2,0,L|144:240,3,70
400,112,53060,6,0,B|320:80|304:128|320:176,1,140
112,48,53501,1,0,0:0:0:0:
176,272,53722,1,0,0:0:0:0:
208,256,53832,1,0,0:0:0:0:
240,288,53943,2,0,P|160:320|144:304,1,70
96,176,54163,2,0,P|160:144|176:144,1,70
320,112,54384,5,0,0:0:0:0:
272,144,54494,1,0,0:0:0:0:
256,192,54604,2,0,L|288:256,1,70
416,320,54825,2,0,L|400:240,1,70
416,128,55046,5,0,0:0:0:0:
384,96,55156,1,0,0:0:0:0:
336,80,55266,2,0,L|256:80,1,70
48,256,55487,5,0,0:0:0:0:
80,288,55597,1,0,0:0:0:0:
128,304,55707,2,0,L|192:272,1,70
384,272,55928,5,0,0:0:0:0:
352,192,56038,1,0,0:0:0:0:
288,128,56149,2,0,B|208:128|224:176|256:192,1,70
176,288,56369,2,0,B|112:320|96:288|112:272,1,70
256,192,56590,12,0,58355,0:0:0:0:
