osu file format v14

[General]
AudioFilename: Bossfight - Sonder (192kbps).mp3
AudioLeadIn: 0
PreviewTime: 62413
Countdown: 0
SampleSet: Soft
StackLeniency: 0.7
Mode: 2
LetterboxInBreaks: 0
EpilepsyWarning: 1
WidescreenStoryboard: 1

[Editor]
Bookmarks: 186694,202185,201066,186746,69971,46550,180128
DistanceSpacing: 1.2
BeatDivisor: 4
GridSize: 4
TimelineZoom: 1.6

[Metadata]
Title:Sonder
TitleUnicode:Sonder
Artist:Bossfight
ArtistUnicode:Bossfight
Creator:WildOne94
Version:Salad
Source:
Tags:glitch hop future bass Newgrounds
BeatmapID:928444
BeatmapSetID:412743

[Difficulty]
HPDrainRate:4
CircleSize:3
OverallDifficulty:7
ApproachRate:7
SliderMultiplier:2.3
SliderTickRate:1

[Events]
//Background and Video events
0,0,"english_summer_rain_by_gabrielleragusi-d5z98vy.jpg",0,0
//Break Periods
2,108285,113867
2,141774,150843
//Storyboard Layer 0 (Background)
//Storyboard Layer 1 (Fail)
//Storyboard Layer 2 (Pass)
//Storyboard Layer 3 (Foreground)
//Storyboard Sound Samples

[TimingPoints]
145,697.674418604651,4,2,1,5,1,0
6424,-100,4,2,1,5,0,0
6774,-100,4,2,1,10,0,0
7123,697.674418604651,4,2,1,35,1,0
18285,-100,4,2,1,45,0,0
18809,-100,4,2,1,40,0,0
23867,-100,4,2,1,45,0,0
27878,-100,4,2,1,50,0,0
28750,-100,4,2,1,55,0,0
29448,-100,4,2,1,60,0,0
40611,-100,4,2,1,65,0,0
54564,-100,4,2,1,60,0,0
57355,-100,4,2,1,50,0,0
59622,-100,4,2,1,55,0,0
60146,-100,4,2,1,60,0,0
61367,-100,4,2,1,65,0,0
62239,-100,4,2,1,70,0,0
62588,-100,4,2,1,60,0,0
62936,-100,4,2,1,75,0,1
68518,-100,4,2,1,65,0,1
68867,-100,4,2,1,75,0,1
79681,-100,4,2,1,65,0,1
80029,-100,4,2,1,75,0,1
85262,-100,4,2,1,55,0,0
85611,-100,4,2,1,65,0,0
95727,-100,4,2,1,75,0,0
96425,-100,4,2,1,65,0,0
104797,-100,4,2,1,60,0,0
106018,-100,4,2,1,70,0,0
107588,-100,4,2,1,30,0,0
115262,-100,4,2,1,20,0,0
116657,-100,4,2,1,25,0,0
117355,-100,4,2,1,30,0,0
118053,-100,4,2,1,40,0,0
118750,-100,4,2,1,65,0,0
133925,-100,4,2,1,60,0,0
135843,-100,4,2,1,65,0,0
141076,-100,4,2,1,50,0,0
155029,-100,4,2,1,55,0,0
157820,-100,4,2,1,60,0,0
160611,-100,4,2,1,65,0,0
162006,-100,4,2,1,70,0,0
162704,-100,4,2,1,75,0,0
163053,-100,4,2,1,60,0,0
163402,-100,4,2,1,75,0,1
168983,-100,4,2,1,65,0,1
169332,-100,4,2,1,75,0,1
180146,-100,4,2,1,65,0,1
180495,-100,4,2,1,75,0,1
185727,-100,4,2,1,70,0,1
194099,-100,4,2,1,65,0,0
195495,-83.3333333333333,4,2,1,65,0,0
196192,-100,4,2,1,75,0,0
196890,-100,4,2,1,75,0,1
208053,-100,4,2,1,30,0,0
210843,-100,4,2,1,15,0,0
212936,-100,4,2,1,5,0,0
213634,-100,4,2,1,20,0,0
227588,-100,4,2,1,10,0,0
233518,-100,4,2,1,5,0,0

[Colours]
Combo1 : 37,200,218
Combo2 : 137,20,182
Combo3 : 18,124,255
Combo4 : 75,65,201

[HitObjects]
256,192,1540,12,0,6424,0:0:0:0:
292,252,7123,6,0,P|380:224|464:80,1,230,6|8,0:0|0:0,0:0:0:0:
176,100,8518,1,2,0:0:0:0:
384,104,9041,2,0,L|272:104,1,57.5,2|8,0:0|0:0,0:0:0:0:
52,100,9913,5,2,0:0:0:0:
192,96,10262,2,0,L|40:96,1,115,2|8,0:0|0:0,0:0:0:0:
332,188,11134,2,0,P|440:196|444:112,1,172.5,2|2,0:0|0:0,0:0:0:0:
320,140,12006,1,8,0:0:0:0:
76,128,12704,6,0,L|260:128,1,172.5,2|2,0:0|0:0,0:0:0:0:
316,128,13402,1,8,0:0:0:0:
64,208,14099,1,2,0:0:0:0:
288,212,14622,2,0,L|180:212,1,57.5,2|8,0:0|0:0,0:0:0:0:
56,212,15495,6,0,L|212:212,1,115,0|2,0:0|0:0,0:0:0:0:
308,212,16192,1,8,0:0:0:0:
72,212,16716,1,2,0:0:0:0:
280,212,17239,1,2,0:0:0:0:
140,212,17588,2,0,L|300:212,1,115,8|0,0:0|0:0,0:0:0:0:
476,212,18285,6,0,L|252:212,1,172.5,6|2,0:0|0:0,0:0:0:0:
236,212,18983,1,8,0:0:0:0:
432,216,19681,1,2,0:0:0:0:
172,216,20204,1,2,0:0:0:0:
240,216,20378,2,0,L|400:216,1,115,8|0,0:0|0:0,0:0:0:0:
136,216,21076,6,0,L|8:216,2,115,0|2|8,0:0|0:0|0:0,0:0:0:0:
344,216,22297,1,2,0:0:0:0:
136,216,22820,1,2,0:0:0:0:
320,220,23169,1,8,0:0:0:0:
39,217,23867,6,0,L|247:225,1,172.5,2|2,0:0|0:0,0:0:0:0:
280,228,24564,1,8,0:0:0:0:
480,232,25262,1,2,0:0:0:0:
272,228,25785,2,0,L|376:228,1,57.5,2|8,0:0|0:0,0:0:0:0:
52,228,26657,6,0,L|208:232,2,115,0|2|8,0:0|0:0|0:0,0:0:0:0:
324,232,27878,1,2,0:0:0:0:
116,232,28402,1,2,0:0:0:0:
332,236,28750,2,0,L|480:188,1,115,8|0,0:0|0:0,0:0:0:0:
164,152,29448,6,0,L|232:208,1,57.5,6|0,0:0|0:0,0:0:0:0:
360,208,29971,2,0,L|296:164,1,57.5,2|8,0:0|0:0,0:0:0:0:
152,136,30495,2,0,L|24:192,1,115,0|0,0:0|0:0,0:0:0:0:
256,192,31192,1,0,0:0:0:0:
324,188,31367,1,2,0:0:0:0:
396,188,31541,2,0,L|264:188,1,115,8|0,0:0|0:0,0:0:0:0:
72,184,32413,5,0,0:0:0:0:
140,184,32588,2,0,L|304:184,1,115,2|8,0:0|0:0,0:0:0:0:
464,184,33460,1,2,0:0:0:0:
255,184,33983,1,2,0:0:0:0:
92,184,34332,1,8,0:0:0:0:
288,184,34681,1,2,0:0:0:0:
56,188,35029,6,0,L|136:188,1,57.5,6|0,0:0|0:0,0:0:0:0:
356,184,35553,2,0,L|252:188,1,57.5,2|8,0:0|0:0,0:0:0:0:
160,192,36076,2,0,L|20:132,1,115,0|0,0:0|0:0,0:0:0:0:
184,116,36774,2,0,L|288:116,1,57.5,0|2,0:0|0:0,0:0:0:0:
312,116,37122,2,0,L|168:172,1,115,8|0,0:0|0:0,0:0:0:0:
456,184,37995,6,0,L|364:184,1,57.5,0|2,0:0|0:0,0:0:0:0:
260,184,38518,2,0,L|416:104,1,172.5,8|2,0:0|0:0,0:0:0:0:
220,100,39564,1,2,0:0:0:0:
48,96,39913,2,0,L|180:96,1,115,8|2,0:0|0:0,0:0:0:0:
392,96,40611,5,6,0:0:0:0:
116,92,41134,1,2,0:0:0:0:
184,92,41309,2,0,L|344:92,2,115,8|0|0,0:0|0:0|0:0,0:0:0:0:
392,88,42529,2,0,L|472:88,1,57.5,2|8,0:0|0:0,0:0:0:0:
312,92,43053,1,0,0:0:0:0:
48,92,43576,6,0,L|144:92,1,57.5,0|2,0:0|0:0,0:0:0:0:
244,92,44099,1,8,0:0:0:0:
384,92,44448,1,0,0:0:0:0:
316,100,44622,2,0,L|116:184,1,172.5,2|2,0:0|0:0,0:0:0:0:
336,160,45495,1,8,0:0:0:0:
128,168,45843,1,0,0:0:0:0:
396,200,46192,6,0,L|536:124,1,115,2|0,0:0|0:0,0:0:0:0:
428,132,46716,2,0,L|316:132,1,57.5,0|8,0:0|0:0,0:0:0:0:
128,152,47239,2,0,L|16:92,1,115,0|0,0:0|0:0,0:0:0:0:
164,92,47936,1,0,0:0:0:0:
224,124,48111,1,2,0:0:0:0:
284,156,48285,1,8,0:0:0:0:
424,160,48634,1,0,0:0:0:0:
144,148,49157,6,0,L|248:144,1,57.5,0|2,0:0|0:0,0:0:0:0:
340,148,49681,2,0,L|160:148,1,172.5,8|2,0:0|0:0,0:0:0:0:
460,152,50727,1,2,0:0:0:0:
276,152,51076,2,0,L|128:216,1,115,8|0,0:0|0:0,0:0:0:0:
100,200,51599,1,0,0:0:0:0:
32,200,51774,6,0,L|208:252,1,172.5,2|2,0:0|0:0,0:0:0:0:
268,248,52471,1,8,0:0:0:0:
476,248,52995,1,0,0:0:0:0:
340,252,53343,1,0,0:0:0:0:
200,256,53692,1,2,0:0:0:0:
132,260,53867,2,0,L|288:260,1,115,8|0,0:0|0:0,0:0:0:0:
408,260,54564,6,0,L|272:260,1,115,0|2,0:0|0:0,0:0:0:0:
108,264,55262,1,8,0:0:0:0:
364,264,55785,1,2,0:0:0:0:
432,268,55960,2,0,L|272:268,2,115,2|2|0,0:0|0:0|0:0,0:0:0:0:
292,268,57006,1,8,0:0:0:0:
152,268,57355,6,0,L|304:264,1,115,2|8,0:0|0:0,0:0:0:0:
128,268,58053,2,0,L|185:268,1,57.5,2|2,0:0|0:0,0:0:0:0:
256,268,58402,1,0,0:0:0:0:
324,268,58576,2,0,L|464:268,1,115,0|0,0:0|0:0,0:0:0:0:
368,264,59099,1,0,0:0:0:0:
228,264,59448,1,0,0:0:0:0:
140,272,59622,2,0,L|208:268,1,57.5,0|8,0:0|0:0,0:0:0:0:
336,268,60146,6,0,L|192:268,1,115,2|8,0:0|0:0,0:0:0:0:
360,268,60843,2,0,L|496:268,1,115,2|0,0:0|0:0,0:0:0:0:
272,264,61541,2,0,L|120:272,1,115,0|8,0:0|0:0,0:0:0:0:
428,272,62239,1,6,0:0:0:0:
428,132,62588,1,2,0:0:0:0:
148,128,62936,6,0,L|0:56,1,115,6|0,0:0|0:0,0:0:0:0:
184,68,63634,1,8,0:0:0:0:
252,68,63809,2,0,L|408:68,1,115,0|2,0:0|0:0,0:0:0:0:
112,68,64681,1,2,0:0:0:0:
252,68,65029,2,0,L|92:72,1,115,8|0,0:0|0:0,0:0:0:0:
384,72,65727,6,0,L|508:72,2,115,2|2|8,0:0|0:0|0:0,0:0:0:0:
316,72,66599,2,0,L|148:76,1,115,0|2,0:0|0:0,0:0:0:0:
408,68,67471,1,2,0:0:0:0:
188,68,67820,1,8,0:0:0:0:
48,72,68169,1,2,0:0:0:0:
288,68,68518,6,0,L|404:116,1,115,6|0,0:0|0:0,0:0:0:0:
256,116,69216,1,8,0:0:0:0:
472,112,69739,1,2,0:0:0:0:
404,112,69913,2,0,L|272:164,1,115,0|2,0:0|0:0,0:0:0:0:
160,156,70611,1,8,0:0:0:0:
356,156,70960,1,2,0:0:0:0:
120,156,71309,6,0,L|-12:240,1,115,2|2,0:0|0:0,0:0:0:0:
224,220,72006,1,8,0:0:0:0:
292,220,72181,2,2,L|407:220,2,115,2|2|0,0:0|0:0|0:0,0:0:0:0:
224,220,73053,1,2,0:0:0:0:
364,220,73402,1,8,0:0:0:0:
196,220,73750,1,2,0:0:0:0:
464,216,74099,6,0,L|308:216,1,115,6|0,0:0|0:0,0:0:0:0:
160,208,74797,1,8,0:0:0:0:
228,212,74971,2,0,L|384:208,1,115,0|2,0:0|0:0,0:0:0:0:
136,212,75843,1,2,0:0:0:0:
276,212,76192,1,8,0:0:0:0:
416,216,76541,1,0,0:0:0:0:
168,220,76890,6,0,L|32:220,2,115,2|2|8,0:0|0:0|0:0,0:0:0:0:
236,220,77762,1,2,0:0:0:0:
96,216,78111,1,2,0:0:0:0:
360,216,78634,1,2,0:0:0:0:
220,216,78983,2,0,L|388:216,1,115,8|2,0:0|0:0,0:0:0:0:
92,212,79681,6,0,L|252:216,1,115,6|0,0:0|0:0,0:0:0:0:
68,212,80378,1,8,0:0:0:0:
304,212,80902,2,0,L|464:208,1,115,2|2,0:0|0:0,0:0:0:0:
488,208,81425,2,0,L|332:220,1,115,2|8,0:0|0:0,0:0:0:0:
236,212,82122,1,0,0:0:0:0:
456,216,82471,6,0,L|312:216,1,115,2|2,0:0|0:0,0:0:0:0:
272,216,82995,1,2,0:0:0:0:
340,216,83169,1,8,0:0:0:0:
112,216,83692,1,0,0:0:0:0:
44,216,83867,2,0,L|208:216,1,115,0|2,0:0|0:0,0:0:0:0:
320,216,84564,2,0,L|172:216,1,115,8|2,0:0|0:0,0:0:0:0:
424,220,85262,6,0,L|504:220,1,57.5,6|0,0:0|0:0,0:0:0:0:
412,220,85611,2,0,L|252:224,1,115,0|8,0:0|0:0,0:0:0:0:
88,216,86483,1,2,0:0:0:0:
296,216,87006,1,2,0:0:0:0:
116,220,87355,2,0,L|280:220,1,115,8|0,0:0|0:0,0:0:0:0:
368,220,88053,5,2,0:0:0:0:
184,220,88402,1,2,0:0:0:0:
408,220,88750,2,0,L|216:220,1,172.5,8|2,0:0|0:0,0:0:0:0:
96,224,89622,1,2,0:0:0:0:
164,228,89797,2,0,L|320:228,1,115,2|8,0:0|0:0,0:0:0:0:
416,228,90495,1,2,0:0:0:0:
168,224,90843,6,0,L|32:228,2,115,6|0|8,0:0|0:0|0:0,0:0:0:0:
360,224,92064,1,2,0:0:0:0:
176,224,92413,1,2,0:0:0:0:
108,224,92588,2,0,L|260:224,1,115,2|8,0:0|0:0,0:0:0:0:
360,224,93285,1,0,0:0:0:0:
132,224,93634,6,0,L|0:228,2,115,2|2|8,0:0|0:0|0:0,0:0:0:0:
200,224,94506,1,0,0:0:0:0:
132,224,94681,1,2,0:0:0:0:
360,232,95029,2,0,P|412:164|332:52,1,230,2|8,0:0|0:0,0:0:0:0:
484,52,96076,1,0,0:0:0:0:
172,176,96425,6,0,L|40:176,2,115,6|0|8,0:0|0:0|0:0,0:0:0:0:
404,224,97646,1,2,0:0:0:0:
264,224,97995,1,2,0:0:0:0:
196,224,98169,2,0,L|328:228,1,115,2|8,0:0|0:0,0:0:0:0:
140,232,98867,1,0,0:0:0:0:
336,232,99216,6,0,L|168:236,1,115,2|2,0:0|0:0,0:0:0:0:
152,236,99739,1,0,0:0:0:0:
220,236,99913,1,8,0:0:0:0:
360,240,100262,1,0,0:0:0:0:
292,240,100436,1,2,0:0:0:0:
220,236,100611,1,0,0:0:0:0:
152,236,100785,1,0,0:0:0:0:
220,236,100960,2,0,L|376:236,1,115,2|8,0:0|0:0,0:0:0:0:
472,240,101657,1,0,0:0:0:0:
232,228,102006,6,0,L|108:228,1,115,6|0,0:0|0:0,0:0:0:0:
48,228,102529,1,0,0:0:0:0:
116,228,102704,2,0,L|340:224,2,172.5,8|2|2,0:0|0:0|0:0,0:0:0:0:
352,224,104099,1,8,0:0:0:0:
492,224,104448,1,0,0:0:0:0:
284,224,104797,6,0,L|144:228,1,115,2|2,0:0|0:0,0:0:0:0:
100,232,105320,1,0,0:0:0:0:
32,232,105495,1,8,0:0:0:0:
100,232,105669,1,2,0:0:0:0:
368,240,106018,2,0,P|472:192|364:144,1,287.5,2|12,0:0|0:0,0:0:0:0:
124,196,107588,5,4,0:0:0:0:
256,192,115262,12,0,118053,0:0:0:0:
256,192,118750,5,6,0:0:0:0:
48,196,119274,1,2,0:0:0:0:
116,196,119448,2,0,L|240:196,1,115,8|0,0:0|0:0,0:0:0:0:
300,196,119971,1,0,0:0:0:0:
440,196,120320,1,0,0:0:0:0:
300,196,120669,1,2,0:0:0:0:
232,192,120843,2,0,L|396:192,1,115,8|0,0:0|0:0,0:0:0:0:
84,200,121716,6,0,L|180:196,1,57.5,0|2,0:0|0:0,0:0:0:0:
280,196,122239,2,0,L|96:200,1,172.5,8|2,0:0|0:0,0:0:0:0:
304,196,123285,1,2,0:0:0:0:
76,196,123634,1,8,0:0:0:0:
240,192,123983,2,0,L|136:192,1,57.5,0|0,0:0|0:0,0:0:0:0:
112,188,124332,6,0,L|276:192,1,115,2|0,0:0|0:0,0:0:0:0:
296,192,124855,1,0,0:0:0:0:
364,192,125029,1,8,0:0:0:0:
228,184,125378,1,0,0:0:0:0:
364,180,125727,1,0,0:0:0:0:
188,180,126076,1,0,0:0:0:0:
124,204,126250,1,2,0:0:0:0:
60,228,126425,1,8,0:0:0:0:
200,232,126774,1,0,0:0:0:0:
448,224,127297,6,0,L|348:224,1,57.5,0|2,0:0|0:0,0:0:0:0:
264,228,127820,1,8,0:0:0:0:
124,228,128169,1,0,0:0:0:0:
192,228,128343,2,0,L|368:228,1,172.5,2|2,0:0|0:0,0:0:0:0:
152,232,129216,1,8,0:0:0:0:
16,232,129564,1,0,0:0:0:0:
304,236,129913,6,0,L|484:236,1,172.5,2|2,0:0|0:0,0:0:0:0:
408,236,130611,2,0,L|264:240,2,115,8|0|0,0:0|0:0|0:0,0:0:0:0:
268,236,131657,1,0,0:0:0:0:
200,236,131832,1,2,0:0:0:0:
132,236,132006,2,0,L|292:232,1,115,8|0,0:0|0:0,0:0:0:0:
60,240,132878,6,0,L|160:240,1,57.5,0|2,0:0|0:0,0:0:0:0:
244,236,133402,2,0,L|56:240,1,172.5,8|2,0:0|0:0,0:0:0:0:
304,236,134448,1,2,0:0:0:0:
72,232,134797,1,8,0:0:0:0:
252,236,135146,1,0,0:0:0:0:
20,232,135495,6,0,L|184:232,1,115,2|0,0:0|0:0,0:0:0:0:
235,232,136018,2,0,L|139:232,1,57.5,0|8,0:0|0:0,0:0:0:0:
363,232,136716,2,0,L|495:236,2,115,0|0|2,0:0|0:0|0:0,0:0:0:0:
295,232,137588,1,8,0:0:0:0:
159,228,137936,1,0,0:0:0:0:
407,228,138460,6,0,L|315:228,1,57.5,0|2,0:0|0:0,0:0:0:0:
211,232,138983,1,8,0:0:0:0:
71,232,139332,1,0,0:0:0:0:
135,232,139506,2,0,L|331:232,1,172.5,2|2,0:0|0:0,0:0:0:0:
171,232,140378,1,8,0:0:0:0:
315,232,140727,1,0,0:0:0:0:
55,232,141076,5,6,0:0:0:0:
256,192,152239,5,2,0:0:0:0:
480,192,152762,1,2,0:0:0:0:
412,200,152936,2,0,P|312:256|212:176,1,230,8|0,0:0|0:0,0:0:0:0:
360,188,153983,1,2,0:0:0:0:
164,176,154332,2,0,L|332:180,1,115,8|0,0:0|0:0,0:0:0:0:
456,180,155029,6,0,L|304:180,2,115,2|2|8,0:0|0:0|0:0,0:0:0:0:
268,188,156076,1,2,0:0:0:0:
128,188,156425,1,2,0:0:0:0:
60,188,156599,1,2,0:0:0:0:
128,188,156774,2,0,L|260:188,1,115,2|8,0:0|0:0,0:0:0:0:
380,184,157471,1,2,0:0:0:0:
128,188,157820,6,0,L|0:188,1,115,2|8,0:0|0:0,0:0:0:0:
232,188,158518,2,0,L|392:188,1,115,2|8,0:0|0:0,0:0:0:0:
208,188,159216,1,2,0:0:0:0:
348,188,159564,1,8,0:0:0:0:
180,188,159913,1,2,0:0:0:0:
376,188,160262,1,8,0:0:0:0:
120,192,160611,6,0,L|0:192,2,115,8|8|8,0:0|0:0|0:0,0:0:0:0:
260,192,161657,1,8,0:0:0:0:
472,196,162006,2,0,L|324:196,1,115,10|10,0:0|0:0,0:0:0:0:
96,192,162704,2,0,L|232:192,1,115,6|0,0:0|0:0,0:0:0:0:
464,192,163402,5,6,0:0:0:0:
328,196,163750,1,0,0:0:0:0:
128,192,164099,2,0,L|228:192,1,57.5,8|0,0:0|0:0,0:0:0:0:
324,192,164622,2,0,L|496:192,1,172.5,2|2,0:0|0:0,0:0:0:0:
360,192,165495,1,8,0:0:0:0:
224,192,165843,1,0,0:0:0:0:
488,192,166192,6,0,L|324:192,1,115,2|2,0:0|0:0,0:0:0:0:
148,196,166890,2,0,L|36:200,1,57.5,8|0,0:0|0:0,0:0:0:0:
268,192,167413,1,2,0:0:0:0:
60,192,167936,1,2,0:0:0:0:
332,196,168285,2,0,L|480:192,1,115,8|2,0:0|0:0,0:0:0:0:
180,192,168983,6,0,L|32:192,1,115,6|0,0:0|0:0,0:0:0:0:
204,196,169681,1,8,0:0:0:0:
136,196,169855,2,0,L|0:196,2,115,0|2|0,0:0|0:0|0:0,0:0:0:0:
204,196,170727,1,2,0:0:0:0:
416,196,171076,1,8,0:0:0:0:
216,192,171425,1,0,0:0:0:0:
356,192,171774,6,0,L|520:192,1,115,2|2,0:0|0:0,0:0:0:0:
200,192,172471,2,0,L|96:192,1,57.5,8|0,0:0|0:0,0:0:0:0:
308,188,172995,2,0,P|380:196|460:132,1,172.5,2|2,0:0|0:0,0:0:0:0:
224,136,173867,1,8,0:0:0:0:
384,136,174216,1,0,0:0:0:0:
120,140,174564,6,0,L|-40:136,1,115,6|0,0:0|0:0,0:0:0:0:
196,136,175262,1,8,0:0:0:0:
264,136,175436,2,0,L|424:132,1,115,0|2,0:0|0:0,0:0:0:0:
172,128,176309,1,2,0:0:0:0:
308,124,176657,2,0,L|144:124,1,115,8|0,0:0|0:0,0:0:0:0:
416,128,177355,6,0,L|264:128,2,115,2|2|8,0:0|0:0|0:0,0:0:0:0:
484,128,178227,1,0,0:0:0:0:
264,124,178576,2,0,L|84:128,1,172.5,2|2,0:0|0:0,0:0:0:0:
312,128,179448,2,0,L|464:128,1,115,8|2,0:0|0:0,0:0:0:0:
148,132,180146,6,0,L|20:132,1,115,6|0,0:0|0:0,0:0:0:0:
268,132,180843,2,0,L|76:132,2,172.5,8|2|2,0:0|0:0|0:0,0:0:0:0:
448,132,182239,1,8,0:0:0:0:
448,272,182588,1,0,0:0:0:0:
196,276,182936,6,0,L|68:276,1,115,2|2,0:0|0:0,0:0:0:0:
196,276,183634,2,0,L|300:280,1,57.5,8|0,0:0|0:0,0:0:0:0:
440,280,184157,2,0,L|288:280,2,115,0|0|0,0:0|0:0|0:0,0:0:0:0:
508,280,185029,1,8,0:0:0:0:
368,284,185378,1,0,0:0:0:0:
120,280,185727,6,0,L|276:280,2,115,6|2|8,0:0|0:0|0:0,0:0:0:0:
52,284,186599,1,2,0:0:0:0:
248,284,186948,2,0,L|428:280,1,172.5,2|2,0:0|0:0,0:0:0:0:
216,280,187820,1,8,0:0:0:0:
76,280,188169,1,0,0:0:0:0:
288,280,188518,6,0,L|436:280,2,115,2|2|8,0:0|0:0|0:0,0:0:0:0:
124,280,189564,1,2,0:0:0:0:
56,280,189739,2,0,L|236:280,1,172.5,2|2,0:0|0:0,0:0:0:0:
368,280,190611,1,8,0:0:0:0:
508,280,190960,1,2,0:0:0:0:
272,148,191309,6,0,L|157:151,1,115,6|2,0:0|0:0,0:0:0:0:
20,156,192006,1,8,0:0:0:0:
88,156,192181,2,0,L|240:156,1,115,0|0,0:0|0:0,0:0:0:0:
408,148,193053,1,2,0:0:0:0:
176,148,193402,1,8,0:0:0:0:
360,148,193750,2,0,L|448:148,1,57.5,0|0,0:0|0:0,0:0:0:0:
348,148,194099,5,2,0:0:0:0:
208,152,194449,2,0,L|93:152,2,115,2|2|2,0:0|0:0|0:0,0:0:0:0:
440,144,195495,6,0,P|404:232|260:168,1,275.999991577149,2|8,0:0|0:0,0:0:0:0:
428,180,196541,1,0,0:0:0:0:
164,188,196890,6,0,L|20:188,1,115,6|2,0:0|0:0,0:0:0:0:
252,192,197588,2,0,L|392:192,1,115,8|2,0:0|0:0,0:0:0:0:
436,192,198111,1,2,0:0:0:0:
168,192,198634,1,2,0:0:0:0:
308,188,198983,1,8,0:0:0:0:
448,188,199332,1,0,0:0:0:0:
196,188,199681,6,0,L|52:240,1,115,2|2,0:0|0:0,0:0:0:0:
316,188,200378,2,0,L|460:240,1,115,8|0,0:0|0:0,0:0:0:0:
356,224,200902,1,0,0:0:0:0:
288,228,201076,2,0,L|132:228,2,115,0|2|8,0:0|0:0|0:0,0:0:0:0:
424,224,202122,2,0,L|520:224,1,57.5,2|2,0:0|0:0,0:0:0:0:
412,228,202471,6,0,L|184:224,2,172.5,2|2|2,0:0|0:0|0:0,0:0:0:0:
96,248,204041,1,2,0:0:0:0:
236,248,204390,2,0,L|332:248,1,57.5,2|8,0:0|0:0,0:0:0:0:
432,248,204913,1,2,0:0:0:0:
208,248,205262,6,0,L|76:248,2,115,2|2|2,0:0|0:0|0:0,0:0:0:0:
276,248,206134,1,2,0:0:0:0:
208,248,206309,1,2,0:0:0:0:
140,248,206483,2,0,P|64:216|192:120,1,287.5,2|12,0:0|0:0,0:0:0:0:
256,192,208053,12,0,212936,0:0:0:0:
344,376,213634,6,0,P|404:344|132:172,1,690,2|0,0:0|0:0,0:0:0:0:
220,360,216425,6,0,P|280:328|8:156,1,690,2|0,0:0|0:0,0:0:0:0:
244,364,219216,6,0,P|184:332|456:160,1,690,2|0,0:0|0:0,0:0:0:0:
244,112,221832,1,2,0:0:0:0:
312,108,222006,6,0,P|440:152|200:208,1,690,2|0,0:0|0:0,0:0:0:0:
352,180,224797,6,0,B|-312:160|416:172,1,690,2|0,0:0|0:0,0:0:0:0:
256,192,227588,12,0,233518,0:0:0:0:
