osu file format v14

[General]
AudioFilename: Bossfight - Sonder (192kbps).mp3
AudioLeadIn: 0
PreviewTime: 62413
Countdown: 0
SampleSet: Soft
StackLeniency: 0.7
Mode: 2
LetterboxInBreaks: 0
EpilepsyWarning: 1
WidescreenStoryboard: 1

[Editor]
Bookmarks: 186694,202185,201066,186746,69971,52061,84686,48231,194195,50971
DistanceSpacing: 1.2
BeatDivisor: 12
GridSize: 4
TimelineZoom: 1.6

[Metadata]
Title:Sonder
TitleUnicode:Sonder
Artist:Bossfight
ArtistUnicode:Bossfight
Creator:WildOne94
Version:Platter
Source:
Tags:glitch hop future bass Newgrounds
BeatmapID:895273
BeatmapSetID:412743

[Difficulty]
HPDrainRate:5
CircleSize:3.5
OverallDifficulty:8.3
ApproachRate:8.3
SliderMultiplier:3
SliderTickRate:1

[Events]
//Background and Video events
0,0,"english_summer_rain_by_gabrielleragusi-d5z98vy.jpg",0,0
//Break Periods
2,108285,113867
2,141774,150843
//Storyboard Layer 0 (Background)
//Storyboard Layer 1 (Fail)
//Storyboard Layer 2 (Pass)
//Storyboard Layer 3 (Foreground)
//Storyboard Sound Samples

[TimingPoints]
145,697.674418604651,4,2,1,5,1,0
6424,-100,4,2,1,5,0,0
6774,-100,4,2,1,10,0,0
7123,697.674418604651,4,2,1,35,1,0
18285,-100,4,2,1,45,0,0
18809,-100,4,2,1,40,0,0
23867,-100,4,2,1,45,0,0
27878,-100,4,2,1,50,0,0
28750,-100,4,2,1,55,0,0
29448,-100,4,2,1,60,0,0
40611,-100,4,2,1,65,0,0
54564,-100,4,2,1,60,0,0
57355,-100,4,2,1,50,0,0
59622,-100,4,2,1,55,0,0
60146,-100,4,2,1,60,0,0
61367,-100,4,2,1,65,0,0
62239,-100,4,2,1,70,0,0
62588,-100,4,2,1,60,0,0
62936,-100,4,2,1,75,0,1
68518,-100,4,2,1,65,0,1
68867,-100,4,2,1,75,0,1
79681,-100,4,2,1,65,0,1
80029,-100,4,2,1,75,0,1
85262,-100,4,2,1,55,0,0
85611,-100,4,2,1,65,0,0
95727,-100,4,2,1,75,0,0
96425,-100,4,2,1,65,0,0
104797,-100,4,2,1,60,0,0
106018,-100,4,2,1,70,0,0
107588,-100,4,2,1,30,0,0
115262,-100,4,2,1,20,0,0
116657,-100,4,2,1,25,0,0
117355,-100,4,2,1,30,0,0
118053,-100,4,2,1,40,0,0
118750,-100,4,2,1,65,0,0
133925,-100,4,2,1,60,0,0
135843,-100,4,2,1,65,0,0
141076,-100,4,2,1,50,0,0
155029,-100,4,2,1,55,0,0
157820,-100,4,2,1,60,0,0
160611,-100,4,2,1,65,0,0
162006,-100,4,2,1,70,0,0
162704,-100,4,2,1,75,0,0
163053,-100,4,2,1,60,0,0
163402,-100,4,2,1,75,0,1
168983,-100,4,2,1,65,0,1
169332,-100,4,2,1,75,0,1
180146,-100,4,2,1,65,0,1
180495,-100,4,2,1,75,0,1
185727,-100,4,2,1,70,0,1
194099,-100,4,2,1,65,0,0
195495,-83.3333333333333,4,2,1,65,0,0
196192,-100,4,2,1,75,0,0
196890,-100,4,2,1,75,0,1
208053,-100,4,2,1,30,0,0
210843,-100,4,2,1,15,0,0
212936,-100,4,2,1,5,0,0
213634,-100,4,2,1,20,0,0
227588,-100,4,2,1,10,0,0
233518,-100,4,2,1,5,0,0

[Colours]
Combo1 : 37,200,218
Combo2 : 137,20,182
Combo3 : 18,124,255
Combo4 : 75,65,201

[HitObjects]
256,192,1540,12,0,6773,0:0:0:0:
300,256,7123,6,0,L|488:168,1,150,6|0,0:0|0:0,0:0:0:0:
268,176,7820,1,8,0:0:0:0:
428,192,8518,1,2,0:0:0:0:
140,188,9041,1,2,0:0:0:0:
232,188,9216,2,0,L|396:188,1,150,8|0,0:0|0:0,0:0:0:0:
128,192,9913,5,2,0:0:0:0:
313,192,10262,1,2,0:0:0:0:
128,192,10611,2,0,L|360:192,1,225,8|2,0:0|0:0,0:0:0:0:
84,192,11657,1,2,0:0:0:0:
316,192,12006,1,8,0:0:0:0:
436,192,12704,6,0,L|196:192,1,225,2|2,0:0|0:0,0:0:0:0:
120,188,13402,1,8,0:0:0:0:
384,192,14099,1,2,0:0:0:0:
116,184,14622,1,2,0:0:0:0:
208,184,14797,2,0,L|412:184,1,150,8|0,0:0|0:0,0:0:0:0:
176,184,15495,6,0,L|20:184,2,150,0|2|8,0:0|0:0|0:0,0:0:0:0:
424,192,16716,1,2,0:0:0:0:
336,192,16890,2,0,L|492:196,1,150,0|2,0:0|0:0,0:0:0:0:
396,192,17413,1,0,0:0:0:0:
304,192,17588,2,0,L|140:188,1,150,8|0,0:0|0:0,0:0:0:0:
440,200,18285,6,0,P|432:132|292:72,1,225,6|2,0:0|0:0,0:0:0:0:
212,68,18983,1,8,0:0:0:0:
92,68,19681,1,2,0:0:0:0:
360,44,20204,1,2,0:0:0:0:
448,44,20378,2,0,L|296:48,1,150,8|0,0:0|0:0,0:0:0:0:
116,40,21076,6,0,L|288:44,2,150,0|2|8,0:0|0:0|0:0,0:0:0:0:
448,52,22297,1,2,0:0:0:0:
92,56,22820,1,2,0:0:0:0:
176,88,22995,1,0,0:0:0:0:
260,124,23169,1,8,0:0:0:0:
80,124,23518,1,0,0:0:0:0:
360,148,23867,6,0,P|348:240|192:228,1,225,2|2,0:0|0:0,0:0:0:0:
324,268,24564,1,8,0:0:0:0:
84,272,25262,1,2,0:0:0:0:
320,256,25785,1,2,0:0:0:0:
400,216,25960,6,0,P|388:308|232:296,1,225,8|0,0:0|0:0,0:0:0:0:
184,336,26657,2,0,L|344:336,1,150,0|2,0:0|0:0,0:0:0:0:
488,336,27355,1,8,0:0:0:0:
124,312,27878,1,2,0:0:0:0:
456,320,28402,1,2,0:0:0:0:
204,312,28750,2,0,L|32:312,1,150,8|0,0:0|0:0,0:0:0:0:
146,312,29274,1,0,0:0:0:0:
384,316,29448,6,0,L|458:314,1,75,6|0,0:0|0:0,0:0:0:0:
228,320,29971,2,0,L|154:318,1,75,2|8,0:0|0:0,0:0:0:0:
372,320,30495,1,0,0:0:0:0:
284,316,30669,1,0,0:0:0:0:
196,308,30843,1,0,0:0:0:0:
16,308,31192,2,0,L|92:308,1,75,0|2,0:0|0:0,0:0:0:0:
336,312,31541,2,0,L|496:312,1,150,8|0,0:0|0:0,0:0:0:0:
136,300,32413,6,0,L|48:304,2,75,0|2|0,0:0|0:0|0:0,0:0:0:0:
228,300,32936,2,0,L|460:300,1,225,8|2,0:0|0:0,0:0:0:0:
228,300,33809,1,0,0:0:0:0:
316,300,33983,2,0,L|476:304,1,150,2|8,0:0|0:0,0:0:0:0:
256,300,34681,1,2,0:0:0:0:
36,296,35029,6,0,L|136:300,1,75,6|0,0:0|0:0,0:0:0:0:
372,304,35553,2,0,L|272:304,1,75,2|8,0:0|0:0,0:0:0:0:
476,308,36076,1,0,0:0:0:0:
392,276,36250,1,0,0:0:0:0:
308,248,36425,1,0,0:0:0:0:
80,248,36774,1,0,0:0:0:0:
168,244,36948,1,2,0:0:0:0:
256,244,37122,2,0,L|100:188,1,150,8|0,0:0|0:0,0:0:0:0:
416,244,37995,6,0,L|496:248,2,75,0|2|0,0:0|0:0|0:0,0:0:0:0:
324,240,38518,2,0,L|140:216,1,150,8|0,0:0|0:0,0:0:0:0:
264,208,39041,2,0,L|428:168,1,150,2|0,0:0|0:0,0:0:0:0:
320,164,39564,1,2,0:0:0:0:
140,164,39913,1,8,0:0:0:0:
444,160,40262,1,2,0:0:0:0:
28,160,40611,6,0,L|176:92,1,150,6|0,0:0|0:0,0:0:0:0:
256,104,41134,1,2,0:0:0:0:
348,108,41309,2,0,L|108:104,1,225,8|0,0:0|0:0,0:0:0:0:
380,136,42181,1,0,0:0:0:0:
140,128,42529,1,2,0:0:0:0:
232,124,42704,2,0,L|432:120,2,150,8|0|0,0:0|0:0|0:0,0:0:0:0:
140,128,43576,6,0,L|40:128,2,75,0|2|0,0:0|0:0|0:0,0:0:0:0:
232,124,44099,2,0,B|376:119|376:119|296:208,1,225,8|2,0:0|0:0,0:0:0:0:
120,132,45146,1,2,0:0:0:0:
348,136,45495,2,0,L|500:136,1,150,8|0,0:0|0:0,0:0:0:0:
408,136,46018,1,0,0:0:0:0:
160,132,46192,6,0,L|8:136,1,150,2|0,0:0|0:0,0:0:0:0:
264,132,46890,2,0,L|352:132,1,75,8|0,0:0|0:0,0:0:0:0:
88,132,47413,1,0,0:0:0:0:
368,136,47762,1,0,0:0:0:0:
188,136,48111,2,0,L|280:136,1,75,2|8,0:0|0:0,0:0:0:0:
352,136,48460,1,0,0:0:0:0:
172,136,48809,6,0,L|24:220,1,150,0|0,0:0|0:0,0:0:0:0:
132,216,49332,1,2,0:0:0:0:
428,220,49681,2,0,L|268:228,1,150,8|0,0:0|0:0,0:0:0:0:
368,228,50204,1,2,0:0:0:0:
160,224,50553,1,0,0:0:0:0:
72,228,50727,2,0,L|236:224,1,150,2|8,0:0|0:0,0:0:0:0:
480,224,51425,1,0,0:0:0:0:
68,244,51774,6,0,P|28:180|148:108,1,225,2|2,0:0|0:0,0:0:0:0:
216,100,52471,2,0,L|308:104,2,75,8|0|0,0:0|0:0|0:0,0:0:0:0:
124,100,52995,1,0,0:0:0:0:
304,104,53343,1,0,0:0:0:0:
484,112,53692,2,0,L|400:112,1,75,2|8,0:0|0:0,0:0:0:0:
320,108,54041,1,0,0:0:0:0:
228,104,54216,1,0,0:0:0:0:
448,112,54564,5,0,0:0:0:0:
172,112,54913,1,2,0:0:0:0:
392,112,55262,2,0,L|496:112,1,75,8|0,0:0|0:0,0:0:0:0:
208,116,55785,2,0,L|108:112,2,75,2|2|0,0:0|0:0|0:0,0:0:0:0:
300,112,56309,2,0,L|424:112,1,75,2|0,0:0|0:0,0:0:0:0:
72,120,56832,2,0,L|180:120,1,75,0|8,0:0|0:0,0:0:0:0:
460,120,57355,6,0,L|288:124,1,150,2|8,0:0|0:0,0:0:0:0:
128,128,58053,2,0,L|20:132,1,75,2|2,0:0|0:0,0:0:0:0:
304,208,58576,1,0,0:0:0:0:
484,208,58925,1,0,0:0:0:0:
216,208,59274,1,0,0:0:0:0:
436,204,59622,2,0,L|352:208,1,75,0|8,0:0|0:0,0:0:0:0:
180,212,60146,6,0,L|28:212,2,150,2|8|2,0:0|0:0|0:0,0:0:0:0:
272,212,61018,1,0,0:0:0:0:
92,216,61367,1,0,0:0:0:0:
348,212,61716,2,0,L|464:216,2,75,0|8|0,0:0|0:0|0:0,0:0:0:0:
196,208,62239,1,6,0:0:0:0:
436,212,62588,2,0,L|332:212,1,75,2|0,0:0|0:0,0:0:0:0:
52,208,62937,5,6,0:0:0:0:
232,208,63285,1,0,0:0:0:0:
412,204,63634,2,0,L|312:208,1,75,8|0,0:0|0:0,0:0:0:0:
100,200,64157,1,2,0:0:0:0:
337,206,64506,2,0,L|417:206,2,75,0|2|0,0:0|0:0|0:0,0:0:0:0:
248,204,65029,2,0,P|168:192|104:124,1,150,8|0,0:0|0:0,0:0:0:0:
416,200,65727,5,2,0:0:0:0:
239,198,66076,1,2,0:0:0:0:
327,198,66250,1,0,0:0:0:0:
416,200,66425,2,0,P|488:224|400:296,1,225,8|2,0:0|0:0,0:0:0:0:
328,308,67122,2,0,L|192:308,2,75,0|0|2,0:0|0:0|0:0,0:0:0:0:
236,308,67646,1,0,0:0:0:0:
148,308,67820,2,0,P|76:312|128:228,1,150,8|2,0:0|0:0,0:0:0:0:
484,288,68518,6,0,L|332:220,1,150,6|0,0:0|0:0,0:0:0:0:
84,244,69216,2,0,L|168:244,1,75,8|0,0:0|0:0,0:0:0:0:
376,248,69739,2,0,L|456:248,2,75,2|0|0,0:0|0:0|0:0,0:0:0:0:
284,248,70262,1,2,0:0:0:0:
32,240,70611,2,0,L|204:208,1,150,8|2,0:0|0:0,0:0:0:0:
480,240,71309,6,0,L|308:208,1,150,2|2,0:0|0:0,0:0:0:0:
244,212,71832,1,0,0:0:0:0:
156,212,72006,1,8,0:0:0:0:
244,212,72181,1,2,0:0:0:0:
448,212,72529,1,2,0:0:0:0:
84,208,73053,1,2,0:0:0:0:
264,208,73402,1,8,0:0:0:0:
32,208,73750,1,2,0:0:0:0:
472,168,74099,6,0,P|432:224|348:252,1,150,6|0,0:0|0:0,0:0:0:0:
64,252,74797,2,0,L|164:252,1,75,8|0,0:0|0:0,0:0:0:0:
392,264,75320,2,0,L|292:264,1,75,2|0,0:0|0:0,0:0:0:0:
228,260,75669,1,0,0:0:0:0:
140,260,75843,2,0,L|340:260,1,150,2|8,0:0|0:0,0:0:0:0:
470,260,76541,1,0,0:0:0:0:
164,276,76890,6,0,P|120:264|176:184,1,150,2|2,0:0|0:0,0:0:0:0:
228,176,77413,1,0,0:0:0:0:
320,176,77588,1,8,0:0:0:0:
228,176,77762,1,2,0:0:0:0:
20,188,78111,1,2,0:0:0:0:
356,192,78634,1,2,0:0:0:0:
176,192,78983,2,0,L|372:188,1,150,8|2,0:0|0:0,0:0:0:0:
56,192,79681,6,0,L|264:188,1,150,6|0,0:0|0:0,0:0:0:0:
424,200,80378,2,0,L|504:200,1,75,8|0,0:0|0:0,0:0:0:0:
216,192,80902,2,0,L|8:192,1,150,2|2,0:0|0:0,0:0:0:0:
156,192,81425,1,2,0:0:0:0:
424,196,81774,1,8,0:0:0:0:
156,192,82122,1,0,0:0:0:0:
440,196,82471,6,0,L|272:196,1,150,2|2,0:0|0:0,0:0:0:0:
380,196,82995,1,2,0:0:0:0:
468,196,83169,1,8,0:0:0:0:
380,196,83343,1,0,0:0:0:0:
160,196,83692,1,0,0:0:0:0:
380,192,84041,1,0,0:0:0:0:
468,196,84216,1,2,0:0:0:0:
380,192,84390,1,0,0:0:0:0:
292,188,84564,1,8,0:0:0:0:
56,192,84913,1,2,0:0:0:0:
504,96,85262,6,0,P|456:136|360:160,1,150,6|0,0:0|0:0,0:0:0:0:
284,164,85785,1,0,0:0:0:0:
192,164,85960,2,0,P|88:156|28:60,2,225,8|2|2,0:0|0:0|0:0,0:0:0:0:
428,56,87355,1,8,0:0:0:0:
340,60,87529,2,0,L|216:60,2,75,0|0|0,0:0|0:0|0:0,0:0:0:0:
432,64,88053,6,0,L|264:128,1,150,2|2,0:0|0:0,0:0:0:0:
200,124,88576,1,0,0:0:0:0:
112,128,88750,2,0,L|272:156,1,150,8|0,0:0|0:0,0:0:0:0:
352,156,89274,1,2,0:0:0:0:
56,168,89622,2,0,L|136:168,1,75,2|2,0:0|0:0,0:0:0:0:
412,184,90146,1,8,0:0:0:0:
168,184,90495,2,0,L|48:184,1,75,2|0,0:0|0:0,0:0:0:0:
336,184,90843,6,0,L|504:184,1,150,6|0,0:0|0:0,0:0:0:0:
396,180,91367,1,0,0:0:0:0:
308,180,91541,1,8,0:0:0:0:
32,180,92064,1,2,0:0:0:0:
212,184,92413,2,0,L|112:180,1,75,2|2,0:0|0:0,0:0:0:0:
348,188,92936,2,0,L|480:188,1,75,8|0,0:0|0:0,0:0:0:0:
512,188,93285,2,0,L|416:192,1,75,0|0,0:0|0:0,0:0:0:0:
348,188,93634,6,0,L|148:184,2,150,2|2|8,0:0|0:0|0:0,0:0:0:0:
440,188,94506,1,0,0:0:0:0:
348,188,94681,1,2,0:0:0:0:
172,156,95029,1,2,0:0:0:0:
172,216,95146,1,2,0:0:0:0:
216,256,95262,1,2,0:0:0:0:
276,264,95378,1,2,0:0:0:0:
336,264,95495,1,2,0:0:0:0:
396,264,95611,1,0,0:0:0:0:
460,152,95727,2,0,B|524:84|452:8,1,150,8|0,0:0|0:0,0:0:0:0:
44,40,96425,6,0,P|28:112|84:168,1,150,6|0,0:0|0:0,0:0:0:0:
164,164,96948,1,0,0:0:0:0:
252,164,97122,2,0,L|496:160,1,225,8|2,0:0|0:0,0:0:0:0:
240,160,97995,2,0,L|128:160,1,75,2|2,0:0|0:0,0:0:0:0:
416,160,98518,1,8,0:0:0:0:
328,160,98692,2,0,L|228:160,2,75,0|0|0,0:0|0:0|0:0,0:0:0:0:
420,160,99216,6,0,L|256:240,1,150,2|2,0:0|0:0,0:0:0:0:
48,216,99913,1,8,0:0:0:0:
292,216,100262,2,0,L|424:220,1,75,0|2,0:0|0:0,0:0:0:0:
456,224,100611,2,0,L|304:224,2,150,0|2|8,0:0|0:0|0:0,0:0:0:0:
364,224,101483,1,0,0:0:0:0:
276,228,101657,1,0,0:0:0:0:
40,232,102006,5,6,0:0:0:0:
192,228,102297,1,0,0:0:0:0:
312,228,102529,1,0,0:0:0:0:
220,228,102704,1,8,0:0:0:0:
488,236,103227,2,0,L|404:240,1,75,2|0,0:0|0:0,0:0:0:0:
324,240,103576,2,0,L|412:240,2,75,0|2|0,0:0|0:0|0:0,0:0:0:0:
232,240,104099,2,0,L|56:164,1,150,8|0,0:0|0:0,0:0:0:0:
184,184,104622,1,0,0:0:0:0:
276,180,104797,6,0,B|364:148|364:148|256:112,1,150,2|2,0:0|0:0,0:0:0:0:
64,176,105495,1,8,0:0:0:0:
64,264,105669,1,2,0:0:0:0:
344,260,106018,6,0,B|500:212|500:212|276:212,1,375,2|12,0:0|0:0,0:0:0:0:
68,192,107588,5,4,0:0:0:0:
256,192,115262,12,0,118402,0:0:0:0:
256,192,118750,5,6,0:0:0:0:
104,192,119274,2,0,L|4:192,2,75,2|8|0,0:0|0:0|0:0,0:0:0:0:
196,196,119797,1,0,0:0:0:0:
284,196,119971,2,0,L|472:200,2,150,0|0|2,0:0|0:0|0:0,0:0:0:0:
192,200,120843,1,8,0:0:0:0:
284,200,121018,1,0,0:0:0:0:
372,204,121192,1,0,0:0:0:0:
100,204,121716,6,0,L|8:204,2,75,0|2|0,0:0|0:0|0:0,0:0:0:0:
192,204,122239,2,0,L|388:128,1,150,8|0,0:0|0:0,0:0:0:0:
228,112,122762,2,0,L|64:112,1,150,2|0,0:0|0:0,0:0:0:0:
168,112,123285,1,2,0:0:0:0:
348,112,123634,1,8,0:0:0:0:
28,108,123983,2,0,L|120:108,1,75,0|0,0:0|0:0,0:0:0:0:
344,96,124332,6,0,L|504:156,1,150,2|0,0:0|0:0,0:0:0:0:
308,172,125029,2,0,L|392:172,1,75,8|0,0:0|0:0,0:0:0:0:
188,184,125553,2,0,L|16:212,1,150,0|0,0:0|0:0,0:0:0:0:
320,200,126250,2,0,L|440:196,2,75,2|8|0,0:0|0:0|0:0,0:0:0:0:
64,196,126948,2,0,L|264:160,1,150,0|0,0:0|0:0,0:0:0:0:
300,168,127471,5,2,0:0:0:0:
208,168,127646,1,0,0:0:0:0:
120,168,127820,1,8,0:0:0:0:
388,164,128343,2,0,L|144:168,1,225,2|2,0:0|0:0,0:0:0:0:
416,160,129216,1,8,0:0:0:0:
504,160,129390,1,0,0:0:0:0:
416,160,129564,1,0,0:0:0:0:
324,156,129739,1,0,0:0:0:0:
80,180,129913,6,0,P|16:112|132:56,1,225,2|2,0:0|0:0,0:0:0:0:
188,44,130611,1,8,0:0:0:0:
416,48,130960,1,0,0:0:0:0:
328,52,131134,2,0,L|500:48,2,150,0|0|2,0:0|0:0|0:0,0:0:0:0:
160,48,132006,1,8,0:0:0:0:
448,112,132355,1,0,0:0:0:0:
104,96,132878,6,0,L|8:96,2,75,0|2|0,0:0|0:0|0:0,0:0:0:0:
196,96,133402,2,0,L|484:92,1,225,8|2,0:0|0:0,0:0:0:0:
76,96,134448,1,2,0:0:0:0:
296,100,134797,2,0,L|140:100,1,150,8|0,0:0|0:0,0:0:0:0:
56,104,135320,1,0,0:0:0:0:
200,104,135495,6,0,L|400:104,1,150,2|0,0:0|0:0,0:0:0:0:
168,108,136192,1,8,0:0:0:0:
168,200,136367,1,0,0:0:0:0:
348,192,136716,2,0,L|192:192,1,150,0|0,0:0|0:0,0:0:0:0:
412,192,137413,2,0,L|487:192,2,75,2|8|0,0:0|0:0|0:0,0:0:0:0:
136,188,138111,6,0,L|296:188,1,150,0|0,0:0|0:0,0:0:0:0:
376,188,138634,1,2,0:0:0:0:
72,176,138983,1,8,0:0:0:0:
160,176,139157,1,0,0:0:0:0:
252,172,139332,1,0,0:0:0:0:
340,176,139506,2,0,P|203:158|128:104,1,225,2|2,0:0|0:0,0:0:0:0:
352,120,140378,1,8,0:0:0:0:
76,132,140727,1,0,0:0:0:0:
168,132,140902,1,0,0:0:0:0:
408,132,141076,5,6,0:0:0:0:
256,192,152239,5,2,0:0:0:0:
460,192,152762,2,0,L|384:192,1,75,2|8,0:0|0:0,0:0:0:0:
104,196,153634,1,0,0:0:0:0:
284,196,153983,1,2,0:0:0:0:
464,196,154332,2,0,L|304:196,1,150,8|0,0:0|0:0,0:0:0:0:
88,196,155029,6,0,L|292:196,1,150,2|2,0:0|0:0,0:0:0:0:
420,192,155727,1,8,0:0:0:0:
240,188,156076,1,2,0:0:0:0:
480,192,156425,1,2,0:0:0:0:
392,192,156599,1,2,0:0:0:0:
300,192,156774,1,2,0:0:0:0:
72,192,157122,2,0,L|236:192,1,150,8|2,0:0|0:0,0:0:0:0:
420,188,157820,6,0,L|292:188,1,75,2|0,0:0|0:0,0:0:0:0:
256,188,158169,2,0,L|444:192,1,150,8|2,0:0|0:0,0:0:0:0:
124,192,158867,1,8,0:0:0:0:
304,192,159216,2,0,L|432:192,1,75,2|0,0:0|0:0,0:0:0:0:
468,192,159565,2,0,L|280:196,1,150,8|2,0:0|0:0,0:0:0:0:
88,192,160263,1,8,0:0:0:0:
318,195,160611,6,0,L|454:195,1,100,8|0,0:0|0:0,0:0:0:0:
480,196,160960,1,8,0:0:0:0:
418,195,161076,1,0,0:0:0:0:
360,196,161192,1,0,0:0:0:0:
216,196,161309,1,8,0:0:0:0:
156,196,161425,1,0,0:0:0:0:
96,196,161541,1,0,0:0:0:0:
156,196,161657,1,8,0:0:0:0:
216,196,161774,1,0,0:0:0:0:
418,195,162006,5,10,0:0:0:0:
358,199,162122,2,0,L|254:199,1,100,0|10,0:0|0:0,0:0:0:0:
20,196,162704,1,6,0:0:0:0:
192,192,163053,2,0,L|100:192,1,75,0|0,0:0|0:0,0:0:0:0:
356,192,163402,6,0,P|452:184|492:144,1,150,6|0,0:0|0:0,0:0:0:0:
240,188,164099,1,8,0:0:0:0:
148,188,164274,2,0,L|304:184,1,150,0|2,0:0|0:0,0:0:0:0:
48,188,164971,2,0,L|144:188,1,75,0|2,0:0|0:0,0:0:0:0:
316,192,165495,2,0,L|484:192,1,150,8|0,0:0|0:0,0:0:0:0:
168,196,166192,6,0,P|64:204|24:180,2,150,2|2|8,0:0|0:0|0:0,0:0:0:0:
260,192,167064,2,0,L|416:192,1,150,0|2,0:0|0:0,0:0:0:0:
320,192,167588,1,0,0:0:0:0:
232,192,167762,1,0,0:0:0:0:
144,192,167936,1,2,0:0:0:0:
232,192,168111,1,0,0:0:0:0:
320,192,168285,2,0,L|476:192,1,150,8|2,0:0|0:0,0:0:0:0:
48,192,168983,5,6,0:0:0:0:
296,192,169332,1,0,0:0:0:0:
116,188,169681,2,0,L|208:188,1,75,8|0,0:0|0:0,0:0:0:0:
468,184,170204,1,2,0:0:0:0:
292,148,170553,1,0,0:0:0:0:
204,148,170727,1,2,0:0:0:0:
112,148,170902,1,0,0:0:0:0:
24,152,171076,2,0,L|180:152,1,150,8|0,0:0|0:0,0:0:0:0:
504,176,171774,6,0,L|352:176,1,150,2|2,0:0|0:0,0:0:0:0:
444,176,172297,1,0,0:0:0:0:
148,176,172471,1,8,0:0:0:0:
56,176,172646,1,0,0:0:0:0:
148,176,172820,1,0,0:0:0:0:
240,176,172995,2,0,L|476:176,1,225,2|2,0:0|0:0,0:0:0:0:
196,188,173867,1,8,0:0:0:0:
452,188,174216,1,0,0:0:0:0:
40,200,174564,6,0,L|208:200,1,150,6|0,0:0|0:0,0:0:0:0:
440,184,175262,1,8,0:0:0:0:
352,184,175436,2,0,L|192:184,1,150,0|2,0:0|0:0,0:0:0:0:
408,184,176134,2,0,L|512:184,1,75,0|2,0:0|0:0,0:0:0:0:
256,184,176657,2,0,L|96:184,1,150,8|0,0:0|0:0,0:0:0:0:
420,72,177355,6,0,L|260:72,1,150,2|2,0:0|0:0,0:0:0:0:
180,72,177878,1,0,0:0:0:0:
88,72,178053,2,0,L|316:72,2,225,8|2|2,0:0|0:0|0:0,0:0:0:0:
268,72,179448,1,8,0:0:0:0:
448,72,179797,1,2,0:0:0:0:
36,64,180146,6,0,P|84:124|184:120,1,150,6|0,0:0|0:0,0:0:0:0:
448,64,180843,1,8,0:0:0:0:
360,64,181018,2,0,L|207:64,1,150,0|2,0:0|0:0,0:0:0:0:
28,60,181716,2,0,L|112:60,1,75,0|2,0:0|0:0,0:0:0:0:
368,64,182239,2,0,L|212:64,1,150,8|0,0:0|0:0,0:0:0:0:
488,68,182936,6,0,L|332:68,1,150,2|2,0:0|0:0,0:0:0:0:
248,68,183460,1,0,0:0:0:0:
338,68,183634,1,8,0:0:0:0:
428,68,183809,1,0,0:0:0:0:
228,64,184157,1,0,0:0:0:0:
136,64,184332,2,0,L|316:64,1,150,0|0,0:0|0:0,0:0:0:0:
8,56,185029,2,0,L|157:56,1,150,8|0,0:0|0:0,0:0:0:0:
260,60,185553,1,0,0:0:0:0:
512,64,185727,6,0,L|336:64,1,150,6|2,0:0|0:0,0:0:0:0:
260,60,186250,1,0,0:0:0:0:
168,56,186425,2,0,L|264:56,1,75,8|2,0:0|0:0,0:0:0:0:
36,60,186948,1,2,0:0:0:0:
448,236,187297,1,0,0:0:0:0:
360,236,187471,2,0,L|200:236,1,150,2|8,0:0|0:0,0:0:0:0:
28,228,188169,1,0,0:0:0:0:
332,224,188518,6,0,L|164:224,1,150,2|2,0:0|0:0,0:0:0:0:
228,220,188954,1,0,0:0:0:0:
272,216,189041,1,0,0:0:0:0:
364,220,189216,1,8,0:0:0:0:
144,224,189564,1,2,0:0:0:0:
236,224,189739,2,0,L|388:224,1,150,2|0,0:0|0:0,0:0:0:0:
476,224,190262,1,2,0:0:0:0:
296,224,190611,2,0,L|464:224,1,150,8|2,0:0|0:0,0:0:0:0:
356,220,191134,1,0,0:0:0:0:
120,216,191309,6,0,P|48:192|24:120,2,150,6|2|8,0:0|0:0|0:0,0:0:0:0:
360,216,192355,1,0,0:0:0:0:
128,216,192704,1,0,0:0:0:0:
40,216,192878,1,0,0:0:0:0:
128,216,193053,1,2,0:0:0:0:
308,224,193402,2,0,L|383:224,1,75,8|0,0:0|0:0,0:0:0:0:
472,220,193750,1,0,0:0:0:0:
428,220,193838,1,0,0:0:0:0:
384,220,193925,1,0,0:0:0:0:
128,132,194099,6,0,P|32:128|8:80,2,150,2|2|2,0:0|0:0|0:0,0:0:0:0:
400,132,195146,1,2,0:0:0:0:
128,128,195495,2,0,L|60:128,2,59.9999981689454,2|2|2,0:0|0:0|0:0,0:0:0:0:
200,128,195843,2,0,L|276:128,2,59.9999981689454,2|2|2,0:0|0:0|0:0,0:0:0:0:
128,128,196192,2,0,B|44:128|-28:164|132:248,1,225,8|0,0:0|0:0,0:0:0:0:
384,236,196890,6,0,P|460:228|508:144,1,150,6|2,0:0|0:0,0:0:0:0:
412,172,197413,1,0,0:0:0:0:
176,240,197588,2,0,L|24:240,1,150,8|2,0:0|0:0,0:0:0:0:
124,240,198111,2,0,L|288:240,1,150,2|0,0:0|0:0,0:0:0:0:
184,240,198634,2,0,L|109:240,1,75,2|0,0:0|0:0,0:0:0:0:
400,244,198983,1,8,0:0:0:0:
220,240,199332,1,0,0:0:0:0:
24,240,199681,6,0,L|182:240,1,150,2|2,0:0|0:0,0:0:0:0:
248,240,200204,1,0,0:0:0:0:
8,240,200378,1,8,0:0:0:0:
228,232,200727,1,0,0:0:0:0:
428,240,201076,2,0,L|504:240,2,75,0|0|2,0:0|0:0|0:0,0:0:0:0:
320,240,201599,1,0,0:0:0:0:
68,248,201774,2,0,L|188:148,1,150,8|2,0:0|0:0,0:0:0:0:
272,152,202297,1,2,0:0:0:0:
360,156,202471,6,0,P|440:168|496:124,1,150,2|8,0:0|0:0,0:0:0:0:
324,228,202995,2,0,L|480:228,1,150,2|8,0:0|0:0,0:0:0:0:
384,228,203518,2,0,L|208:228,1,150,2|8,0:0|0:0,0:0:0:0:
143,230,204041,2,0,L|299:230,1,150,2|2,0:0|0:0,0:0:0:0:
324,228,204448,1,2,0:0:0:0:
384,228,204564,2,0,L|248:232,1,75,8|2,0:0|0:0,0:0:0:0:
220,232,204913,1,2,0:0:0:0:
309,230,205088,1,2,0:0:0:0:
400,224,205262,6,0,P|460:200|504:104,2,150,2|2|2,0:0|0:0|0:0,0:0:0:0:
308,224,206134,1,2,0:0:0:0:
400,224,206309,1,2,0:0:0:0:
136,268,206483,2,0,P|72:232|216:52,1,375,2|12,0:0|0:0,0:0:0:0:
368,48,207704,1,0,0:0:0:0:
256,192,208053,12,0,212936,0:0:0:0:
312,364,213634,6,0,P|400:340|196:316,1,900,2|0,0:0|0:0,0:0:0:0:
196,352,216425,6,0,P|324:356|120:284,1,900,2|0,0:0|0:0,0:0:0:0:
264,360,219216,6,0,P|108:336|384:232,1,900,2|0,0:0|0:0,0:0:0:0:
272,368,221832,1,2,0:0:0:0:
360,372,222006,6,0,P|440:304|96:268,1,900,2|0,0:0|0:0,0:0:0:0:
396,184,224797,6,0,B|20:80|20:80|364:296|496:192,1,900,2|0,0:0|0:0,0:0:0:0:
256,192,227588,12,0,233518,0:0:0:0:
