osu file format v14

[General]
AudioFilename: audio.mp3
AudioLeadIn: 0
PreviewTime: 15459
Countdown: 1
SampleSet: Normal
StackLeniency: 0.7
Mode: 0
LetterboxInBreaks: 0
WidescreenStoryboard: 0

[Editor]
DistanceSpacing: 1
BeatDivisor: 4
GridSize: 32
TimelineZoom: 1.9

[Metadata]
Title:Milky Ways
TitleUnicode:Milky Ways
Artist:Bossfight
ArtistUnicode:Bossfight
Creator:wolfysoulwolf
Version:Normal
Source:
Tags:
BeatmapID:1767913
BeatmapSetID:845173

[Difficulty]
HPDrainRate:4
CircleSize:3.4
OverallDifficulty:4.7
ApproachRate:5
SliderMultiplier:1.1
SliderTickRate:1

[Events]
//Background and Video events
0,0,"maxresdefault.jpg",0,0
//Break Periods
2,57298,68358
//Storyboard Layer 0 (Background)
//Storyboard Layer 1 (Fail)
//Storyboard Layer 2 (Pass)
//Storyboard Layer 3 (Foreground)
//Storyboard Sound Samples

[TimingPoints]
50,327.868852459016,4,1,0,100,1,0
15787,-100,4,1,0,100,0,1
36771,-100,4,1,0,100,0,0
80049,-100,4,1,0,100,0,1
101033,-100,4,1,0,100,0,0
158738,-100,4,1,0,100,0,1
179722,-100,4,1,0,100,0,0

[Colours]
Combo1 : 255,0,0
Combo2 : 170,74,181
Combo3 : 241,27,171
Combo4 : 0,128,192

[HitObjects]
59,68,5295,6,0,L|179:50,1,110
106,143,5951,2,0,L|226:125,1,110
319,90,6607,2,0,P|339:65|423:58,1,110
474,144,7263,1,0,0:0:0:0:
396,221,7590,1,0,0:0:0:0:
396,221,7918,6,0,L|360:330,1,110
251,324,8574,2,0,P|201:339|134:323,1,110
54,265,9230,2,0,B|23:175|23:175|39:151,2,110
144,327,10213,1,0,0:0:0:0:
130,217,10541,6,0,L|107:101,1,110
206,57,11197,2,0,L|326:28,1,110
386,113,11853,2,0,P|422:127|477:90,3,110
385,28,13164,6,0,P|326:56|302:98,1,110
370,180,13820,2,0,L|393:290,1,110
285,313,14476,2,0,L|217:314,2,55
203,238,15131,2,0,P|165:260|150:288,3,55
140,320,15787,5,0,0:0:0:0:
49,256,16115,1,0,0:0:0:0:
101,159,16443,2,0,P|143:162|213:62,1,165
169,42,17099,5,0,0:0:0:0:
169,42,17427,1,0,0:0:0:0:
278,43,17754,2,0,B|341:64|341:64|378:43|378:43|437:58,1,165
458,105,18410,5,0,0:0:0:0:
495,208,18738,2,0,B|520:268|520:268|489:326,2,110
442,191,19558,1,0,0:0:0:0:
387,192,19722,2,0,P|349:216|295:210,2,82.5
416,145,20377,2,0,P|465:109|480:52,1,110
394,56,21033,6,0,P|338:41|272:70,1,110
208,131,21689,2,0,P|152:146|86:117,1,110
23,54,22345,1,0,0:0:0:0:
43,272,23000,2,0,P|77:309|139:314,1,110
188,306,23492,6,0,B|256:330|256:330|297:307,1,110
325,269,23984,1,0,0:0:0:0:
402,346,24312,1,0,0:0:0:0:
479,268,24640,1,0,0:0:0:0:
433,168,24968,2,0,P|463:122|459:80,2,82.5
378,173,25623,2,0,L|268:108,1,110
191,55,26279,5,0,0:0:0:0:
191,55,26607,1,0,0:0:0:0:
191,55,26935,2,0,P|122:85|117:176,1,165
151,205,27590,1,0,0:0:0:0:
151,205,27918,1,0,0:0:0:0:
151,205,28246,2,0,B|120:260|68:263|68:263|108:316,1,165
158,317,28902,6,0,B|206:316|253:353|253:353|301:311|367:317,1,220
449,251,29886,1,0,0:0:0:0:
402,151,30213,2,0,P|356:155|327:176,2,82.5
448,121,30869,1,0,0:0:0:0:
367,45,31197,1,0,0:0:0:0:
265,87,31525,6,0,L|157:129,1,110
261,176,32181,2,0,L|153:218,1,110
84,296,32836,1,0,0:0:0:0:
187,332,33164,1,0,0:0:0:0:
187,332,33492,2,0,P|216:349|287:326,1,110
331,299,33984,2,0,B|390:346|390:346|446:346,1,110
468,312,34476,1,0,0:0:0:0:
468,201,34804,1,0,0:0:0:0:
468,91,35131,1,0,0:0:0:0:
364,54,35459,6,0,P|327:43|274:55,2,82.5
377,107,36115,1,0,0:0:0:0:
163,53,36771,6,0,P|115:79|53:63,1,110
42,177,37427,2,0,L|82:292,1,110
176,329,38082,2,0,B|240:344|240:344|294:324,1,110
232,229,38738,2,0,B|296:214|296:214|350:234,1,110
418,304,39394,1,0,0:0:0:0:
418,304,39722,5,0,0:0:0:0:
476,211,40049,2,0,P|485:175|455:92,1,110
371,49,40705,2,0,L|257:98,1,110
206,182,41361,2,0,P|171:148|169:75,1,110
55,70,42017,6,0,P|53:140|135:266,1,220
215,333,43000,1,0,0:0:0:0:
321,307,43328,2,0,B|383:335|383:335|434:312,1,110
458,213,43984,2,0,L|477:97,1,110
380,48,44640,2,0,P|345:34|261:58,3,110
217,140,45951,2,0,P|177:159|99:126,3,110
47,56,47263,5,0,0:0:0:0:
38,275,47918,2,0,P|69:309|134:306,1,110
231,266,48574,1,0,0:0:0:0:
327,318,48902,1,0,0:0:0:0:
426,269,49230,2,0,P|448:227|430:156,1,110
399,127,49722,1,0,0:0:0:0:
258,41,50213,5,0,0:0:0:0:
157,85,50541,2,0,B|96:102|96:102|75:168,1,110
66,255,51197,2,0,P|96:309|154:316,1,110
250,319,51853,2,0,B|316:354|380:276|464:330,1,220
445,109,53164,6,0,P|410:47|359:51,1,110
274,83,53820,2,0,P|234:102|169:79,1,110
100,166,54476,2,0,B|35:233|35:233|35:273,1,110
62,297,54968,2,0,B|102:320|102:320|234:321,1,165
298,243,55787,1,0,0:0:0:0:
375,320,56115,1,0,0:0:0:0:
451,241,56443,2,0,B|483:125|483:125|412:41,1,220
105,56,69558,6,0,P|75:85|75:172,1,110
174,136,70213,2,0,L|286:177,1,110
355,95,70869,1,0,0:0:0:0:
432,172,71197,1,0,0:0:0:0:
509,94,71525,1,0,0:0:0:0:
432,172,71853,1,0,0:0:0:0:
415,280,72181,6,0,P|376:324|315:323,1,110
242,258,72836,2,0,L|134:228,1,110
50,158,73492,2,0,P|39:107|75:39,3,110
150,117,74804,6,0,L|267:117,1,110
185,198,75459,2,0,L|302:198,1,110
373,276,76115,1,0,0:0:0:0:
450,198,76443,1,0,0:0:0:0:
397,101,76771,2,0,P|365:73|280:62,1,110
215,128,77427,6,0,P|140:162|108:153,1,110
42,238,78082,2,0,B|32:304|32:304|89:335,1,110
180,326,78738,2,0,L|249:329,3,55
266,283,79394,2,0,L|328:271,2,55
167,234,80049,5,0,0:0:0:0:
81,165,80377,1,0,0:0:0:0:
151,80,80705,2,0,P|203:53|305:66,1,165
346,102,81361,6,0,P|398:121|462:89,1,110
486,206,82017,2,0,B|471:288|471:288|428:266|384:312,1,165
351,333,82672,5,0,0:0:0:0:
243,310,83000,2,0,P|214:292|138:318,2,110
230,200,83984,2,0,P|176:193|136:207,2,82.5
277,172,84640,2,0,L|344:75,1,110
439,35,85295,5,0,0:0:0:0:
485,134,85623,2,0,B|483:181|483:181|450:185|450:185|450:235,1,110
395,310,86279,1,0,0:0:0:0:
286,330,86607,2,0,B|213:349|213:349|123:322,1,165
116,268,87263,1,0,0:0:0:0:
151,164,87590,1,0,0:0:0:0:
42,147,87918,6,0,P|61:78|111:50,1,110
198,73,88574,2,0,B|259:88|259:88|327:67,1,110
414,70,89230,2,0,P|459:83|483:135,2,82.5
377,111,89886,1,0,0:0:0:0:
377,220,90213,1,0,0:0:0:0:
377,330,90541,5,0,0:0:0:0:
270,300,90869,2,0,P|223:288|166:329,1,110
63,334,91525,2,0,L|39:215,1,110
94,129,92181,1,0,0:0:0:0:
176,55,92509,2,0,P|235:41|287:49,1,110
380,99,93164,1,0,0:0:0:0:
448,184,93492,6,0,P|490:122|484:74,2,110
364,255,94476,2,0,L|406:326,2,82.5
310,244,95131,2,0,P|216:246|184:262,1,110
120,325,95787,5,0,0:0:0:0:
58,233,96115,2,0,B|28:185|28:185|37:118,2,110
146,166,97099,1,0,0:0:0:0:
325,39,97590,1,0,0:0:0:0:
325,39,97754,2,0,P|389:43|440:88,1,110
426,123,98246,2,0,L|416:242,1,110
379,273,98738,1,0,0:0:0:0:
280,321,99066,1,0,0:0:0:0:
178,279,99394,1,0,0:0:0:0:
102,198,99722,6,0,P|68:157|69:109,2,82.5
154,182,100377,1,0,0:0:0:0:
