osu file format v14

[General]
AudioFilename: audio.mp3
AudioLeadIn: 0
PreviewTime: 14586
Countdown: 0
SampleSet: Soft
StackLeniency: 0.7
Mode: 3
LetterboxInBreaks: 0
SpecialStyle: 0
WidescreenStoryboard: 1

[Editor]
Bookmarks: 15907,36891,47383,57874,77547,80170,101153,111645,132629,137874,148366,158858
DistanceSpacing: 1.3
BeatDivisor: 4
GridSize: 32
TimelineZoom: 1.7

[Metadata]
Title:Milky Ways
TitleUnicode:Milky Ways
Artist:Bossfight
ArtistUnicode:Bᛝssfight
Creator:Bumpy Cone
Version:Cosmic Web | Hard
Source:
Tags:Caps On, Hats Off chiptune video game instrumental electronic bitpop fakebit 8bit glitchhop fa featured artist Shad0wStar Erik Sjöstrand Sjostrand Sjoestrand Bossfightswe Record Union Speed Run 4 Open Hexagon Just Shapes & Beats And JSaB
BeatmapID:3731957
BeatmapSetID:1818929

[Difficulty]
HPDrainRate:7
CircleSize:4
OverallDifficulty:7.5
ApproachRate:5
SliderMultiplier:1.4
SliderTickRate:1

[Events]
//Background and Video events
0,0,"milky_ways.jpg",0,0
//Break Periods
//Storyboard Layer 0 (Background)
//Storyboard Layer 1 (Fail)
//Storyboard Layer 2 (Pass)
//Storyboard Layer 3 (Foreground)
//Storyboard Layer 4 (Overlay)
//Storyboard Sound Samples
Sample,15579,0,"low_tom.wav",40
Sample,16235,0,"crash.wav",40
Sample,16235,0,"LR_NBell_B4.wav",70
Sample,17547,0,"LR_NBell_E5.wav",70
Sample,18858,0,"LR_NBell_F#5.wav",70
Sample,19514,0,"LR_NBell_F#5.wav",70
Sample,21481,0,"LR_NBell_B5.wav",70
Sample,22137,0,"LR_NBell_E6.wav",70
Sample,24104,0,"LR_NBell_F#6.wav",70
Sample,24760,0,"LR_NBell_F#6.wav",70
Sample,26727,0,"LR_NBell_B4.wav",70
Sample,26727,0,"crash.wav",40
Sample,28038,0,"LR_NBell_E5.wav",70
Sample,29350,0,"LR_NBell_F#5.wav",70
Sample,30006,0,"LR_NBell_F#5.wav",70
Sample,31973,0,"LR_NBell_B5.wav",70
Sample,32629,0,"LR_NBell_E6.wav",70
Sample,34596,0,"LR_NBell_F#6.wav",70
Sample,35251,0,"LR_NBell_F#6.wav",70
Sample,35579,0,"LR_NBell_F#6.wav",70
Sample,35825,0,"LR_NBell_G6.wav",70
Sample,36071,0,"LR_NBell_A6.wav",70
Sample,36235,0,"LR_NBell_B6.wav",70
Sample,37219,0,"crash.wav",40
Sample,47710,0,"crash.wav",40
Sample,52301,0,"LR_NBell_E6.wav",70
Sample,79596,0,"mid_tom.wav",40
Sample,79678,0,"snaer.wav",40
Sample,79678,0,"high_tom.wav",40
Sample,79760,0,"mid_tom.wav",40
Sample,79842,0,"high_tom.wav",40
Sample,79842,0,"snaer.wav",40
Sample,79924,0,"mid_tom.wav",40
Sample,80006,0,"snaer.wav",40
Sample,80006,0,"low_tom.wav",40
Sample,80088,0,"mid_tom.wav",40
Sample,80497,0,"LR_NBell_B4.wav",70
Sample,80497,0,"crash.wav",40
Sample,81809,0,"LR_NBell_E5.wav",70
Sample,83120,0,"LR_NBell_F#5.wav",70
Sample,83776,0,"LR_NBell_F#5.wav",70
Sample,85743,0,"LR_NBell_B5.wav",70
Sample,86399,0,"LR_NBell_E6.wav",70
Sample,88366,0,"LR_NBell_F#6.wav",70
Sample,89022,0,"LR_NBell_F#6.wav",70
Sample,90989,0,"crash.wav",40
Sample,90989,0,"LR_NBell_B4.wav",70
Sample,92301,0,"LR_NBell_E5.wav",70
Sample,93612,0,"LR_NBell_F#5.wav",70
Sample,94268,0,"LR_NBell_F#5.wav",70
Sample,96235,0,"LR_NBell_B5.wav",70
Sample,96891,0,"LR_NBell_E6.wav",70
Sample,98858,0,"LR_NBell_F#6.wav",70
Sample,99514,0,"LR_NBell_F#6.wav",70
Sample,99842,0,"LR_NBell_F#6.wav",70
Sample,100088,0,"LR_NBell_G6.wav",70
Sample,100333,0,"LR_NBell_A6.wav",70
Sample,100497,0,"LR_NBell_B6.wav",70
Sample,101153,0,"LR_NBell_G4.wav",70
Sample,101153,0,"LR_NBell_B4.wav",70
Sample,103776,0,"LR_NBell_E4.wav",70
Sample,105088,0,"LR_NBell_C4.wav",70
Sample,106399,0,"LR_NBell_G4.wav",70
Sample,148694,0,"crash.wav",40
Sample,149350,0,"LR_NBell_G5.wav",70
Sample,150661,0,"LR_NBell_B5.wav",70
Sample,151973,0,"LR_NBell_F#5.wav",70
Sample,152629,0,"LR_NBell_B5.wav",70
Sample,153284,0,"LR_NBell_F#6.wav",70
Sample,154596,0,"LR_NBell_E6.wav",70
Sample,155251,0,"LR_NBell_E6.wav",70
Sample,155907,0,"LR_NBell_G6.wav",70
Sample,159186,0,"LR_NBell_B4.wav",70
Sample,159186,0,"crash.wav",40
Sample,160497,0,"LR_NBell_E5.wav",70
Sample,161809,0,"LR_NBell_F#5.wav",70
Sample,162465,0,"LR_NBell_F#5.wav",70
Sample,164432,0,"LR_NBell_B5.wav",70
Sample,165088,0,"LR_NBell_E6.wav",70
Sample,167055,0,"LR_NBell_F#6.wav",70
Sample,167710,0,"LR_NBell_F#6.wav",70
Sample,169678,0,"crash.wav",40
Sample,169678,0,"LR_NBell_B4.wav",70
Sample,170989,0,"LR_NBell_E5.wav",70
Sample,172301,0,"LR_NBell_F#5.wav",70
Sample,172956,0,"LR_NBell_F#5.wav",70
Sample,174924,0,"LR_NBell_B5.wav",70
Sample,175579,0,"LR_NBell_E6.wav",70
Sample,177547,0,"LR_NBell_F#6.wav",70
Sample,178202,0,"LR_NBell_F#6.wav",70
Sample,178530,0,"LR_NBell_F#6.wav",70
Sample,178776,0,"LR_NBell_G6.wav",70
Sample,179022,0,"LR_NBell_A6.wav",70
Sample,179186,0,"LR_NBell_B6.wav",70
Sample,179514,0,"LR_NBell_D#6.wav",70
Sample,179514,0,"LR_NBell_D#5.wav",70
Sample,179842,0,"LR_NBell_E6.wav",70
Sample,179842,0,"LR_NBell_E5.wav",70

[TimingPoints]
170,327.868852459017,4,2,1,36,1,0
15907,-100,4,2,1,36,0,1
36891,-100,4,2,1,36,0,0
80170,-100,4,2,1,36,0,1
101153,-100,4,2,1,36,0,0
158858,-100,4,2,1,36,0,1
180825,-100,4,2,1,36,0,0

[HitObjects]
64,192,170,5,0,0:0:0:0:
320,192,333,1,0,0:0:0:0:
448,192,497,1,0,0:0:0:0:
192,192,661,1,0,0:0:0:0:
320,192,825,1,0,0:0:0:0:
64,192,989,1,0,0:0:0:0:
448,192,1153,1,0,0:0:0:0:
64,192,1317,1,0,0:0:0:0:
320,192,1481,1,0,0:0:0:0:
192,192,1645,1,0,0:0:0:0:
320,192,1809,1,0,0:0:0:0:
448,192,1973,1,0,0:0:0:0:
64,192,2137,1,0,0:0:0:0:
320,192,2301,1,0,0:0:0:0:
192,192,2465,1,0,0:0:0:0:
448,192,2629,1,0,0:0:0:0:
64,192,2792,1,0,0:0:0:0:
320,192,2956,1,0,0:0:0:0:
448,192,3120,1,0,0:0:0:0:
192,192,3284,1,0,0:0:0:0:
320,192,3448,1,0,0:0:0:0:
64,192,3612,1,0,0:0:0:0:
448,192,3776,1,0,0:0:0:0:
64,192,3940,1,0,0:0:0:0:
320,192,4104,1,0,0:0:0:0:
192,192,4268,1,0,0:0:0:0:
320,192,4432,1,0,0:0:0:0:
448,192,4596,1,0,0:0:0:0:
192,192,4760,1,0,0:0:0:0:
320,192,4924,1,0,0:0:0:0:
64,192,5088,1,0,0:0:0:0:
320,192,5251,1,0,0:0:0:40:kick.wav
448,192,5251,1,0,0:0:0:0:
64,192,5415,1,0,0:0:0:40:kick.wav
192,192,5415,1,0,0:0:0:0:
320,192,5579,1,0,0:0:0:0:
64,192,5743,1,0,0:0:0:40:kick.wav
448,192,5743,1,0,0:0:0:0:
192,192,5907,1,0,0:0:0:0:
320,192,6071,1,0,0:0:0:40:kick.wav
448,192,6071,1,0,0:0:0:0:
64,192,6235,1,0,0:0:0:0:
192,192,6399,1,0,0:0:0:40:kick.wav
448,192,6399,1,0,0:0:0:0:
64,192,6563,1,0,0:0:0:0:
320,192,6727,1,0,0:0:0:40:kick.wav
448,192,6727,1,0,0:0:0:0:
64,192,6891,1,0,0:0:0:0:
192,192,7055,1,0,0:0:0:40:kick.wav
320,192,7055,1,0,0:0:0:0:
448,192,7219,1,0,0:0:0:0:
64,192,7383,1,0,0:0:0:40:kick.wav
192,192,7383,1,0,0:0:0:0:
448,192,7547,1,0,0:0:0:0:
64,192,7710,1,0,0:0:0:40:kick.wav
192,192,7710,1,0,0:0:0:0:
320,192,7874,1,0,0:0:0:0:
64,192,8038,1,0,0:0:0:40:kick.wav
448,192,8038,1,0,0:0:0:0:
192,192,8202,1,0,0:0:0:0:
64,192,8366,1,0,0:0:0:40:kick.wav
320,192,8366,1,0,0:0:0:0:
192,192,8530,1,0,0:0:0:0:
320,192,8694,1,0,0:0:0:40:kick.wav
448,192,8694,1,0,0:0:0:0:
64,192,8858,1,0,0:0:0:0:
320,192,9022,1,0,0:0:0:40:kick.wav
448,192,9022,1,0,0:0:0:0:
64,192,9186,1,0,0:0:0:0:
192,192,9350,1,0,0:0:0:40:kick.wav
320,192,9350,1,0,0:0:0:0:
448,192,9514,1,0,0:0:0:0:
64,192,9678,1,0,0:0:0:40:kick.wav
192,192,9678,1,0,0:0:0:0:
320,192,9842,1,0,0:0:0:0:
64,192,10006,1,0,0:0:0:40:kick.wav
448,192,10006,1,0,0:0:0:0:
192,192,10170,1,0,0:0:0:0:
320,192,10333,1,0,0:0:0:40:kick.wav
448,192,10333,1,0,0:0:0:0:
64,192,10497,1,0,0:0:0:0:
192,192,10661,1,0,0:0:0:40:kick.wav
320,192,10661,1,0,0:0:0:0:
448,192,10825,1,0,0:0:0:0:
64,192,10989,1,0,0:0:0:40:kick.wav
192,192,10989,1,0,0:0:0:0:
320,192,11153,1,0,0:0:0:0:
192,192,11317,1,0,0:0:0:40:kick.wav
448,192,11317,1,0,0:0:0:0:
64,192,11481,1,0,0:0:0:0:
320,192,11645,1,0,0:0:0:40:kick.wav
448,192,11645,1,0,0:0:0:0:
192,192,11809,1,0,0:0:0:0:
320,192,11973,1,0,0:0:0:40:kick.wav
448,192,11973,1,0,0:0:0:0:
64,192,12137,1,0,0:0:0:0:
192,192,12301,1,0,0:0:0:40:kick.wav
320,192,12301,1,0,0:0:0:0:
448,192,12465,1,0,0:0:0:0:
64,192,12629,1,0,0:0:0:40:kick.wav
192,192,12629,1,0,0:0:0:0:
320,192,12792,1,0,0:0:0:0:
64,192,12956,1,0,0:0:0:40:kick.wav
192,192,12956,1,0,0:0:0:0:
448,192,13120,1,0,0:0:0:0:
64,192,13284,1,0,0:0:0:40:kick.wav
320,192,13284,1,0,0:0:0:0:
192,192,13448,1,0,0:0:0:0:
64,192,13612,1,0,0:0:0:40:kick.wav
448,192,13612,1,0,0:0:0:0:
192,192,13776,1,0,0:0:0:0:
320,192,13940,1,0,0:0:0:40:kick.wav
448,192,13940,1,0,0:0:0:0:
64,192,14104,1,0,0:0:0:0:
192,192,14268,1,0,0:0:0:40:kick.wav
448,192,14268,1,0,0:0:0:0:
320,192,14432,1,0,0:0:0:0:
64,192,14596,1,0,0:0:0:40:kick.wav
192,192,14596,1,0,0:0:0:0:
192,192,14760,1,0,0:0:0:0:
320,192,14924,1,0,0:0:0:40:kick.wav
448,192,14924,1,0,0:0:0:40:snaer.wav
320,192,15088,1,0,0:0:0:0:
64,192,15251,1,0,0:0:0:40:kick.wav
192,192,15251,1,0,0:0:0:40:snaer.wav
320,192,15415,1,0,0:0:0:40:snaer.wav
448,192,15415,1,0,0:0:0:0:
64,192,15579,1,0,0:0:0:40:kick.wav
192,192,15579,1,0,0:0:0:40:snaer.wav
320,192,15743,1,0,0:0:0:40:snaer.wav
448,192,15743,1,0,0:0:0:40:high_tom.wav
64,192,15907,1,0,0:0:0:40:kick.wav
192,192,15907,1,0,0:0:0:40:crash.wav
448,192,15907,1,0,0:0:0:0:
320,192,16071,1,0,0:0:0:0:
64,192,16235,128,0,16399:0:0:0:40:kick.wav
192,192,16235,1,0,0:0:0:40:snaer.wav
448,192,16399,1,0,0:0:0:0:
192,192,16563,1,0,0:0:0:40:kick.wav
320,192,16563,128,0,16891:0:0:0:70:LR_NBell_B4.wav
64,192,16727,1,0,0:0:0:0:
192,192,16891,1,0,0:0:0:40:kick.wav
448,192,16891,1,0,0:0:0:40:snaer.wav
320,192,17055,1,0,0:0:0:0:
64,192,17219,1,0,0:0:0:40:kick.wav
192,192,17219,1,0,0:0:0:0:
320,192,17383,128,0,17547:0:0:0:70:LR_NBell_B4.wav
64,192,17547,1,0,0:0:0:40:kick.wav
448,192,17547,128,0,17710:0:0:0:40:snaer.wav
192,192,17710,1,0,0:0:0:0:
320,192,17874,1,0,0:0:0:40:kick.wav
448,192,17874,128,0,18202:0:0:0:70:LR_NBell_E5.wav
64,192,18038,1,0,0:0:0:0:
192,192,18202,1,0,0:0:0:40:kick.wav
320,192,18202,1,0,0:0:0:40:snaer.wav
448,192,18366,1,0,0:0:0:0:
64,192,18530,1,0,0:0:0:40:kick.wav
192,192,18530,1,0,0:0:0:0:
320,192,18694,128,0,18858:0:0:0:70:LR_NBell_E5.wav
192,192,18858,1,0,0:0:0:40:kick.wav
448,192,18858,128,0,19022:0:0:0:40:snaer.wav
64,192,19022,1,0,0:0:0:0:
320,192,19186,128,0,19350:0:0:0:40:kick.wav
448,192,19186,1,0,0:0:0:70:LR_NBell_F#5.wav
192,192,19350,1,0,0:0:0:0:
64,192,19514,1,0,0:0:0:40:kick.wav
320,192,19514,128,0,19678:0:0:0:40:snaer.wav
448,192,19678,128,0,19842:0:0:0:70:LR_NBell_G5.wav
64,192,19842,128,0,20006:0:0:0:40:kick.wav
192,192,19842,1,0,0:0:0:70:LR_NBell_F#5.wav
320,192,20006,1,0,0:0:0:0:
448,192,20088,1,0,0:0:0:70:LR_NBell_G5.wav
64,192,20170,1,0,0:0:0:40:kick.wav
192,192,20170,1,0,0:0:0:40:snaer.wav
320,192,20333,128,0,20497:0:0:0:70:LR_NBell_F#5.wav
64,192,20497,128,0,20825:0:0:0:40:kick.wav
448,192,20497,1,0,0:0:0:70:LR_NBell_E5.wav
192,192,20661,1,0,0:0:0:0:
320,192,20825,1,0,0:0:0:40:kick.wav
448,192,20825,1,0,0:0:0:40:snaer.wav
64,192,20989,1,0,0:0:0:0:
192,192,21153,1,0,0:0:0:40:kick.wav
320,192,21153,1,0,0:0:0:0:
448,192,21317,1,0,0:0:0:70:LR_NBell_A5.wav
64,192,21481,1,0,0:0:0:40:kick.wav
192,192,21481,128,0,21645:0:0:0:40:snaer.wav
320,192,21645,1,0,0:0:0:0:
64,192,21809,128,0,21973:0:0:0:40:kick.wav
448,192,21809,1,0,0:0:0:70:LR_NBell_B5.wav
192,192,21973,1,0,0:0:0:0:
320,192,22137,128,0,22301:0:0:0:40:kick.wav
448,192,22137,1,0,0:0:0:40:snaer.wav
64,192,22301,1,0,0:0:0:0:
192,192,22465,1,0,0:0:0:40:kick.wav
448,192,22465,128,0,22629:0:0:0:70:LR_NBell_E6.wav
320,192,22629,1,0,0:0:0:0:
64,192,22792,1,0,0:0:0:40:kick.wav
448,192,22792,1,0,0:0:0:40:snaer.wav
192,192,22956,128,0,23120:0:0:0:70:LR_NBell_B5.wav
64,192,23120,1,0,0:0:0:40:kick.wav
320,192,23120,128,0,23284:0:0:0:70:LR_NBell_E6.wav
192,192,23284,1,0,0:0:0:0:
448,192,23366,1,0,0:0:0:70:LR_NBell_F#6.wav
64,192,23448,1,0,0:0:0:40:kick.wav
192,192,23448,1,0,0:0:0:40:snaer.wav
320,192,23612,128,0,23776:0:0:0:70:LR_NBell_G6.wav
64,192,23776,1,0,0:0:0:40:kick.wav
448,192,23776,1,0,0:0:0:0:
192,192,23940,128,0,24104:0:0:0:70:LR_NBell_E6.wav
320,192,24104,128,0,24268:0:0:0:40:kick.wav
448,192,24104,1,0,0:0:0:40:snaer.wav
64,192,24268,1,0,0:0:0:0:
320,192,24432,128,0,24596:0:0:0:40:kick.wav
448,192,24432,1,0,0:0:0:70:LR_NBell_F#6.wav
64,192,24596,1,0,0:0:0:0:
192,192,24760,128,0,24924:0:0:0:40:kick.wav
320,192,24760,1,0,0:0:0:40:snaer.wav
448,192,24924,128,0,25088:0:0:0:70:LR_NBell_G6.wav
64,192,25088,128,0,25251:0:0:0:40:kick.wav
192,192,25088,1,0,0:0:0:70:LR_NBell_F#6.wav
320,192,25251,1,0,0:0:0:0:
448,192,25333,1,0,0:0:0:70:LR_NBell_G6.wav
64,192,25415,1,0,0:0:0:40:kick.wav
192,192,25415,1,0,0:0:0:40:snaer.wav
320,192,25579,128,0,25743:0:0:0:70:LR_NBell_F#6.wav
64,192,25743,128,0,26071:0:0:0:40:kick.wav
448,192,25743,1,0,0:0:0:70:LR_NBell_E6.wav
192,192,25907,1,0,0:0:0:0:
320,192,26071,1,0,0:0:0:40:kick.wav
448,192,26071,1,0,0:0:0:40:snaer.wav
64,192,26235,1,0,0:0:0:0:
192,192,26399,1,0,0:0:0:40:kick.wav
320,192,26399,1,0,0:0:0:40:crash.wav
448,192,26399,1,0,0:0:0:0:
320,192,26563,1,0,0:0:0:0:
64,192,26727,128,0,26891:0:0:0:40:kick.wav
192,192,26727,1,0,0:0:0:40:snaer.wav
448,192,26891,1,0,0:0:0:0:
192,192,27055,1,0,0:0:0:40:kick.wav
320,192,27055,128,0,27383:0:0:0:70:LR_NBell_B4.wav
64,192,27219,1,0,0:0:0:0:
192,192,27383,1,0,0:0:0:40:kick.wav
448,192,27383,1,0,0:0:0:40:snaer.wav
320,192,27547,1,0,0:0:0:0:
64,192,27710,1,0,0:0:0:40:kick.wav
448,192,27710,1,0,0:0:0:0:
320,192,27874,128,0,28038:0:0:0:70:LR_NBell_B4.wav
64,192,28038,1,0,0:0:0:40:kick.wav
448,192,28038,128,0,28202:0:0:0:40:snaer.wav
192,192,28202,1,0,0:0:0:0:
320,192,28366,1,0,0:0:0:40:kick.wav
448,192,28366,128,0,28694:0:0:0:70:LR_NBell_E5.wav
64,192,28530,1,0,0:0:0:0:
192,192,28694,1,0,0:0:0:40:kick.wav
320,192,28694,1,0,0:0:0:40:snaer.wav
448,192,28858,1,0,0:0:0:0:
64,192,29022,1,0,0:0:0:40:kick.wav
192,192,29022,1,0,0:0:0:0:
320,192,29186,128,0,29350:0:0:0:70:LR_NBell_E5.wav
192,192,29350,1,0,0:0:0:40:kick.wav
448,192,29350,128,0,29514:0:0:0:40:snaer.wav
64,192,29514,1,0,0:0:0:0:
320,192,29678,128,0,29842:0:0:0:40:kick.wav
448,192,29678,1,0,0:0:0:70:LR_NBell_F#5.wav
192,192,29842,1,0,0:0:0:0:
64,192,30006,1,0,0:0:0:40:kick.wav
192,192,30006,128,0,30170:0:0:0:40:snaer.wav
448,192,30170,128,0,30333:0:0:0:70:LR_NBell_G5.wav
64,192,30333,128,0,30497:0:0:0:40:kick.wav
192,192,30333,1,0,0:0:0:70:LR_NBell_F#5.wav
320,192,30497,1,0,0:0:0:0:
448,192,30579,1,0,0:0:0:70:LR_NBell_G5.wav
64,192,30661,1,0,0:0:0:40:kick.wav
192,192,30661,1,0,0:0:0:40:snaer.wav
320,192,30825,128,0,30989:0:0:0:70:LR_NBell_A5.wav
192,192,30989,128,0,31317:0:0:0:40:kick.wav
448,192,30989,1,0,0:0:0:70:LR_NBell_B5.wav
64,192,31153,1,0,0:0:0:0:
320,192,31317,1,0,0:0:0:40:kick.wav
448,192,31317,1,0,0:0:0:40:snaer.wav
192,192,31481,1,0,0:0:0:0:
64,192,31645,1,0,0:0:0:40:kick.wav
320,192,31645,1,0,0:0:0:0:
448,192,31809,1,0,0:0:0:0:
64,192,31973,1,0,0:0:0:40:kick.wav
192,192,31973,128,0,32137:0:0:0:40:snaer.wav
320,192,32137,1,0,0:0:0:0:
64,192,32301,128,0,32465:0:0:0:40:kick.wav
192,192,32301,1,0,0:0:0:70:LR_NBell_B5.wav
448,192,32465,1,0,0:0:0:0:
192,192,32629,1,0,0:0:0:40:kick.wav
320,192,32629,128,0,32792:0:0:0:40:snaer.wav
64,192,32792,1,0,0:0:0:0:
192,192,32956,1,0,0:0:0:40:kick.wav
448,192,32956,128,0,33120:0:0:0:70:LR_NBell_E6.wav
320,192,33120,1,0,0:0:0:0:
64,192,33284,1,0,0:0:0:40:kick.wav
448,192,33284,1,0,0:0:0:40:snaer.wav
192,192,33448,128,0,33612:0:0:0:70:LR_NBell_B5.wav
64,192,33612,1,0,0:0:0:40:kick.wav
320,192,33612,128,0,33776:0:0:0:70:LR_NBell_E6.wav
192,192,33776,1,0,0:0:0:0:
448,192,33858,1,0,0:0:0:70:LR_NBell_F#6.wav
64,192,33940,1,0,0:0:0:40:kick.wav
192,192,33940,1,0,0:0:0:40:snaer.wav
320,192,34104,128,0,34268:0:0:0:70:LR_NBell_G6.wav
64,192,34268,1,0,0:0:0:40:kick.wav
448,192,34268,1,0,0:0:0:0:
192,192,34432,128,0,34596:0:0:0:70:LR_NBell_E6.wav
320,192,34596,128,0,34760:0:0:0:40:kick.wav
448,192,34596,1,0,0:0:0:40:snaer.wav
64,192,34760,1,0,0:0:0:0:
320,192,34924,128,0,35088:0:0:0:40:kick.wav
448,192,34924,1,0,0:0:0:70:LR_NBell_F#6.wav
64,192,35088,1,0,0:0:0:0:
192,192,35251,128,0,35415:0:0:0:40:kick.wav
320,192,35251,1,0,0:0:0:40:snaer.wav
448,192,35415,128,0,35579:0:0:0:70:LR_NBell_G6.wav
64,192,35579,128,0,35743:0:0:0:40:kick.wav
192,192,35579,128,0,35743:0:0:0:40:snaer.wav
64,192,35825,128,0,35989:0:0:0:40:kick.wav
320,192,35825,128,0,35989:0:0:0:40:snaer.wav
192,192,36071,128,0,36153:0:0:0:40:kick.wav
448,192,36071,128,0,36153:0:0:0:40:snaer.wav
320,192,36235,128,0,36891:0:0:0:40:kick.wav
448,192,36235,128,0,36891:0:0:0:40:snaer.wav
64,192,36563,1,0,0:0:0:40:kick.wav
192,192,36563,1,0,0:0:0:40:low_tom.wav
64,192,36891,1,0,0:0:0:40:kick.wav
192,192,36891,1,0,0:0:0:40:crash.wav
448,192,37055,1,0,0:0:0:0:
192,192,37219,1,0,0:0:0:40:kick.wav
320,192,37219,1,0,0:0:0:40:snaer.wav
64,192,37383,1,0,0:0:0:0:
320,192,37547,1,0,0:0:0:40:kick.wav
448,192,37547,128,0,37710:0:0:0:70:LR_NBell_G5.wav
64,192,37710,1,0,0:0:0:0:
192,192,37874,1,0,0:0:0:40:kick.wav
448,192,37874,1,0,0:0:0:40:snaer.wav
320,192,38038,1,0,0:0:0:0:
64,192,38202,1,0,0:0:0:40:kick.wav
192,192,38202,128,0,38366:0:0:0:70:LR_NBell_F#5.wav
448,192,38366,1,0,0:0:0:0:
64,192,38530,1,0,0:0:0:40:kick.wav
320,192,38530,1,0,0:0:0:40:snaer.wav
192,192,38694,1,0,0:0:0:0:
320,192,38858,128,0,39022:0:0:0:40:kick.wav
448,192,38858,1,0,0:0:0:70:LR_NBell_G5.wav
64,192,39022,1,0,0:0:0:0:
192,192,39186,1,0,0:0:0:40:kick.wav
448,192,39186,1,0,0:0:0:40:snaer.wav
64,192,39350,128,0,39514:0:0:0:70:LR_NBell_B4.wav
192,192,39514,1,0,0:0:0:40:kick.wav
320,192,39514,1,0,0:0:0:0:
64,192,39678,1,0,0:0:0:0:
320,192,39842,1,0,0:0:0:40:kick.wav
448,192,39842,1,0,0:0:0:40:snaer.wav
192,192,40006,1,0,0:0:0:0:
64,192,40170,1,0,0:0:0:40:kick.wav
448,192,40170,128,0,40333:0:0:0:70:LR_NBell_G5.wav
192,192,40333,1,0,0:0:0:0:
320,192,40497,1,0,0:0:0:40:kick.wav
448,192,40497,1,0,0:0:0:40:snaer.wav
64,192,40661,1,0,0:0:0:0:
192,192,40825,128,0,40989:0:0:0:40:kick.wav
320,192,40825,1,0,0:0:0:70:LR_NBell_F#5.wav
448,192,40989,1,0,0:0:0:0:
64,192,41153,1,0,0:0:0:40:kick.wav
320,192,41153,1,0,0:0:0:40:snaer.wav
192,192,41317,1,0,0:0:0:0:
320,192,41481,128,0,41645:0:0:0:40:kick.wav
448,192,41481,1,0,0:0:0:70:LR_NBell_G5.wav
64,192,41645,1,0,0:0:0:0:
192,192,41809,1,0,0:0:0:40:kick.wav
448,192,41809,1,0,0:0:0:40:snaer.wav
192,192,41973,128,0,42137:0:0:0:70:LR_NBell_G5.wav
64,192,42137,1,0,0:0:0:40:kick.wav
448,192,42137,1,0,0:0:0:0:
192,192,42301,1,0,0:0:0:0:
320,192,42465,1,0,0:0:0:40:kick.wav
448,192,42465,1,0,0:0:0:40:snaer.wav
64,192,42629,1,0,0:0:0:0:
192,192,42792,1,0,0:0:0:40:kick.wav
320,192,42792,128,0,42956:0:0:0:70:LR_NBell_G5.wav
448,192,42956,1,0,0:0:0:0:
64,192,43120,1,0,0:0:0:40:kick.wav
192,192,43120,1,0,0:0:0:40:snaer.wav
320,192,43284,1,0,0:0:0:0:
64,192,43448,1,0,0:0:0:40:kick.wav
192,192,43448,128,0,43612:0:0:0:70:LR_NBell_F#5.wav
448,192,43612,1,0,0:0:0:0:
64,192,43776,1,0,0:0:0:40:kick.wav
320,192,43776,1,0,0:0:0:40:snaer.wav
192,192,43940,1,0,0:0:0:0:
320,192,44104,128,0,44268:0:0:0:40:kick.wav
448,192,44104,1,0,0:0:0:70:LR_NBell_G5.wav
64,192,44268,1,0,0:0:0:0:
320,192,44432,1,0,0:0:0:40:kick.wav
448,192,44432,1,0,0:0:0:40:snaer.wav
64,192,44596,128,0,44760:0:0:0:70:LR_NBell_A5.wav
192,192,44760,1,0,0:0:0:40:kick.wav
320,192,44760,1,0,0:0:0:0:
448,192,44924,1,0,0:0:0:0:
64,192,45088,1,0,0:0:0:40:kick.wav
192,192,45088,1,0,0:0:0:40:snaer.wav
320,192,45251,1,0,0:0:0:0:
448,192,45251,1,0,0:0:0:0:
64,192,45415,128,0,45579:0:0:0:40:kick.wav
192,192,45415,1,0,0:0:0:70:LR_NBell_B5.wav
448,192,45579,1,0,0:0:0:0:
64,192,45743,1,0,0:0:0:40:kick.wav
320,192,45743,1,0,0:0:0:40:snaer.wav
192,192,45907,1,0,0:0:0:0:
320,192,46071,1,0,0:0:0:40:kick.wav
448,192,46071,128,0,46235:0:0:0:70:LR_NBell_C6.wav
64,192,46235,1,0,0:0:0:0:
192,192,46399,1,0,0:0:0:40:kick.wav
448,192,46399,1,0,0:0:0:40:snaer.wav
320,192,46563,1,0,0:0:0:0:
64,192,46727,1,0,0:0:0:40:kick.wav
192,192,46727,128,0,46891:0:0:0:70:LR_NBell_B5.wav
448,192,46891,1,0,0:0:0:0:
64,192,47055,1,0,0:0:0:40:kick.wav
320,192,47055,1,0,0:0:0:40:snaer.wav
192,192,47219,1,0,0:0:0:0:
64,192,47383,1,0,0:0:0:40:kick.wav
320,192,47383,1,0,0:0:0:40:crash.wav
448,192,47383,1,0,0:0:0:0:
192,192,47547,1,0,0:0:0:0:
320,192,47710,1,0,0:0:0:40:kick.wav
448,192,47710,1,0,0:0:0:40:snaer.wav
64,192,47874,1,0,0:0:0:0:
320,192,48038,128,0,48202:0:0:0:40:kick.wav
448,192,48038,128,0,48202:0:0:0:70:LR_NBell_E6.wav
192,192,48202,1,0,0:0:0:0:
64,192,48366,1,0,0:0:0:40:kick.wav
448,192,48366,1,0,0:0:0:40:snaer.wav
320,192,48530,1,0,0:0:0:0:
64,192,48694,128,0,48858:0:0:0:40:kick.wav
192,192,48694,128,0,48858:0:0:0:70:LR_NBell_D6.wav
448,192,48858,1,0,0:0:0:0:
192,192,49022,1,0,0:0:0:40:kick.wav
320,192,49022,1,0,0:0:0:40:snaer.wav
64,192,49186,1,0,0:0:0:0:
320,192,49350,128,0,49514:0:0:0:40:kick.wav
448,192,49350,128,0,49514:0:0:0:70:LR_NBell_E6.wav
64,192,49514,1,0,0:0:0:0:
320,192,49678,1,0,0:0:0:40:kick.wav
448,192,49678,1,0,0:0:0:40:snaer.wav
64,192,49842,128,0,50006:0:0:0:70:LR_NBell_B5.wav
192,192,49842,128,0,50006:0:0:0:0:
320,192,50006,1,0,0:0:0:40:kick.wav
448,192,50006,1,0,0:0:0:0:
192,192,50170,1,0,0:0:0:0:
320,192,50333,1,0,0:0:0:40:kick.wav
448,192,50333,1,0,0:0:0:40:snaer.wav
64,192,50497,1,0,0:0:0:0:
192,192,50661,128,0,50825:0:0:0:40:kick.wav
448,192,50661,128,0,50825:0:0:0:70:LR_NBell_E6.wav
64,192,50825,1,0,0:0:0:0:
192,192,50989,1,0,0:0:0:40:kick.wav
320,192,50989,1,0,0:0:0:40:snaer.wav
448,192,51153,1,0,0:0:0:0:
64,192,51317,128,0,51481:0:0:0:40:kick.wav
320,192,51317,128,0,51481:0:0:0:70:LR_NBell_D6.wav
448,192,51481,1,0,0:0:0:0:
192,192,51645,1,0,0:0:0:40:kick.wav
320,192,51645,1,0,0:0:0:40:snaer.wav
64,192,51809,1,0,0:0:0:0:
320,192,51973,128,0,52137:0:0:0:40:kick.wav
448,192,51973,128,0,52137:0:0:0:70:LR_NBell_E6.wav
192,192,52137,1,0,0:0:0:0:
64,192,52301,1,0,0:0:0:40:kick.wav
448,192,52301,1,0,0:0:0:40:snaer.wav
320,192,52465,128,0,52629:0:0:0:70:LR_NBell_E6.wav
448,192,52465,128,0,52629:0:0:0:0:
64,192,52629,1,0,0:0:0:40:kick.wav
192,192,52629,1,0,0:0:0:0:
320,192,52792,1,0,0:0:0:0:
64,192,52956,1,0,0:0:0:40:kick.wav
448,192,52956,1,0,0:0:0:40:snaer.wav
192,192,53120,1,0,0:0:0:0:
320,192,53284,128,0,53448:0:0:0:40:kick.wav
448,192,53284,128,0,53448:0:0:0:0:
64,192,53448,1,0,0:0:0:0:
320,192,53612,1,0,0:0:0:40:kick.wav
448,192,53612,1,0,0:0:0:40:snaer.wav
192,192,53776,1,0,0:0:0:0:
64,192,53940,128,0,54104:0:0:0:40:kick.wav
448,192,53940,128,0,54104:0:0:0:70:LR_NBell_D6.wav
192,192,54104,1,0,0:0:0:0:
64,192,54268,1,0,0:0:0:40:kick.wav
448,192,54268,1,0,0:0:0:40:snaer.wav
320,192,54432,1,0,0:0:0:0:
192,192,54596,128,0,54760:0:0:0:40:kick.wav
448,192,54596,128,0,54760:0:0:0:70:LR_NBell_E6.wav
320,192,54760,1,0,0:0:0:0:
64,192,54924,1,0,0:0:0:40:kick.wav
192,192,54924,1,0,0:0:0:40:snaer.wav
320,192,55088,128,0,55251:0:0:0:70:LR_NBell_F#6.wav
448,192,55088,128,0,55251:0:0:0:0:
64,192,55251,1,0,0:0:0:40:kick.wav
192,192,55251,1,0,0:0:0:0:
448,192,55415,1,0,0:0:0:0:
192,192,55579,1,0,0:0:0:40:kick.wav
320,192,55579,1,0,0:0:0:40:snaer.wav
64,192,55743,1,0,0:0:0:0:
448,192,55743,1,0,0:0:0:0:
192,192,55907,128,0,56071:0:0:0:40:kick.wav
320,192,55907,128,0,56071:0:0:0:70:LR_NBell_G6.wav
448,192,56071,1,0,0:0:0:0:
64,192,56235,1,0,0:0:0:40:kick.wav
192,192,56235,1,0,0:0:0:40:snaer.wav
320,192,56399,1,0,0:0:0:0:
64,192,56563,128,0,56727:0:0:0:40:kick.wav
448,192,56563,128,0,56727:0:0:0:70:LR_NBell_A6.wav
192,192,56727,1,0,0:0:0:0:
64,192,56891,1,0,0:0:0:40:kick.wav
448,192,56891,1,0,0:0:0:40:snaer.wav
320,192,57055,1,0,0:0:0:0:
64,192,57219,128,0,57383:0:0:0:40:kick.wav
192,192,57219,128,0,57383:0:0:0:70:LR_NBell_G6.wav
320,192,57383,1,0,0:0:0:0:
192,192,57547,1,0,0:0:0:40:kick.wav
448,192,57547,1,0,0:0:0:40:snaer.wav
64,192,57710,1,0,0:0:0:0:
320,192,57710,1,0,0:0:0:0:
192,192,57874,1,0,0:0:0:40:kick.wav
448,192,57874,1,0,0:0:0:0:
448,192,58038,1,0,0:0:0:0:
320,192,58202,1,0,0:0:0:0:
192,192,58366,1,0,0:0:0:0:
64,192,58530,1,0,0:0:0:0:
320,192,58694,1,0,0:0:0:0:
192,192,58858,1,0,0:0:0:0:
64,192,59022,1,0,0:0:0:40:kick.wav
320,192,59022,1,0,0:0:0:0:
192,192,59186,1,0,0:0:0:40:kick.wav
448,192,59186,1,0,0:0:0:0:
320,192,59350,1,0,0:0:0:0:
64,192,59514,1,0,0:0:0:40:kick.wav
192,192,59514,1,0,0:0:0:40:snaer.wav
320,192,59678,1,0,0:0:0:0:
64,192,59842,1,0,0:0:0:40:kick.wav
448,192,59842,1,0,0:0:0:0:
192,192,60006,1,0,0:0:0:0:
64,192,60170,1,0,0:0:0:40:kick.wav
320,192,60170,1,0,0:0:0:40:snaer.wav
448,192,60333,1,0,0:0:0:0:
64,192,60497,1,0,0:0:0:40:kick.wav
192,192,60497,1,0,0:0:0:0:
192,192,60661,1,0,0:0:0:0:
320,192,60825,1,0,0:0:0:40:kick.wav
448,192,60825,1,0,0:0:0:40:snaer.wav
320,192,60989,1,0,0:0:0:0:
64,192,61153,1,0,0:0:0:40:kick.wav
192,192,61153,1,0,0:0:0:0:
64,192,61317,1,0,0:0:0:0:
320,192,61481,1,0,0:0:0:40:kick.wav
448,192,61481,1,0,0:0:0:40:snaer.wav
448,192,61645,1,0,0:0:0:0:
64,192,61809,1,0,0:0:0:40:kick.wav
192,192,61809,1,0,0:0:0:0:
320,192,61973,1,0,0:0:0:0:
64,192,62137,1,0,0:0:0:40:kick.wav
448,192,62137,1,0,0:0:0:40:snaer.wav
320,192,62301,1,0,0:0:0:0:
192,192,62465,1,0,0:0:0:40:kick.wav
448,192,62465,1,0,0:0:0:0:
64,192,62629,1,0,0:0:0:0:
192,192,62792,1,0,0:0:0:40:kick.wav
320,192,62792,1,0,0:0:0:40:snaer.wav
64,192,62956,1,0,0:0:0:0:
320,192,63120,1,0,0:0:0:40:kick.wav
448,192,63120,1,0,0:0:0:0:
448,192,63284,1,0,0:0:0:0:
64,192,63448,1,0,0:0:0:40:kick.wav
192,192,63448,1,0,0:0:0:40:snaer.wav
192,192,63612,1,0,0:0:0:0:
320,192,63776,1,0,0:0:0:40:kick.wav
448,192,63776,1,0,0:0:0:0:
320,192,63940,1,0,0:0:0:0:
64,192,64104,1,0,0:0:0:40:kick.wav
192,192,64104,1,0,0:0:0:40:snaer.wav
320,192,64268,1,0,0:0:0:40:snaer.wav
448,192,64268,1,0,0:0:0:0:
64,192,64432,1,0,0:0:0:40:kick.wav
192,192,64432,1,0,0:0:0:0:
320,192,64596,1,0,0:0:0:0:
64,192,64760,1,0,0:0:0:40:kick.wav
448,192,64760,1,0,0:0:0:40:snaer.wav
192,192,64924,1,0,0:0:0:0:
320,192,65088,1,0,0:0:0:40:kick.wav
448,192,65088,1,0,0:0:0:0:
64,192,65251,1,0,0:0:0:0:
192,192,65415,1,0,0:0:0:40:kick.wav
320,192,65415,1,0,0:0:0:40:snaer.wav
448,192,65579,1,0,0:0:0:0:
64,192,65743,1,0,0:0:0:40:kick.wav
320,192,65743,1,0,0:0:0:0:
64,192,65907,1,0,0:0:0:0:
192,192,66071,1,0,0:0:0:40:kick.wav
448,192,66071,1,0,0:0:0:40:snaer.wav
448,192,66235,1,0,0:0:0:0:
64,192,66399,1,0,0:0:0:40:kick.wav
320,192,66399,1,0,0:0:0:0:
64,192,66563,1,0,0:0:0:0:
192,192,66727,1,0,0:0:0:40:kick.wav
448,192,66727,1,0,0:0:0:40:snaer.wav
448,192,66891,1,0,0:0:0:0:
64,192,67055,1,0,0:0:0:40:kick.wav
192,192,67055,1,0,0:0:0:0:
320,192,67219,1,0,0:0:0:0:
192,192,67383,1,0,0:0:0:40:kick.wav
448,192,67383,1,0,0:0:0:40:snaer.wav
64,192,67547,1,0,0:0:0:0:
320,192,67710,1,0,0:0:0:40:kick.wav
448,192,67710,1,0,0:0:0:0:
64,192,67874,1,0,0:0:0:40:kick.wav
192,192,67874,1,0,0:0:0:0:
320,192,68038,1,0,0:0:0:40:kick.wav
448,192,68038,1,0,0:0:0:40:snaer.wav
64,192,68202,1,0,0:0:0:40:kick.wav
192,192,68202,1,0,0:0:0:0:
320,192,68366,1,0,0:0:0:40:kick.wav
448,192,68366,128,0,68530:0:0:0:0:
64,192,68530,128,0,68694:0:0:0:0:
320,192,68694,128,0,68858:0:0:0:0:
192,192,68858,128,0,69022:0:0:0:0:
448,192,69022,128,0,69186:0:0:0:0:
320,192,69186,128,0,69350:0:0:0:0:
64,192,69350,128,0,69514:0:0:0:0:
320,192,69514,1,0,0:0:0:40:kick.wav
448,192,69514,1,0,0:0:0:0:
64,192,69678,1,0,0:0:0:40:kick.wav
192,192,69678,1,0,0:0:0:40:crash.wav
448,192,69678,1,0,0:0:0:0:
192,192,69842,1,0,0:0:0:0:
64,192,70006,1,0,0:0:0:40:kick.wav
448,192,70006,1,0,0:0:0:40:snaer.wav
448,192,70170,1,0,0:0:0:0:
64,192,70333,1,0,0:0:0:40:kick.wav
192,192,70333,1,0,0:0:0:0:
64,192,70497,1,0,0:0:0:0:
320,192,70661,1,0,0:0:0:40:kick.wav
448,192,70661,1,0,0:0:0:40:snaer.wav
320,192,70825,1,0,0:0:0:0:
64,192,70989,1,0,0:0:0:40:kick.wav
448,192,70989,1,0,0:0:0:0:
192,192,71153,1,0,0:0:0:0:
320,192,71317,1,0,0:0:0:40:kick.wav
448,192,71317,1,0,0:0:0:40:snaer.wav
64,192,71481,1,0,0:0:0:0:
192,192,71645,1,0,0:0:0:40:kick.wav
320,192,71645,1,0,0:0:0:0:
448,192,71809,1,0,0:0:0:0:
64,192,71973,1,0,0:0:0:40:kick.wav
192,192,71973,1,0,0:0:0:40:snaer.wav
448,192,72137,1,0,0:0:0:0:
192,192,72301,1,0,0:0:0:40:kick.wav
320,192,72301,1,0,0:0:0:0:
320,192,72465,1,0,0:0:0:0:
64,192,72629,1,0,0:0:0:40:kick.wav
448,192,72629,1,0,0:0:0:40:snaer.wav
64,192,72792,1,0,0:0:0:0:
192,192,72956,1,0,0:0:0:40:kick.wav
448,192,72956,1,0,0:0:0:0:
448,192,73120,1,0,0:0:0:0:
64,192,73284,1,0,0:0:0:40:kick.wav
192,192,73284,1,0,0:0:0:40:snaer.wav
192,192,73448,1,0,0:0:0:0:
320,192,73612,1,0,0:0:0:40:kick.wav
448,192,73612,1,0,0:0:0:0:
64,192,73776,1,0,0:0:0:0:
320,192,73940,1,0,0:0:0:40:kick.wav
448,192,73940,1,0,0:0:0:40:snaer.wav
192,192,74104,1,0,0:0:0:0:
64,192,74268,1,0,0:0:0:40:kick.wav
448,192,74268,1,0,0:0:0:0:
192,192,74432,1,0,0:0:0:0:
64,192,74596,1,0,0:0:0:40:kick.wav
320,192,74596,1,0,0:0:0:40:snaer.wav
448,192,74760,1,0,0:0:0:0:
64,192,74924,1,0,0:0:0:40:kick.wav
192,192,74924,1,0,0:0:0:0:
192,192,75088,1,0,0:0:0:0:
320,192,75251,1,0,0:0:0:40:kick.wav
448,192,75251,1,0,0:0:0:40:snaer.wav
448,192,75415,1,0,0:0:0:0:
192,192,75579,1,0,0:0:0:40:kick.wav
320,192,75579,1,0,0:0:0:0:
192,192,75743,1,0,0:0:0:0:
64,192,75907,1,0,0:0:0:40:kick.wav
320,192,75907,1,0,0:0:0:40:snaer.wav
320,192,76071,1,0,0:0:0:0:
64,192,76235,1,0,0:0:0:40:kick.wav
192,192,76235,1,0,0:0:0:0:
448,192,76399,1,0,0:0:0:0:
192,192,76563,1,0,0:0:0:40:kick.wav
320,192,76563,1,0,0:0:0:40:snaer.wav
64,192,76727,1,0,0:0:0:0:
320,192,76891,1,0,0:0:0:40:kick.wav
448,192,76891,1,0,0:0:0:0:
192,192,77055,1,0,0:0:0:0:
64,192,77219,1,0,0:0:0:40:kick.wav
448,192,77219,1,0,0:0:0:40:snaer.wav
320,192,77383,1,0,0:0:0:0:
64,192,77547,1,0,0:0:0:40:kick.wav
192,192,77547,1,0,0:0:0:0:
448,192,77710,128,0,77874:0:0:0:0:
64,192,77874,1,0,0:0:0:40:kick.wav
192,192,77874,1,0,0:0:0:40:snaer.wav
320,192,78038,1,0,0:0:0:40:kick.wav
448,192,78038,1,0,0:0:0:0:
64,192,78202,1,0,0:0:0:40:kick.wav
448,192,78202,1,0,0:0:0:0:
192,192,78366,1,0,0:0:0:0:
320,192,78530,1,0,0:0:0:40:kick.wav
448,192,78530,1,0,0:0:0:40:snaer.wav
64,192,78694,1,0,0:0:0:40:kick.wav
192,192,78694,1,0,0:0:0:0:
320,192,78858,1,0,0:0:0:40:kick.wav
448,192,78858,1,0,0:0:0:0:
448,192,79022,128,0,79186:0:0:0:0:
192,192,79186,128,0,79350:0:0:0:40:kick.wav
320,192,79186,1,0,0:0:0:40:snaer.wav
64,192,79350,128,0,79514:0:0:0:0:
320,192,79514,1,0,0:0:0:40:kick.wav
448,192,79514,1,0,0:0:0:40:low_tom.wav
192,192,79596,1,0,0:0:0:40:snaer.wav
320,192,79678,1,0,0:0:0:40:kick.wav
192,192,79760,1,0,0:0:0:40:snaer.wav
448,192,79842,1,0,0:0:0:40:kick.wav
64,192,79924,1,0,0:0:0:40:snaer.wav
448,192,80006,1,0,0:0:0:40:kick.wav
64,192,80088,1,0,0:0:0:40:snaer.wav
320,192,80170,1,0,0:0:0:40:kick.wav
448,192,80170,1,0,0:0:0:40:crash.wav
192,192,80333,1,0,0:0:0:0:
64,192,80497,128,0,80661:0:0:0:40:kick.wav
320,192,80497,1,0,0:0:0:40:snaer.wav
192,192,80661,1,0,0:0:0:0:
320,192,80825,128,0,81153:0:0:0:40:kick.wav
448,192,80825,1,0,0:0:0:70:LR_NBell_B4.wav
64,192,80989,1,0,0:0:0:0:
192,192,81153,1,0,0:0:0:40:kick.wav
448,192,81153,1,0,0:0:0:40:snaer.wav
320,192,81317,1,0,0:0:0:0:
64,192,81481,1,0,0:0:0:40:kick.wav
192,192,81481,1,0,0:0:0:0:
320,192,81645,128,0,81809:0:0:0:70:LR_NBell_B4.wav
64,192,81809,1,0,0:0:0:40:kick.wav
448,192,81809,128,0,81973:0:0:0:40:snaer.wav
192,192,81973,1,0,0:0:0:0:
320,192,82137,1,0,0:0:0:40:kick.wav
448,192,82137,128,0,82465:0:0:0:70:LR_NBell_E5.wav
64,192,82301,1,0,0:0:0:0:
192,192,82465,1,0,0:0:0:40:kick.wav
320,192,82465,1,0,0:0:0:40:snaer.wav
448,192,82629,1,0,0:0:0:0:
64,192,82792,1,0,0:0:0:40:kick.wav
192,192,82792,1,0,0:0:0:0:
320,192,82956,128,0,83120:0:0:0:70:LR_NBell_E5.wav
192,192,83120,1,0,0:0:0:40:kick.wav
448,192,83120,128,0,83284:0:0:0:40:snaer.wav
64,192,83284,1,0,0:0:0:0:
320,192,83448,128,0,83612:0:0:0:40:kick.wav
448,192,83448,1,0,0:0:0:70:LR_NBell_F#5.wav
192,192,83612,1,0,0:0:0:0:
64,192,83776,1,0,0:0:0:40:kick.wav
320,192,83776,128,0,83940:0:0:0:40:snaer.wav
448,192,83940,128,0,84104:0:0:0:70:LR_NBell_G5.wav
64,192,84104,128,0,84268:0:0:0:40:kick.wav
192,192,84104,1,0,0:0:0:70:LR_NBell_F#5.wav
320,192,84268,1,0,0:0:0:0:
448,192,84350,1,0,0:0:0:70:LR_NBell_G5.wav
64,192,84432,1,0,0:0:0:40:kick.wav
192,192,84432,1,0,0:0:0:40:snaer.wav
320,192,84596,128,0,84760:0:0:0:70:LR_NBell_F#5.wav
64,192,84760,128,0,85088:0:0:0:40:kick.wav
448,192,84760,1,0,0:0:0:70:LR_NBell_E5.wav
192,192,84924,1,0,0:0:0:0:
320,192,85088,1,0,0:0:0:40:kick.wav
448,192,85088,1,0,0:0:0:40:snaer.wav
64,192,85251,1,0,0:0:0:0:
192,192,85415,1,0,0:0:0:40:kick.wav
320,192,85415,1,0,0:0:0:0:
448,192,85579,1,0,0:0:0:70:LR_NBell_A5.wav
64,192,85743,1,0,0:0:0:40:kick.wav
192,192,85743,128,0,85907:0:0:0:40:snaer.wav
320,192,85907,1,0,0:0:0:0:
64,192,86071,128,0,86235:0:0:0:40:kick.wav
448,192,86071,1,0,0:0:0:70:LR_NBell_B5.wav
192,192,86235,1,0,0:0:0:0:
320,192,86399,128,0,86563:0:0:0:40:kick.wav
448,192,86399,1,0,0:0:0:40:snaer.wav
64,192,86563,1,0,0:0:0:0:
192,192,86727,1,0,0:0:0:40:kick.wav
448,192,86727,128,0,86891:0:0:0:70:LR_NBell_E6.wav
320,192,86891,1,0,0:0:0:0:
64,192,87055,1,0,0:0:0:40:kick.wav
448,192,87055,1,0,0:0:0:40:snaer.wav
192,192,87219,128,0,87383:0:0:0:70:LR_NBell_B5.wav
64,192,87383,1,0,0:0:0:40:kick.wav
320,192,87383,128,0,87547:0:0:0:70:LR_NBell_E6.wav
192,192,87547,1,0,0:0:0:0:
448,192,87629,1,0,0:0:0:70:LR_NBell_F#6.wav
64,192,87710,1,0,0:0:0:40:kick.wav
192,192,87710,1,0,0:0:0:40:snaer.wav
320,192,87874,128,0,88038:0:0:0:70:LR_NBell_G6.wav
64,192,88038,1,0,0:0:0:40:kick.wav
448,192,88038,1,0,0:0:0:0:
192,192,88202,128,0,88366:0:0:0:70:LR_NBell_E6.wav
320,192,88366,128,0,88530:0:0:0:40:kick.wav
448,192,88366,1,0,0:0:0:40:snaer.wav
64,192,88530,1,0,0:0:0:0:
320,192,88694,128,0,88858:0:0:0:40:kick.wav
448,192,88694,1,0,0:0:0:70:LR_NBell_F#6.wav
64,192,88858,1,0,0:0:0:0:
192,192,89022,128,0,89186:0:0:0:40:kick.wav
320,192,89022,1,0,0:0:0:40:snaer.wav
448,192,89186,128,0,89350:0:0:0:70:LR_NBell_G6.wav
64,192,89350,128,0,89514:0:0:0:40:kick.wav
192,192,89350,1,0,0:0:0:70:LR_NBell_F#6.wav
320,192,89514,1,0,0:0:0:0:
448,192,89596,1,0,0:0:0:70:LR_NBell_G6.wav
64,192,89678,1,0,0:0:0:40:kick.wav
192,192,89678,1,0,0:0:0:40:snaer.wav
320,192,89842,128,0,90006:0:0:0:70:LR_NBell_F#6.wav
64,192,90006,128,0,90333:0:0:0:40:kick.wav
448,192,90006,1,0,0:0:0:70:LR_NBell_E6.wav
192,192,90170,1,0,0:0:0:0:
320,192,90333,1,0,0:0:0:40:kick.wav
448,192,90333,1,0,0:0:0:40:snaer.wav
64,192,90497,1,0,0:0:0:0:
192,192,90661,1,0,0:0:0:40:kick.wav
320,192,90661,1,0,0:0:0:40:crash.wav
448,192,90661,1,0,0:0:0:0:
320,192,90825,1,0,0:0:0:0:
64,192,90989,128,0,91153:0:0:0:40:kick.wav
192,192,90989,1,0,0:0:0:40:snaer.wav
448,192,91153,1,0,0:0:0:0:
192,192,91317,1,0,0:0:0:40:kick.wav
320,192,91317,128,0,91645:0:0:0:70:LR_NBell_B4.wav
64,192,91481,1,0,0:0:0:0:
192,192,91645,1,0,0:0:0:40:kick.wav
448,192,91645,1,0,0:0:0:40:snaer.wav
320,192,91809,1,0,0:0:0:0:
64,192,91973,1,0,0:0:0:40:kick.wav
448,192,91973,1,0,0:0:0:0:
320,192,92137,128,0,92301:0:0:0:70:LR_NBell_B4.wav
64,192,92301,1,0,0:0:0:40:kick.wav
448,192,92301,128,0,92465:0:0:0:40:snaer.wav
192,192,92465,1,0,0:0:0:0:
320,192,92629,1,0,0:0:0:40:kick.wav
448,192,92629,128,0,92956:0:0:0:70:LR_NBell_E5.wav
64,192,92792,1,0,0:0:0:0:
192,192,92956,1,0,0:0:0:40:kick.wav
320,192,92956,1,0,0:0:0:40:snaer.wav
448,192,93120,1,0,0:0:0:0:
64,192,93284,1,0,0:0:0:40:kick.wav
192,192,93284,1,0,0:0:0:0:
320,192,93448,128,0,93612:0:0:0:70:LR_NBell_E5.wav
192,192,93612,1,0,0:0:0:40:kick.wav
448,192,93612,128,0,93776:0:0:0:40:snaer.wav
64,192,93776,1,0,0:0:0:0:
320,192,93940,128,0,94104:0:0:0:40:kick.wav
448,192,93940,1,0,0:0:0:70:LR_NBell_F#5.wav
192,192,94104,1,0,0:0:0:0:
64,192,94268,1,0,0:0:0:40:kick.wav
192,192,94268,128,0,94432:0:0:0:40:snaer.wav
448,192,94432,128,0,94596:0:0:0:70:LR_NBell_G5.wav
64,192,94596,128,0,94760:0:0:0:40:kick.wav
192,192,94596,1,0,0:0:0:70:LR_NBell_F#5.wav
320,192,94760,1,0,0:0:0:0:
448,192,94842,1,0,0:0:0:70:LR_NBell_G5.wav
64,192,94924,1,0,0:0:0:40:kick.wav
192,192,94924,1,0,0:0:0:40:snaer.wav
320,192,95088,128,0,95251:0:0:0:70:LR_NBell_A5.wav
192,192,95251,128,0,95579:0:0:0:40:kick.wav
448,192,95251,1,0,0:0:0:70:LR_NBell_B5.wav
64,192,95415,1,0,0:0:0:0:
320,192,95579,1,0,0:0:0:40:kick.wav
448,192,95579,1,0,0:0:0:40:snaer.wav
192,192,95743,1,0,0:0:0:0:
64,192,95907,1,0,0:0:0:40:kick.wav
320,192,95907,1,0,0:0:0:0:
448,192,96071,1,0,0:0:0:0:
64,192,96235,1,0,0:0:0:40:kick.wav
192,192,96235,128,0,96399:0:0:0:40:snaer.wav
320,192,96399,1,0,0:0:0:0:
64,192,96563,128,0,96727:0:0:0:40:kick.wav
192,192,96563,1,0,0:0:0:70:LR_NBell_B5.wav
448,192,96727,1,0,0:0:0:0:
192,192,96891,1,0,0:0:0:40:kick.wav
320,192,96891,128,0,97055:0:0:0:40:snaer.wav
64,192,97055,1,0,0:0:0:0:
192,192,97219,1,0,0:0:0:40:kick.wav
448,192,97219,128,0,97383:0:0:0:70:LR_NBell_E6.wav
320,192,97383,1,0,0:0:0:0:
64,192,97547,1,0,0:0:0:40:kick.wav
448,192,97547,1,0,0:0:0:40:snaer.wav
192,192,97710,128,0,97874:0:0:0:70:LR_NBell_B5.wav
64,192,97874,1,0,0:0:0:40:kick.wav
320,192,97874,128,0,98038:0:0:0:70:LR_NBell_E6.wav
192,192,98038,1,0,0:0:0:0:
448,192,98120,1,0,0:0:0:70:LR_NBell_F#6.wav
64,192,98202,1,0,0:0:0:40:kick.wav
192,192,98202,1,0,0:0:0:40:snaer.wav
320,192,98366,128,0,98530:0:0:0:70:LR_NBell_G6.wav
64,192,98530,1,0,0:0:0:40:kick.wav
448,192,98530,1,0,0:0:0:0:
192,192,98694,128,0,98858:0:0:0:70:LR_NBell_E6.wav
320,192,98858,128,0,99022:0:0:0:40:kick.wav
448,192,98858,1,0,0:0:0:40:snaer.wav
64,192,99022,1,0,0:0:0:0:
320,192,99186,128,0,99350:0:0:0:40:kick.wav
448,192,99186,1,0,0:0:0:70:LR_NBell_F#6.wav
64,192,99350,1,0,0:0:0:0:
192,192,99514,128,0,99678:0:0:0:40:kick.wav
320,192,99514,1,0,0:0:0:40:snaer.wav
448,192,99678,128,0,99842:0:0:0:70:LR_NBell_G6.wav
64,192,99842,128,0,100006:0:0:0:40:kick.wav
192,192,99842,128,0,100006:0:0:0:40:snaer.wav
64,192,100088,128,0,100251:0:0:0:40:kick.wav
320,192,100088,128,0,100251:0:0:0:40:snaer.wav
192,192,100333,128,0,100415:0:0:0:40:kick.wav
448,192,100333,128,0,100415:0:0:0:40:snaer.wav
320,192,100497,128,0,100825:0:0:0:40:kick.wav
448,192,100497,128,0,100825:0:0:0:40:snaer.wav
64,192,100825,1,0,0:0:0:40:kick.wav
192,192,100825,1,0,0:0:0:0:
320,192,100989,1,0,0:0:0:40:kick.wav
448,192,100989,1,0,0:0:0:40:snaer.wav
64,192,101153,1,0,0:0:0:40:kick.wav
192,192,101153,1,0,0:0:0:70:LR_NBell_E4.wav
448,192,101317,1,0,0:0:0:70:LR_NBell_B4.wav
320,192,101481,1,0,0:0:0:50:LR_NBell_G5.wav
192,192,101645,1,0,0:0:0:70:LR_NBell_B4.wav
320,192,101809,1,0,0:0:0:50:LR_NBell_G5.wav
192,192,101973,1,0,0:0:0:30:LR_NBell_E4.wav
320,192,102137,1,0,0:0:0:50:LR_NBell_G5.wav
64,192,102301,1,0,0:0:0:30:LR_NBell_E4.wav
192,192,102465,1,0,0:0:0:50:LR_NBell_B4.wav
64,192,102629,1,0,0:0:0:30:LR_NBell_E4.wav
320,192,102792,1,0,0:0:0:50:LR_NBell_B4.wav
448,192,102956,1,0,0:0:0:40:LR_NBell_A5.wav
64,192,103120,1,0,0:0:0:50:LR_NBell_B4.wav
320,192,103284,1,0,0:0:0:40:LR_NBell_A5.wav
448,192,103448,1,0,0:0:0:40:LR_NBell_B5.wav
64,192,103612,1,0,0:0:0:50:LR_NBell_B4.wav
192,192,103776,1,0,0:0:0:70:LR_NBell_C4.wav
320,192,103776,1,0,0:0:0:70:LR_NBell_G4.wav
448,192,104104,1,0,0:0:0:50:LR_NBell_E5.wav
64,192,104268,1,0,0:0:0:70:LR_NBell_E4.wav
320,192,104432,1,0,0:0:0:40:LR_NBell_G5.wav
192,192,104596,1,0,0:0:0:30:LR_NBell_C4.wav
320,192,104760,1,0,0:0:0:40:LR_NBell_G5.wav
192,192,104924,1,0,0:0:0:30:LR_NBell_C4.wav
64,192,105088,1,0,0:0:0:70:LR_NBell_A4.wav
448,192,105088,1,0,0:0:0:70:LR_NBell_E4.wav
448,192,105415,1,0,0:0:0:50:LR_NBell_C5.wav
320,192,105579,1,0,0:0:0:70:LR_NBell_E4.wav
192,192,105743,1,0,0:0:0:50:LR_NBell_B4.wav
64,192,105907,1,0,0:0:0:30:LR_NBell_E4.wav
192,192,106071,1,0,0:0:0:50:LR_NBell_B4.wav
64,192,106235,1,0,0:0:0:30:LR_NBell_E4.wav
320,192,106399,1,0,0:0:0:70:LR_NBell_E4.wav
448,192,106399,1,0,0:0:0:70:LR_NBell_B4.wav
64,192,106563,1,0,0:0:0:50:LR_NBell_B4.wav
448,192,106727,1,0,0:0:0:40:LR_NBell_G5.wav
192,192,106891,1,0,0:0:0:50:LR_NBell_B4.wav
320,192,107055,1,0,0:0:0:40:LR_NBell_G5.wav
64,192,107219,1,0,0:0:0:30:LR_NBell_E4.wav
320,192,107383,1,0,0:0:0:40:LR_NBell_G5.wav
192,192,107547,1,0,0:0:0:30:LR_NBell_E4.wav
64,192,107710,1,0,0:0:0:50:LR_NBell_B4.wav
192,192,107874,1,0,0:0:0:30:LR_NBell_E4.wav
64,192,108038,1,0,0:0:0:50:LR_NBell_B4.wav
448,192,108202,1,0,0:0:0:40:LR_NBell_A5.wav
192,192,108366,1,0,0:0:0:50:LR_NBell_B4.wav
320,192,108530,1,0,0:0:0:40:LR_NBell_A5.wav
448,192,108694,1,0,0:0:0:40:LR_NBell_B5.wav
192,192,108858,1,0,0:0:0:50:LR_NBell_B4.wav
64,192,109022,1,0,0:0:0:0:
192,192,109186,1,0,0:0:0:0:
448,192,109350,1,0,0:0:0:0:
64,192,109514,1,0,0:0:0:0:
320,192,109678,1,0,0:0:0:0:
192,192,109842,1,0,0:0:0:0:
448,192,110006,1,0,0:0:0:0:
192,192,110170,1,0,0:0:0:0:
64,192,110333,1,0,0:0:0:0:
320,192,110497,1,0,0:0:0:0:
448,192,110661,1,0,0:0:0:0:
64,192,110825,1,0,0:0:0:0:
320,192,110989,1,0,0:0:0:0:
192,192,111153,1,0,0:0:0:0:
320,192,111317,1,0,0:0:0:40:kick.wav
448,192,111317,1,0,0:0:0:0:
64,192,111645,1,0,0:0:0:40:kick.wav
320,192,111645,1,0,0:0:0:40:crash.wav
448,192,111645,1,0,0:0:0:0:
64,192,111809,1,0,0:0:0:0:
192,192,111973,1,0,0:0:0:40:kick.wav
448,192,111973,1,0,0:0:0:0:
320,192,112137,1,0,0:0:0:0:
192,192,112301,1,0,0:0:0:40:kick.wav
448,192,112301,1,0,0:0:0:40:snaer.wav
64,192,112465,1,0,0:0:0:0:
320,192,112629,1,0,0:0:0:0:
192,192,112792,1,0,0:0:0:0:
320,192,112956,1,0,0:0:0:40:kick.wav
448,192,112956,1,0,0:0:0:0:
64,192,113120,1,0,0:0:0:0:
192,192,113284,1,0,0:0:0:40:kick.wav
448,192,113284,1,0,0:0:0:0:
320,192,113448,1,0,0:0:0:0:
64,192,113612,1,0,0:0:0:40:kick.wav
448,192,113612,1,0,0:0:0:40:snaer.wav
320,192,113776,1,0,0:0:0:0:
192,192,113940,1,0,0:0:0:0:
448,192,114104,1,0,0:0:0:0:
64,192,114268,1,0,0:0:0:40:kick.wav
320,192,114268,1,0,0:0:0:0:
192,192,114432,1,0,0:0:0:0:
320,192,114596,1,0,0:0:0:40:kick.wav
448,192,114596,1,0,0:0:0:0:
192,192,114760,1,0,0:0:0:0:
64,192,114924,1,0,0:0:0:40:kick.wav
448,192,114924,1,0,0:0:0:40:snaer.wav
320,192,115088,1,0,0:0:0:0:
448,192,115251,1,0,0:0:0:0:
192,192,115415,1,0,0:0:0:0:
64,192,115579,1,0,0:0:0:40:kick.wav
320,192,115579,1,0,0:0:0:0:
448,192,115743,1,0,0:0:0:0:
64,192,115907,1,0,0:0:0:40:kick.wav
192,192,115907,1,0,0:0:0:0:
320,192,116071,1,0,0:0:0:0:
192,192,116235,1,0,0:0:0:40:kick.wav
448,192,116235,1,0,0:0:0:40:snaer.wav
64,192,116399,1,0,0:0:0:0:
320,192,116563,1,0,0:0:0:0:
192,192,116727,1,0,0:0:0:0:
64,192,116891,1,0,0:0:0:40:kick.wav
320,192,116891,1,0,0:0:0:40:crash.wav
448,192,116891,1,0,0:0:0:0:
448,192,117055,1,0,0:0:0:0:
64,192,117219,1,0,0:0:0:40:kick.wav
192,192,117219,1,0,0:0:0:0:
320,192,117383,1,0,0:0:0:0:
64,192,117547,1,0,0:0:0:40:kick.wav
448,192,117547,1,0,0:0:0:40:snaer.wav
192,192,117710,1,0,0:0:0:0:
448,192,117874,1,0,0:0:0:0:
192,192,118038,1,0,0:0:0:0:
64,192,118202,1,0,0:0:0:40:kick.wav
320,192,118202,1,0,0:0:0:0:
192,192,118366,1,0,0:0:0:0:
64,192,118530,1,0,0:0:0:40:kick.wav
448,192,118530,1,0,0:0:0:0:
320,192,118694,1,0,0:0:0:0:
64,192,118858,1,0,0:0:0:40:kick.wav
192,192,118858,1,0,0:0:0:40:snaer.wav
320,192,119022,1,0,0:0:0:0:
448,192,119186,1,0,0:0:0:0:
64,192,119350,1,0,0:0:0:0:
320,192,119514,1,0,0:0:0:40:kick.wav
448,192,119514,1,0,0:0:0:0:
192,192,119678,1,0,0:0:0:0:
64,192,119842,1,0,0:0:0:40:kick.wav
320,192,119842,1,0,0:0:0:0:
192,192,120006,1,0,0:0:0:0:
64,192,120170,1,0,0:0:0:40:kick.wav
448,192,120170,1,0,0:0:0:40:snaer.wav
192,192,120333,1,0,0:0:0:0:
448,192,120497,1,0,0:0:0:0:
64,192,120661,1,0,0:0:0:0:
192,192,120825,1,0,0:0:0:40:kick.wav
448,192,120825,1,0,0:0:0:0:
320,192,120989,1,0,0:0:0:0:
64,192,121153,1,0,0:0:0:40:kick.wav
192,192,121153,1,0,0:0:0:0:
320,192,121317,1,0,0:0:0:0:
64,192,121481,1,0,0:0:0:40:kick.wav
448,192,121481,1,0,0:0:0:40:snaer.wav
192,192,121645,1,0,0:0:0:0:
448,192,121809,1,0,0:0:0:0:
192,192,121973,1,0,0:0:0:0:
64,192,122137,1,0,0:0:0:40:kick.wav
320,192,122137,1,0,0:0:0:40:crash.wav
448,192,122137,1,0,0:0:0:0:
320,192,122301,1,0,0:0:0:0:
64,192,122465,1,0,0:0:0:40:kick.wav
448,192,122465,1,0,0:0:0:0:
192,192,122629,1,0,0:0:0:0:
320,192,122792,1,0,0:0:0:40:kick.wav
448,192,122792,1,0,0:0:0:40:snaer.wav
64,192,122956,1,0,0:0:0:0:
320,192,123120,1,0,0:0:0:0:
192,192,123284,1,0,0:0:0:0:
64,192,123448,1,0,0:0:0:40:kick.wav
448,192,123448,1,0,0:0:0:0:
320,192,123612,1,0,0:0:0:0:
64,192,123776,1,0,0:0:0:40:kick.wav
192,192,123776,1,0,0:0:0:0:
320,192,123940,1,0,0:0:0:0:
192,192,124104,1,0,0:0:0:40:kick.wav
448,192,124104,1,0,0:0:0:40:snaer.wav
64,192,124268,1,0,0:0:0:0:
192,192,124432,1,0,0:0:0:0:
448,192,124596,1,0,0:0:0:0:
64,192,124760,1,0,0:0:0:40:kick.wav
320,192,124760,1,0,0:0:0:0:
192,192,124924,1,0,0:0:0:0:
320,192,125088,1,0,0:0:0:40:kick.wav
448,192,125088,1,0,0:0:0:0:
64,192,125251,1,0,0:0:0:0:
192,192,125415,1,0,0:0:0:40:kick.wav
448,192,125415,1,0,0:0:0:40:snaer.wav
320,192,125579,1,0,0:0:0:0:
448,192,125743,1,0,0:0:0:0:
192,192,125907,1,0,0:0:0:0:
64,192,126071,1,0,0:0:0:40:kick.wav
320,192,126071,1,0,0:0:0:0:
448,192,126235,1,0,0:0:0:0:
64,192,126399,1,0,0:0:0:40:kick.wav
192,192,126399,1,0,0:0:0:0:
320,192,126563,1,0,0:0:0:0:
192,192,126727,1,0,0:0:0:40:kick.wav
448,192,126727,1,0,0:0:0:40:snaer.wav
64,192,126891,1,0,0:0:0:0:
320,192,127055,1,0,0:0:0:0:
192,192,127219,1,0,0:0:0:0:
64,192,127383,1,0,0:0:0:40:kick.wav
320,192,127383,1,0,0:0:0:40:crash.wav
448,192,127383,1,0,0:0:0:0:
64,192,127547,1,0,0:0:0:0:
448,192,127710,1,0,0:0:0:0:
320,192,127874,1,0,0:0:0:0:
64,192,128038,1,0,0:0:0:40:kick.wav
192,192,128038,1,0,0:0:0:40:snaer.wav
320,192,128202,1,0,0:0:0:0:
448,192,128366,1,0,0:0:0:0:
192,192,128530,1,0,0:0:0:0:
64,192,128694,1,0,0:0:0:40:kick.wav
320,192,128694,1,0,0:0:0:0:
192,192,128858,1,0,0:0:0:0:
448,192,129022,1,0,0:0:0:0:
320,192,129186,1,0,0:0:0:0:
64,192,129350,1,0,0:0:0:40:kick.wav
192,192,129350,1,0,0:0:0:40:snaer.wav
320,192,129514,1,0,0:0:0:0:
192,192,129678,1,0,0:0:0:40:kick.wav
448,192,129678,1,0,0:0:0:0:
64,192,129842,1,0,0:0:0:0:
320,192,130006,1,0,0:0:0:40:kick.wav
448,192,130006,1,0,0:0:0:0:
192,192,130170,1,0,0:0:0:0:
64,192,130333,1,0,0:0:0:40:kick.wav
320,192,130333,1,0,0:0:0:0:
192,192,130497,1,0,0:0:0:0:
64,192,130661,1,0,0:0:0:40:kick.wav
448,192,130661,1,0,0:0:0:40:snaer.wav
192,192,130825,1,0,0:0:0:0:
320,192,130989,1,0,0:0:0:40:kick.wav
448,192,130989,1,0,0:0:0:0:
64,192,131153,1,0,0:0:0:0:
192,192,131317,1,0,0:0:0:40:kick.wav
448,192,131317,1,0,0:0:0:40:snaer.wav
320,192,131481,1,0,0:0:0:0:
64,192,131645,1,0,0:0:0:40:kick.wav
192,192,131645,1,0,0:0:0:0:
320,192,131809,1,0,0:0:0:40:snaer.wav
448,192,131809,1,0,0:0:0:0:
64,192,131973,1,0,0:0:0:40:kick.wav
192,192,131973,1,0,0:0:0:0:
320,192,132137,1,0,0:0:0:0:
64,192,132301,1,0,0:0:0:40:kick.wav
448,192,132301,1,0,0:0:0:40:snaer.wav
192,192,132465,1,0,0:0:0:40:kick.wav
320,192,132465,1,0,0:0:0:40:snaer.wav
64,192,132629,1,0,0:0:0:40:kick.wav
320,192,132629,1,0,0:0:0:40:crash.wav
448,192,132629,1,0,0:0:0:0:
192,192,132792,1,0,0:0:0:0:
64,192,132956,1,0,0:0:0:40:kick.wav
320,192,132956,1,0,0:0:0:40:snaer.wav
448,192,133120,1,0,0:0:0:0:
192,192,133284,1,0,0:0:0:40:kick.wav
320,192,133284,1,0,0:0:0:0:
64,192,133448,1,0,0:0:0:0:
320,192,133612,1,0,0:0:0:40:kick.wav
448,192,133612,1,0,0:0:0:40:snaer.wav
192,192,133776,1,0,0:0:0:0:
64,192,133940,1,0,0:0:0:40:kick.wav
448,192,133940,1,0,0:0:0:0:
320,192,134104,1,0,0:0:0:0:
64,192,134268,1,0,0:0:0:40:kick.wav
192,192,134268,1,0,0:0:0:40:snaer.wav
448,192,134432,1,0,0:0:0:0:
192,192,134596,1,0,0:0:0:40:kick.wav
320,192,134596,1,0,0:0:0:0:
64,192,134760,1,0,0:0:0:0:
192,192,134924,1,0,0:0:0:40:kick.wav
448,192,134924,1,0,0:0:0:40:snaer.wav
320,192,135088,1,0,0:0:0:0:
64,192,135251,1,0,0:0:0:40:kick.wav
448,192,135251,1,0,0:0:0:0:
192,192,135415,1,0,0:0:0:0:
64,192,135579,1,0,0:0:0:40:kick.wav
320,192,135579,1,0,0:0:0:40:snaer.wav
448,192,135743,1,0,0:0:0:0:
192,192,135907,1,0,0:0:0:40:kick.wav
320,192,135907,1,0,0:0:0:0:
64,192,136071,1,0,0:0:0:0:
320,192,136235,1,0,0:0:0:40:kick.wav
448,192,136235,1,0,0:0:0:40:snaer.wav
192,192,136399,1,0,0:0:0:0:
64,192,136563,1,0,0:0:0:40:kick.wav
448,192,136563,1,0,0:0:0:0:
320,192,136727,1,0,0:0:0:0:
64,192,136891,1,0,0:0:0:40:kick.wav
192,192,136891,1,0,0:0:0:40:snaer.wav
448,192,137055,1,0,0:0:0:0:
64,192,137219,1,0,0:0:0:40:kick.wav
320,192,137219,1,0,0:0:0:0:
192,192,137383,1,0,0:0:0:0:
64,192,137547,128,0,137874:0:0:0:40:kick.wav
448,192,137547,1,0,0:0:0:40:snaer.wav
192,192,137874,1,0,0:0:0:40:kick.wav
448,192,137874,1,0,0:0:0:0:
320,192,138038,1,0,0:0:0:0:
64,192,138202,1,0,0:0:0:40:kick.wav
192,192,138202,1,0,0:0:0:40:snaer.wav
448,192,138366,1,0,0:0:0:0:
64,192,138530,1,0,0:0:0:40:kick.wav
192,192,138612,1,0,0:0:0:0:
320,192,138694,1,0,0:0:0:0:
448,192,138776,1,0,0:0:0:0:
64,192,138858,1,0,0:0:0:40:kick.wav
192,192,138858,1,0,0:0:0:40:snaer.wav
320,192,139022,1,0,0:0:0:0:
64,192,139186,1,0,0:0:0:40:kick.wav
448,192,139186,1,0,0:0:0:0:
320,192,139350,1,0,0:0:0:0:
192,192,139514,1,0,0:0:0:40:kick.wav
448,192,139514,1,0,0:0:0:40:snaer.wav
64,192,139678,1,0,0:0:0:0:
448,192,139842,1,0,0:0:0:40:kick.wav
320,192,139924,1,0,0:0:0:0:
192,192,140006,1,0,0:0:0:0:
64,192,140088,1,0,0:0:0:0:
320,192,140170,1,0,0:0:0:40:kick.wav
448,192,140170,1,0,0:0:0:40:snaer.wav
192,192,140333,1,0,0:0:0:0:
64,192,140497,1,0,0:0:0:40:kick.wav
320,192,140497,1,0,0:0:0:0:
448,192,140661,1,0,0:0:0:0:
64,192,140825,1,0,0:0:0:40:kick.wav
320,192,140825,1,0,0:0:0:40:snaer.wav
192,192,140989,1,0,0:0:0:0:
448,192,141153,1,0,0:0:0:40:kick.wav
320,192,141235,1,0,0:0:0:0:
192,192,141317,1,0,0:0:0:0:
64,192,141399,1,0,0:0:0:0:
320,192,141481,1,0,0:0:0:40:kick.wav
448,192,141481,1,0,0:0:0:40:snaer.wav
448,192,141645,1,0,0:0:0:0:
64,192,141809,1,0,0:0:0:40:kick.wav
192,192,141809,1,0,0:0:0:0:
448,192,141973,1,0,0:0:0:0:
64,192,142055,1,0,0:0:0:0:
192,192,142137,1,0,0:0:0:40:kick.wav
320,192,142137,1,0,0:0:0:40:snaer.wav
448,192,142301,1,0,0:0:0:0:
192,192,142465,1,0,0:0:0:40:kick.wav
64,192,142547,1,0,0:0:0:0:
448,192,142629,1,0,0:0:0:0:
320,192,142710,1,0,0:0:0:0:
64,192,142792,1,0,0:0:0:40:kick.wav
192,192,142792,1,0,0:0:0:40:snaer.wav
320,192,142956,1,0,0:0:0:0:
192,192,143120,1,0,0:0:0:40:kick.wav
448,192,143120,1,0,0:0:0:0:
64,192,143284,1,0,0:0:0:0:
320,192,143448,1,0,0:0:0:40:kick.wav
448,192,143448,1,0,0:0:0:40:snaer.wav
448,192,143612,1,0,0:0:0:0:
64,192,143776,1,0,0:0:0:40:kick.wav
192,192,143858,1,0,0:0:0:0:
448,192,143940,1,0,0:0:0:0:
320,192,144022,1,0,0:0:0:0:
64,192,144104,1,0,0:0:0:40:kick.wav
192,192,144104,1,0,0:0:0:40:snaer.wav
192,192,144268,1,0,0:0:0:0:
320,192,144432,1,0,0:0:0:40:kick.wav
448,192,144432,1,0,0:0:0:0:
320,192,144596,1,0,0:0:0:0:
64,192,144760,1,0,0:0:0:40:kick.wav
448,192,144760,1,0,0:0:0:40:snaer.wav
64,192,144924,1,0,0:0:0:0:
320,192,145088,1,0,0:0:0:40:kick.wav
448,192,145170,1,0,0:0:0:0:
192,192,145251,1,0,0:0:0:0:
64,192,145333,1,0,0:0:0:0:
320,192,145415,1,0,0:0:0:40:kick.wav
448,192,145415,1,0,0:0:0:40:snaer.wav
64,192,145579,1,0,0:0:0:0:
192,192,145743,1,0,0:0:0:40:kick.wav
320,192,145743,1,0,0:0:0:0:
320,192,145907,1,0,0:0:0:0:
64,192,146071,1,0,0:0:0:40:kick.wav
448,192,146071,1,0,0:0:0:40:snaer.wav
192,192,146235,1,0,0:0:0:0:
64,192,146399,1,0,0:0:0:40:kick.wav
192,192,146481,1,0,0:0:0:0:
320,192,146563,1,0,0:0:0:0:
448,192,146645,1,0,0:0:0:0:
64,192,146727,1,0,0:0:0:40:kick.wav
192,192,146727,1,0,0:0:0:40:snaer.wav
448,192,146891,1,0,0:0:0:0:
320,192,147055,1,0,0:0:0:70:LR_NBell_G5.wav
320,192,147383,1,0,0:0:0:70:LR_NBell_F#5.wav
64,192,147710,1,0,0:0:0:40:kick.wav
448,192,147710,1,0,0:0:0:70:LR_NBell_B5.wav
320,192,147874,1,0,0:0:0:70:LR_NBell_A5.wav
64,192,148038,1,0,0:0:0:40:kick.wav
448,192,148038,1,0,0:0:0:70:LR_NBell_G5.wav
192,192,148202,1,0,0:0:0:70:LR_NBell_F#5.wav
64,192,148366,128,0,148694:0:0:0:40:kick.wav
320,192,148366,1,0,0:0:0:40:crash.wav
448,192,148366,1,0,0:0:0:70:LR_NBell_E5.wav
192,192,148530,1,0,0:0:0:0:
320,192,148694,1,0,0:0:0:40:kick.wav
448,192,148694,1,0,0:0:0:40:snaer.wav
192,192,148858,1,0,0:0:0:0:
64,192,149022,1,0,0:0:0:40:kick.wav
320,192,149022,128,0,149350:0:0:0:70:LR_NBell_F#5.wav
448,192,149186,1,0,0:0:0:0:
64,192,149350,1,0,0:0:0:40:kick.wav
192,192,149350,1,0,0:0:0:40:snaer.wav
320,192,149514,128,0,149678:0:0:0:70:LR_NBell_E5.wav
192,192,149678,1,0,0:0:0:40:kick.wav
448,192,149678,1,0,0:0:0:0:
64,192,149842,1,0,0:0:0:0:
192,192,150006,1,0,0:0:0:40:kick.wav
320,192,150006,1,0,0:0:0:40:snaer.wav
448,192,150170,1,0,0:0:0:0:
64,192,150333,1,0,0:0:0:40:kick.wav
192,192,150333,1,0,0:0:0:0:
320,192,150497,1,0,0:0:0:70:LR_NBell_B4.wav
64,192,150661,1,0,0:0:0:40:kick.wav
448,192,150661,128,0,150989:0:0:0:40:snaer.wav
320,192,150825,1,0,0:0:0:0:
64,192,150989,1,0,0:0:0:40:kick.wav
192,192,150989,128,0,151317:0:0:0:70:LR_NBell_A5.wav
320,192,151153,1,0,0:0:0:0:
64,192,151317,1,0,0:0:0:40:kick.wav
448,192,151317,1,0,0:0:0:40:snaer.wav
320,192,151481,1,0,0:0:0:0:
64,192,151645,128,0,151809:0:0:0:40:kick.wav
192,192,151645,1,0,0:0:0:70:LR_NBell_F#5.wav
448,192,151809,1,0,0:0:0:70:LR_NBell_G5.wav
192,192,151973,128,0,152137:0:0:0:40:kick.wav
320,192,151973,1,0,0:0:0:40:snaer.wav
64,192,152137,1,0,0:0:0:70:LR_NBell_E5.wav
320,192,152301,1,0,0:0:0:40:kick.wav
448,192,152301,1,0,0:0:0:70:LR_NBell_F#5.wav
192,192,152465,1,0,0:0:0:70:LR_NBell_E5.wav
64,192,152629,1,0,0:0:0:40:kick.wav
320,192,152629,128,0,152792:0:0:0:40:snaer.wav
192,192,152792,1,0,0:0:0:70:LR_NBell_E5.wav
320,192,152956,1,0,0:0:0:40:kick.wav
448,192,152956,128,0,153120:0:0:0:70:LR_NBell_E6.wav
64,192,153120,1,0,0:0:0:70:LR_NBell_B5.wav
320,192,153284,128,0,153448:0:0:0:40:kick.wav
448,192,153284,1,0,0:0:0:40:snaer.wav
64,192,153448,1,0,0:0:0:70:LR_NBell_G6.wav
192,192,153612,128,0,153940:0:0:0:40:kick.wav
320,192,153612,1,0,0:0:0:70:LR_NBell_D6.wav
448,192,153776,1,0,0:0:0:0:
64,192,153940,1,0,0:0:0:40:kick.wav
320,192,153940,1,0,0:0:0:40:snaer.wav
448,192,154104,1,0,0:0:0:0:
64,192,154268,1,0,0:0:0:40:kick.wav
192,192,154268,1,0,0:0:0:70:LR_NBell_E6.wav
192,192,154432,1,0,0:0:0:70:LR_NBell_E6.wav
320,192,154596,1,0,0:0:0:40:kick.wav
448,192,154596,1,0,0:0:0:40:snaer.wav
320,192,154760,1,0,0:0:0:70:LR_NBell_E6.wav
64,192,154924,1,0,0:0:0:40:kick.wav
448,192,154924,1,0,0:0:0:70:LR_NBell_E6.wav
320,192,155088,1,0,0:0:0:0:
64,192,155251,1,0,0:0:0:40:kick.wav
192,192,155251,128,0,155415:0:0:0:40:snaer.wav
320,192,155415,1,0,0:0:0:0:
64,192,155579,1,0,0:0:0:40:kick.wav
448,192,155579,128,0,155743:0:0:0:70:LR_NBell_F#6.wav
192,192,155743,1,0,0:0:0:0:
320,192,155907,1,0,0:0:0:40:kick.wav
448,192,155907,1,0,0:0:0:40:snaer.wav
320,192,156071,128,0,156235:0:0:0:70:LR_NBell_F#6.wav
64,192,156235,1,0,0:0:0:40:kick.wav
192,192,156235,1,0,0:0:0:0:
448,192,156399,1,0,0:0:0:0:
64,192,156563,1,0,0:0:0:40:kick.wav
192,192,156563,1,0,0:0:0:40:snaer.wav
448,192,156727,1,0,0:0:0:0:
64,192,156891,1,0,0:0:0:40:kick.wav
192,192,156891,1,0,0:0:0:0:
448,192,157055,1,0,0:0:0:0:
192,192,157219,1,0,0:0:0:40:kick.wav
320,192,157219,1,0,0:0:0:40:snaer.wav
64,192,157383,1,0,0:0:0:0:
320,192,157547,1,0,0:0:0:40:kick.wav
448,192,157547,1,0,0:0:0:0:
64,192,157710,1,0,0:0:0:0:
448,192,157874,128,0,158038:0:0:0:70:LR_NBell_E6.wav
320,192,158038,128,0,158202:0:0:0:0:
192,192,158202,128,0,158858:0:0:0:70:LR_NBell_C6.wav
448,192,158530,1,0,0:0:0:70:LR_NBell_C6.wav
64,192,158858,1,0,0:0:0:40:kick.wav
320,192,158858,1,0,0:0:0:40:crash.wav
448,192,158858,1,0,0:0:0:0:
192,192,159022,1,0,0:0:0:0:
64,192,159186,128,0,159350:0:0:0:40:kick.wav
320,192,159186,1,0,0:0:0:40:snaer.wav
448,192,159350,1,0,0:0:0:0:
192,192,159514,1,0,0:0:0:40:kick.wav
320,192,159514,128,0,159842:0:0:0:70:LR_NBell_B4.wav
64,192,159678,1,0,0:0:0:0:
192,192,159842,1,0,0:0:0:40:kick.wav
448,192,159842,1,0,0:0:0:40:snaer.wav
320,192,160006,1,0,0:0:0:0:
64,192,160170,1,0,0:0:0:40:kick.wav
192,192,160170,1,0,0:0:0:0:
320,192,160333,128,0,160497:0:0:0:70:LR_NBell_B4.wav
64,192,160497,1,0,0:0:0:40:kick.wav
448,192,160497,128,0,160661:0:0:0:40:snaer.wav
192,192,160661,1,0,0:0:0:0:
320,192,160825,1,0,0:0:0:40:kick.wav
448,192,160825,128,0,161153:0:0:0:70:LR_NBell_E5.wav
64,192,160989,1,0,0:0:0:0:
192,192,161153,1,0,0:0:0:40:kick.wav
320,192,161153,1,0,0:0:0:40:snaer.wav
448,192,161317,1,0,0:0:0:0:
64,192,161481,1,0,0:0:0:40:kick.wav
192,192,161481,1,0,0:0:0:0:
320,192,161645,128,0,161809:0:0:0:70:LR_NBell_E5.wav
192,192,161809,1,0,0:0:0:40:kick.wav
448,192,161809,128,0,161973:0:0:0:40:snaer.wav
64,192,161973,1,0,0:0:0:0:
320,192,162137,128,0,162301:0:0:0:40:kick.wav
448,192,162137,1,0,0:0:0:70:LR_NBell_F#5.wav
192,192,162301,1,0,0:0:0:0:
64,192,162465,1,0,0:0:0:40:kick.wav
320,192,162465,128,0,162629:0:0:0:40:snaer.wav
448,192,162629,128,0,162792:0:0:0:70:LR_NBell_G5.wav
64,192,162792,128,0,162956:0:0:0:40:kick.wav
192,192,162792,1,0,0:0:0:70:LR_NBell_F#5.wav
320,192,162956,1,0,0:0:0:0:
448,192,163038,1,0,0:0:0:70:LR_NBell_G5.wav
64,192,163120,1,0,0:0:0:40:kick.wav
192,192,163120,1,0,0:0:0:40:snaer.wav
320,192,163284,128,0,163448:0:0:0:70:LR_NBell_F#5.wav
64,192,163448,128,0,163776:0:0:0:40:kick.wav
448,192,163448,1,0,0:0:0:70:LR_NBell_E5.wav
192,192,163612,1,0,0:0:0:0:
320,192,163776,1,0,0:0:0:40:kick.wav
448,192,163776,1,0,0:0:0:40:snaer.wav
64,192,163940,1,0,0:0:0:0:
192,192,164104,1,0,0:0:0:40:kick.wav
320,192,164104,1,0,0:0:0:0:
448,192,164268,1,0,0:0:0:70:LR_NBell_A5.wav
64,192,164432,1,0,0:0:0:40:kick.wav
192,192,164432,128,0,164596:0:0:0:40:snaer.wav
320,192,164596,1,0,0:0:0:0:
64,192,164760,128,0,164924:0:0:0:40:kick.wav
448,192,164760,1,0,0:0:0:70:LR_NBell_B5.wav
192,192,164924,1,0,0:0:0:0:
320,192,165088,128,0,165251:0:0:0:40:kick.wav
448,192,165088,1,0,0:0:0:40:snaer.wav
64,192,165251,1,0,0:0:0:0:
192,192,165415,1,0,0:0:0:40:kick.wav
448,192,165415,128,0,165579:0:0:0:70:LR_NBell_E6.wav
320,192,165579,1,0,0:0:0:0:
64,192,165743,1,0,0:0:0:40:kick.wav
448,192,165743,1,0,0:0:0:40:snaer.wav
192,192,165907,128,0,166071:0:0:0:70:LR_NBell_B5.wav
64,192,166071,1,0,0:0:0:40:kick.wav
320,192,166071,128,0,166235:0:0:0:70:LR_NBell_E6.wav
192,192,166235,1,0,0:0:0:0:
448,192,166317,1,0,0:0:0:70:LR_NBell_F#6.wav
64,192,166399,1,0,0:0:0:40:kick.wav
192,192,166399,1,0,0:0:0:40:snaer.wav
320,192,166563,128,0,166727:0:0:0:70:LR_NBell_G6.wav
64,192,166727,1,0,0:0:0:40:kick.wav
448,192,166727,1,0,0:0:0:0:
192,192,166891,128,0,167055:0:0:0:70:LR_NBell_E6.wav
320,192,167055,128,0,167219:0:0:0:40:kick.wav
448,192,167055,1,0,0:0:0:40:snaer.wav
64,192,167219,1,0,0:0:0:0:
320,192,167383,128,0,167547:0:0:0:40:kick.wav
448,192,167383,1,0,0:0:0:70:LR_NBell_F#6.wav
64,192,167547,1,0,0:0:0:0:
192,192,167710,128,0,167874:0:0:0:40:kick.wav
320,192,167710,1,0,0:0:0:40:snaer.wav
448,192,167874,128,0,168038:0:0:0:70:LR_NBell_G6.wav
64,192,168038,128,0,168202:0:0:0:40:kick.wav
192,192,168038,1,0,0:0:0:70:LR_NBell_F#6.wav
320,192,168202,1,0,0:0:0:0:
448,192,168284,1,0,0:0:0:70:LR_NBell_G6.wav
64,192,168366,1,0,0:0:0:40:kick.wav
192,192,168366,1,0,0:0:0:40:snaer.wav
320,192,168530,128,0,168694:0:0:0:70:LR_NBell_F#6.wav
64,192,168694,128,0,169022:0:0:0:40:kick.wav
448,192,168694,1,0,0:0:0:70:LR_NBell_E6.wav
192,192,168858,1,0,0:0:0:0:
320,192,169022,1,0,0:0:0:40:kick.wav
448,192,169022,1,0,0:0:0:40:snaer.wav
64,192,169186,1,0,0:0:0:0:
192,192,169350,1,0,0:0:0:40:kick.wav
320,192,169350,1,0,0:0:0:40:crash.wav
448,192,169350,1,0,0:0:0:0:
320,192,169514,1,0,0:0:0:0:
64,192,169678,128,0,169842:0:0:0:40:kick.wav
192,192,169678,1,0,0:0:0:40:snaer.wav
448,192,169842,1,0,0:0:0:0:
192,192,170006,1,0,0:0:0:40:kick.wav
320,192,170006,128,0,170333:0:0:0:70:LR_NBell_B4.wav
64,192,170170,1,0,0:0:0:0:
192,192,170333,1,0,0:0:0:40:kick.wav
448,192,170333,1,0,0:0:0:40:snaer.wav
320,192,170497,1,0,0:0:0:0:
64,192,170661,1,0,0:0:0:40:kick.wav
448,192,170661,1,0,0:0:0:0:
320,192,170825,128,0,170989:0:0:0:70:LR_NBell_B4.wav
64,192,170989,1,0,0:0:0:40:kick.wav
448,192,170989,128,0,171153:0:0:0:40:snaer.wav
192,192,171153,1,0,0:0:0:0:
320,192,171317,1,0,0:0:0:40:kick.wav
448,192,171317,128,0,171645:0:0:0:70:LR_NBell_E5.wav
64,192,171481,1,0,0:0:0:0:
192,192,171645,1,0,0:0:0:40:kick.wav
320,192,171645,1,0,0:0:0:40:snaer.wav
448,192,171809,1,0,0:0:0:0:
64,192,171973,1,0,0:0:0:40:kick.wav
192,192,171973,1,0,0:0:0:0:
320,192,172137,128,0,172301:0:0:0:70:LR_NBell_E5.wav
192,192,172301,1,0,0:0:0:40:kick.wav
448,192,172301,128,0,172465:0:0:0:40:snaer.wav
64,192,172465,1,0,0:0:0:0:
320,192,172629,128,0,172792:0:0:0:40:kick.wav
448,192,172629,1,0,0:0:0:70:LR_NBell_F#5.wav
192,192,172792,1,0,0:0:0:0:
64,192,172956,1,0,0:0:0:40:kick.wav
192,192,172956,128,0,173120:0:0:0:40:snaer.wav
448,192,173120,128,0,173284:0:0:0:70:LR_NBell_G5.wav
64,192,173284,128,0,173448:0:0:0:40:kick.wav
192,192,173284,1,0,0:0:0:70:LR_NBell_F#5.wav
320,192,173448,1,0,0:0:0:0:
448,192,173530,1,0,0:0:0:70:LR_NBell_G5.wav
64,192,173612,1,0,0:0:0:40:kick.wav
192,192,173612,1,0,0:0:0:40:snaer.wav
320,192,173776,128,0,173940:0:0:0:70:LR_NBell_A5.wav
192,192,173940,128,0,174268:0:0:0:40:kick.wav
448,192,173940,1,0,0:0:0:70:LR_NBell_B5.wav
64,192,174104,1,0,0:0:0:0:
320,192,174268,1,0,0:0:0:40:kick.wav
448,192,174268,1,0,0:0:0:40:snaer.wav
192,192,174432,1,0,0:0:0:0:
64,192,174596,1,0,0:0:0:40:kick.wav
320,192,174596,1,0,0:0:0:0:
448,192,174760,1,0,0:0:0:0:
64,192,174924,1,0,0:0:0:40:kick.wav
192,192,174924,128,0,175088:0:0:0:40:snaer.wav
320,192,175088,1,0,0:0:0:0:
64,192,175251,128,0,175415:0:0:0:40:kick.wav
192,192,175251,1,0,0:0:0:70:LR_NBell_B5.wav
448,192,175415,1,0,0:0:0:0:
192,192,175579,1,0,0:0:0:40:kick.wav
320,192,175579,128,0,175743:0:0:0:40:snaer.wav
64,192,175743,1,0,0:0:0:0:
192,192,175907,1,0,0:0:0:40:kick.wav
448,192,175907,128,0,176071:0:0:0:70:LR_NBell_E6.wav
320,192,176071,1,0,0:0:0:0:
64,192,176235,1,0,0:0:0:40:kick.wav
448,192,176235,1,0,0:0:0:40:snaer.wav
192,192,176399,128,0,176563:0:0:0:70:LR_NBell_B5.wav
64,192,176563,1,0,0:0:0:40:kick.wav
320,192,176563,128,0,176727:0:0:0:70:LR_NBell_E6.wav
192,192,176727,1,0,0:0:0:0:
448,192,176809,1,0,0:0:0:70:LR_NBell_F#6.wav
64,192,176891,1,0,0:0:0:40:kick.wav
192,192,176891,1,0,0:0:0:40:snaer.wav
320,192,177055,128,0,177219:0:0:0:70:LR_NBell_G6.wav
64,192,177219,1,0,0:0:0:40:kick.wav
448,192,177219,1,0,0:0:0:0:
192,192,177383,128,0,177547:0:0:0:70:LR_NBell_E6.wav
320,192,177547,128,0,177710:0:0:0:40:kick.wav
448,192,177547,1,0,0:0:0:40:snaer.wav
64,192,177710,1,0,0:0:0:0:
320,192,177874,128,0,178038:0:0:0:40:kick.wav
448,192,177874,1,0,0:0:0:70:LR_NBell_F#6.wav
64,192,178038,1,0,0:0:0:0:
192,192,178202,128,0,178366:0:0:0:40:kick.wav
320,192,178202,1,0,0:0:0:40:snaer.wav
448,192,178366,128,0,178530:0:0:0:70:LR_NBell_G6.wav
64,192,178530,128,0,178694:0:0:0:40:kick.wav
192,192,178530,128,0,178694:0:0:0:40:snaer.wav
64,192,178776,128,0,178940:0:0:0:40:kick.wav
320,192,178776,128,0,178940:0:0:0:40:snaer.wav
192,192,179022,128,0,179104:0:0:0:40:kick.wav
448,192,179022,128,0,179104:0:0:0:40:snaer.wav
320,192,179186,1,0,0:0:0:40:kick.wav
448,192,179186,128,0,179514:0:0:0:40:snaer.wav
64,192,179514,128,0,180825:0:0:0:40:kick.wav
320,192,179842,1,0,0:0:0:40:kick.wav
448,192,179842,128,0,180825:0:0:0:40:crash.wav
