osu file format v14

[General]
AudioFilename: audio.mp3
AudioLeadIn: 0
PreviewTime: 37661
Countdown: 1
SampleSet: Soft
StackLeniency: 0.7
Mode: 0
LetterboxInBreaks: 0
WidescreenStoryboard: 0

[Editor]
DistanceSpacing: 1
BeatDivisor: 4
GridSize: 8
TimelineZoom: 2.2

[Metadata]
Title:Flirt Flirt Oh It Hurts
TitleUnicode:Flirt Flirt Oh It Hurts
Artist:Bossfight
ArtistUnicode:Bossfight
Creator:Eternitysleeper
Version:Hurt
Source:Bossfight
Tags:Bossfig, bossfight, bosfight, Bosfight, Flirt Flirt oh it hurts, Flirt Flirt, боссфайт, босфайт, Боссфайт, Босфайт, флирт флирт ох ит хартс, Flirt Flirt Oh it hurts
BeatmapID:1487624
BeatmapSetID:703091

[Difficulty]
HPDrainRate:7
CircleSize:4
OverallDifficulty:9
ApproachRate:9.4
SliderMultiplier:1
SliderTickRate:2

[Events]
//Background and Video events
0,0,"no.png",0,0
//Break Periods
2,109111,114055
2,143396,148341
//Storyboard Layer 0 (Background)
//Storyboard Layer 1 (Fail)
//Storyboard Layer 2 (Pass)
//Storyboard Layer 3 (Foreground)
//Storyboard Layer 4 (Overlay)
//Storyboard Sound Samples

[TimingPoints]
339.658965385616,357.143317445186,4,2,0,65,1,0
40250,-100,4,2,0,80,0,1
63286,-100,4,2,0,40,0,0
73821,-100,4,2,0,65,0,1
109000,-100,4,2,0,65,0,0
118349,-100,4,2,0,5,0,0
118643,-100,4,2,0,65,0,0
153464,-100,4,2,0,5,0,0
153732,-100,4,2,0,40,0,0
164357,-100,4,2,0,65,0,0
165964,-100,4,2,0,65,0,1
177572,-100,4,2,0,95,0,1
187572,-100,4,2,0,65,0,0

[HitObjects]
152,80,339,5,0,0:0:0:0:
314,242,696,1,0,0:0:0:0:
145,229,1053,1,0,0:0:0:0:
336,96,1411,1,0,0:0:0:0:
144,64,1768,1,0,0:0:0:0:
320,248,2125,1,0,0:0:0:0:
136,224,2482,1,0,0:0:0:0:
232,144,2661,1,0,0:0:0:0:
288,256,2839,1,0,0:0:0:0:
149,81,3196,5,0,0:0:0:0:
314,234,3553,1,0,0:0:0:0:
134,220,3910,1,0,0:0:0:0:
316,90,4268,1,0,0:0:0:0:
144,64,4625,1,0,0:0:0:0:
286,215,4982,1,0,0:0:0:0:
231,331,5339,1,0,0:0:0:0:
368,192,5696,1,0,0:0:0:0:
224,248,6053,6,0,P|192:184|208:144,2,100
376,192,7125,1,0,0:0:0:0:
120,192,7303,1,0,0:0:0:0:
200,192,7482,2,0,L|312:192,2,100
369,263,8553,1,0,0:0:0:0:
160,240,8911,6,0,P|208:160|232:144,2,100
256,272,9982,1,0,0:0:0:0:
136,160,10161,1,0,0:0:0:0:
352,120,10518,1,0,0:0:0:0:
232,72,10696,1,0,0:0:0:0:
136,192,10875,1,0,0:0:0:0:
240,192,11053,2,0,L|296:192,2,50
264,264,11589,5,0,0:0:0:0:
200,192,11768,2,0,P|240:144|272:176,1,100
128,245,12482,1,0,0:0:0:0:
166,92,12839,1,0,0:0:0:0:
260,122,13196,1,0,0:0:0:0:
345,86,13553,1,0,0:0:0:0:
386,253,13911,1,0,0:0:0:0:
232,168,14268,1,0,0:0:0:0:
240,304,14625,2,0,B|272:248|264:256|248:248|288:216,2,100
296,120,15696,1,0,0:0:0:0:
152,240,15875,1,0,0:0:0:0:
48,192,16053,2,0,P|32:128|40:88,1,100
144,104,16768,5,2,0:0:0:0:
168,208,16946,1,2,0:0:0:0:
304,104,17125,1,2,0:0:0:0:
264,208,17303,1,2,0:0:0:0:
352,192,17482,2,0,P|416:144|432:144,2,100,0|2|0,0:0|0:0|0:0,0:0:0:0:
256,120,18553,5,2,0:0:0:0:
256,280,18732,1,0,0:0:0:0:
176,184,18911,2,0,P|112:168|88:144,2,100,0|2|0,0:0|0:0|0:0,0:0:0:0:
360,80,19982,1,2,0:0:0:0:
256,200,20339,6,0,P|208:184|184:144,1,100,0|2,0:0|0:0,0:0:0:0:
112,56,21053,1,0,0:0:0:0:
248,200,21411,1,2,0:0:0:0:
248,296,21589,2,0,L|248:352,2,50
176,256,22125,1,2,0:0:0:0:
176,144,22303,1,0,0:0:0:0:
336,224,22482,1,0,0:0:0:0:
256,200,22839,6,0,L|256:144,2,50,2|0|0,0:0|0:0|0:0,0:0:0:0:
256,64,23553,1,2,0:0:0:0:
416,296,23911,5,0,0:0:0:0:
376,160,24268,1,2,0:0:0:0:
248,240,24625,1,0,0:0:0:0:
104,112,24982,1,2,0:0:0:0:
184,144,25339,2,0,L|184:32,2,100,0|2|0,0:0|0:0|0:0,0:0:0:0:
256,312,26411,2,0,L|256:240,2,50,2|0|0,0:0|0:0|0:0,0:0:0:0:
248,40,27125,1,2,0:0:0:0:
160,168,27303,1,0,0:0:0:0:
336,168,27482,1,0,0:0:0:0:
256,40,27839,1,2,0:0:0:0:
120,256,28196,5,2,0:0:0:0:
192,128,28375,1,2,0:0:0:0:
256,280,28553,1,2,0:0:0:0:
184,216,28732,1,2,0:0:0:0:
272,192,28911,2,0,P|296:128|336:96,2,100,0|2|0,0:0|0:0|0:0,0:0:0:0:
160,248,29982,1,2,0:0:0:0:
256,112,30161,1,0,0:0:0:0:
384,256,30339,2,0,L|384:144,2,100,0|2|0,0:0|0:0|0:0,0:0:0:0:
160,320,31411,1,2,0:0:0:0:
384,192,31768,6,0,B|376:192|376:176|384:168|392:176|400:184|408:168|376:160|360:152|368:144|384:144|392:136|392:128|376:120|376:104|360:112,1,100,0|2,0:0|0:0,0:0:0:0:
256,56,32482,1,0,0:0:0:0:
122,216,32839,2,0,B|114:216|114:200|122:192|130:200|138:208|114:192|114:184|114:184|114:184|122:184|122:184|122:184|122:184|122:184|122:184,1,50,2|0,0:0|0:0,0:0:0:0:
360,128,33375,2,0,L|320:168,1,50,0|2,0:0|0:0,0:0:0:0:
216,256,33732,2,0,L|264:208,1,50
224,104,34089,2,0,L|264:160,1,50,0|2,0:0|0:0,0:0:0:0:
256,248,34446,1,0,0:0:0:0:
168,192,34625,6,2,L|240:120,1,100,0|2,0:0|0:0,0:0:0:0:
344,200,35339,2,0,L|280:112,1,100,0|2,0:0|0:0,0:0:0:0:
133,205,36053,1,0,0:0:0:0:
236,61,36411,1,2,0:0:0:0:
309,211,36768,1,0,0:0:0:0:
161,346,37125,1,2,0:0:0:0:
70,200,37482,1,0,0:0:0:0:
192,64,37839,5,2,0:0:0:0:
275,236,38196,1,0,0:0:0:0:
72,208,38553,1,2,0:0:0:0:
200,88,38732,1,0,0:0:0:0:
184,240,38911,2,0,L|264:328,2,100,0|2|0,0:0|0:0|0:0,0:0:0:0:
160,224,39803,1,2,0:0:0:0:
256,88,39982,1,2,0:0:0:0:
328,248,40161,1,2,0:0:0:0:
256,208,40339,6,0,B|248:256|256:264|248:272|248:256|256:264|256:248|256:256|248:256|248:256|248:256,2,50,0|2|0,0:0|0:0|0:0,0:0:0:0:
96,249,41053,2,0,B|121:168|125:168|124:158|120:150|146:148,1,100,0|2,0:0|0:0,0:0:0:0:
376,184,41589,1,0,0:0:0:0:
224,120,41768,1,0,0:0:0:0:
320,288,41946,1,0,0:0:0:0:
320,120,42125,1,2,0:0:0:0:
183,221,42303,1,0,0:0:0:0:
336,208,42482,2,0,B|256:168|264:160|224:176,2,100,0|2|0,0:0|0:0|0:0,0:0:0:0:
256,32,43375,5,0,0:0:0:0:
256,104,43554,2,0,L|256:224,2,100,2|0|2,0:0|0:0|0:0,0:0:0:0:
384,184,44446,1,0,0:0:0:0:
256,288,44625,1,0,0:0:0:0:
136,184,44804,1,0,0:0:0:0:
232,192,44982,1,2,0:0:0:0:
256,88,45161,1,0,0:0:0:0:
232,192,45339,2,0,B|176:240|200:288|256:272|248:280|248:280,2,100,0|2|0,0:0|0:0|0:0,0:0:0:0:
144,232,46232,5,0,0:0:0:0:
248,80,46411,1,2,0:0:0:0:
426,135,46768,1,0,0:0:0:0:
160,248,47125,1,2,0:0:0:0:
360,224,47304,2,0,P|312:216|296:208,1,50
248,288,47839,1,2,0:0:0:0:
128,232,48018,1,0,0:0:0:0:
184,104,48196,1,0,0:0:0:0:
256,216,48375,1,0,0:0:0:0:
344,104,48554,5,2,0:0:0:0:
400,232,48732,1,0,0:0:0:0:
264,104,48911,2,0,L|264:160,2,50,0|0|2,0:0|0:0|0:0,0:0:0:0:
128,112,49446,2,0,L|152:176,1,50
184,128,49982,1,2,0:0:0:0:
280,256,50161,1,0,0:0:0:0:
384,128,50339,1,0,0:0:0:0:
280,144,50696,1,2,0:0:0:0:
184,256,50875,1,0,0:0:0:0:
168,64,51054,5,2,0:0:0:0:
264,208,51232,1,2,0:0:0:0:
136,232,51411,1,2,0:0:0:0:
256,120,51589,1,2,0:0:0:0:
48,72,51768,6,0,L|136:152,1,100,0|2,0:0|0:0,0:0:0:0:
88,296,52482,1,0,0:0:0:0:
200,240,52839,1,2,0:0:0:0:
248,104,53018,1,0,0:0:0:0:
376,192,53196,1,0,0:0:0:0:
224,168,53375,1,0,0:0:0:0:
272,264,53554,1,2,0:0:0:0:
400,336,53732,1,0,0:0:0:0:
390,133,53911,2,0,P|318:69|302:61,2,100,0|2|0,0:0|0:0|0:0,0:0:0:0:
248,224,54804,1,0,0:0:0:0:
120,72,54982,5,2,0:0:0:0:
308,161,55339,1,0,0:0:0:0:
152,240,55696,1,2,0:0:0:0:
152,104,55875,1,0,0:0:0:0:
280,104,56054,1,0,0:0:0:0:
288,240,56232,1,0,0:0:0:0:
144,176,56411,1,2,0:0:0:0:
208,96,56589,1,0,0:0:0:0:
224,200,56768,2,0,P|168:288|168:288,2,100,0|2|0,0:0|0:0|0:0,0:0:0:0:
80,184,57661,5,0,3:3:0:0:
200,128,57839,1,2,0:0:0:0:
296,280,58196,1,0,0:0:0:0:
56,96,58554,1,2,0:0:0:0:
120,176,58732,1,0,0:0:0:0:
184,64,58911,1,0,0:0:0:0:
224,176,59089,1,0,0:0:0:0:
168,136,59268,2,0,P|216:104|224:104,2,50,2|0|0,0:0|0:0|0:0,0:0:0:0:
208,200,59804,1,0,0:0:0:0:
328,224,59982,5,2,0:0:0:0:
264,72,60161,1,0,0:0:0:0:
128,168,60339,1,0,0:0:0:0:
80,272,60518,2,0,P|120:296|144:296,1,50,0|2,0:0|0:0,0:0:0:0:
296,272,60875,2,0,P|272:288|248:296,1,50
103,197,61411,1,2,0:0:0:0:
215,169,61589,1,0,0:0:0:0:
224,56,61768,1,0,0:0:0:0:
352,320,62125,1,2,0:0:0:0:
443,238,62304,1,0,0:0:0:0:
416,72,62482,5,2,0:0:0:0:
344,184,62661,1,2,0:0:0:0:
272,48,62839,1,2,0:0:0:0:
408,128,63018,1,2,0:0:0:0:
432,280,63196,5,4,0:0:0:0:
257,233,63554,1,0,0:0:0:0:
155,89,63911,1,0,0:0:0:0:
280,104,64268,2,0,B|272:168|272:168|272:160,1,50
424,144,64625,1,0,0:0:0:0:
408,304,64982,1,0,0:0:0:0:
168,160,65339,2,0,L|192:224,1,50
288,160,65696,2,0,L|272:224,1,50
104,296,66232,1,0,0:0:0:0:
147,96,66411,1,0,0:0:0:0:
124,201,66589,2,0,B|164:164|216:170|240:151|256:173|263:189|281:165|281:165|282:178|282:178|291:167|291:167|292:179|292:179|299:169|299:169|301:178|301:178|309:169|309:169|313:180|313:180|331:170|331:170|332:182|332:182|340:172|340:172|342:184|342:184|352:176|352:176|351:186|351:186|363:178|363:178|361:188|361:188|375:180|375:180|373:191|373:191|384:182|384:182|383:193|383:193|393:184|393:184|390:197|410:197|390:191|395:191|397:191|387:192,1,450
411,315,68375,6,0,L|359:273,1,50
282,232,68732,1,0,0:0:0:0:
172,198,68911,2,0,B|210:169|291:143|291:143|296:131|296:131|302:139|302:139|311:130|311:130|319:136|319:136|348:135|358:150|387:157|404:178|418:185|433:167|433:167,1,300
171,94,70339,1,0,0:0:0:0:
270,267,71054,1,0,0:0:0:0:
126,233,71768,6,0,B|179:185|208:190|248:187|263:175|280:200|304:189|306:205|321:200|321:200|321:210|321:210|337:204|338:204|344:220|344:220|355:214|355:214|354:222|354:222|361:217|361:217|361:224|361:224|379:225,1,300
280,280,73018,1,8,0:0:0:0:
248,288,73107,1,8,0:0:0:0:
224,288,73196,2,0,P|152:224|152:208,1,100,8|0,0:0|0:0,0:0:0:0:
40,240,73911,5,2,0:0:0:0:
56,128,74089,1,2,0:0:0:0:
120,216,74268,1,2,0:0:0:0:
48,312,74446,1,2,0:0:0:0:
192,216,74625,6,0,L|248:216,1,50
264,80,74982,2,0,L|264:136,1,50,2|0,0:0|0:0,0:0:0:0:
376,216,75339,2,0,L|320:216,1,50
256,336,75696,2,0,L|256:264,1,50,2|0,0:0|0:0,0:0:0:0:
328,288,76054,1,0,0:0:0:0:
152,208,76232,1,0,0:0:0:0:
224,112,76411,5,2,0:0:0:0:
360,160,76589,1,0,0:0:0:0:
304,248,76768,1,0,0:0:0:0:
184,288,76946,1,0,0:0:0:0:
176,152,77125,1,2,0:0:0:0:
296,112,77304,1,0,0:0:0:0:
312,232,77482,2,0,L|368:232,2,50,0|0|2,0:0|0:0|0:0,0:0:0:0:
168,232,78018,2,0,L|112:232,2,50
304,160,78554,2,0,L|368:160,2,50,2|0|0,0:0|0:0|0:0,0:0:0:0:
184,160,79089,6,0,L|128:160,2,50,0|2|0,0:0|0:0|0:0,0:0:0:0:
248,224,79625,2,0,L|248:280,2,50,0|0|2,0:0|0:0|0:0,0:0:0:0:
160,80,80161,2,0,L|200:128,1,50
376,272,80518,2,0,L|328:232,1,50,0|2,0:0|0:0,0:0:0:0:
248,208,80875,1,0,0:0:0:0:
152,272,81054,1,0,0:0:0:0:
160,144,81232,1,0,0:0:0:0:
336,144,81411,1,2,0:0:0:0:
344,272,81589,1,0,0:0:0:0:
144,208,81768,5,0,0:0:0:0:
248,112,81946,1,0,0:0:0:0:
360,208,82125,1,2,0:0:0:0:
256,312,82304,1,0,0:0:0:0:
256,312,82482,2,0,L|256:256,2,50,0|0|2,0:0|0:0|0:0,0:0:0:0:
376,288,83018,2,0,L|336:256,2,50
136,288,83554,2,0,L|176:256,2,50,2|0|0,0:0|0:0|0:0,0:0:0:0:
128,104,84089,2,0,L|176:152,2,50,0|2|0,0:0|0:0|0:0,0:0:0:0:
352,96,84625,5,0,0:0:0:0:
224,224,84804,1,0,0:0:0:0:
344,184,84982,2,0,P|280:160|280:160,2,50,2|0|2,0:0|0:0|0:0,0:0:0:0:
280,280,85518,1,2,0:0:0:0:
184,128,85696,1,2,0:0:0:0:
328,192,85875,1,2,0:0:0:0:
200,232,86054,2,0,B|224:168|232:176|240:176|256:144,2,100,4|0|0,0:0|0:0|0:0,0:0:0:0:
184,240,87125,1,0,0:0:0:0:
336,104,87304,1,0,0:0:0:0:
344,256,87482,6,0,L|264:184,1,100
152,72,88196,2,0,L|224:144,1,100
344,256,88911,2,0,L|264:184,1,100
120,193,89625,1,0,0:0:0:0:
256,264,89982,1,0,0:0:0:0:
256,104,90161,1,0,0:0:0:0:
382,203,90339,1,0,0:0:0:0:
151,180,90696,2,0,P|199:228|199:228,2,50
56,224,91411,5,0,0:0:0:0:
136,80,91589,1,0,0:0:0:0:
251,212,91768,2,0,P|275:124|291:100,2,100
347,154,92839,1,0,0:0:0:0:
161,249,93196,1,0,0:0:0:0:
349,293,93554,1,0,0:0:0:0:
208,115,93911,1,0,0:0:0:0:
248,322,94268,1,0,0:0:0:0:
400,234,94625,6,0,P|328:162|312:154,2,100
216,112,95696,1,0,0:0:0:0:
85,151,95875,2,0,L|85:207,1,50
288,240,96411,1,0,0:0:0:0:
176,264,96768,5,2,0:0:0:0:
272,128,96946,1,2,0:0:0:0:
304,248,97125,1,2,0:0:0:0:
160,112,97304,1,2,0:0:0:0:
411,191,97482,6,0,L|355:191,2,50
282,135,98196,2,0,P|218:103|178:103,1,100
224,256,98732,5,0,0:0:0:0:
280,112,98911,1,0,0:0:0:0:
320,232,99089,1,0,0:0:0:0:
168,144,99268,1,0,0:0:0:0:
136,256,99446,1,0,0:0:0:0:
208,208,99625,2,0,B|272:144|296:136|304:136,2,100
408,304,100518,1,0,0:0:0:0:
320,304,100696,1,0,0:0:0:0:
256,40,101054,1,0,0:0:0:0:
192,304,101411,5,0,0:0:0:0:
80,304,101589,1,0,0:0:0:0:
144,176,101768,1,0,0:0:0:0:
48,216,101946,1,0,0:0:0:0:
152,264,102125,1,0,0:0:0:0:
240,232,102304,1,0,0:0:0:0:
328,240,102482,2,0,P|280:152|264:144,2,100
256,40,103375,5,0,0:0:0:0:
256,264,103554,1,0,0:0:0:0:
104,120,103911,1,0,0:0:0:0:
432,200,104268,1,0,0:0:0:0:
264,210,104446,2,0,L|192:210,2,50
352,141,104982,1,0,0:0:0:0:
215,141,105161,1,0,0:0:0:0:
160,296,105339,1,0,0:0:0:0:
144,190,105518,1,0,0:0:0:0:
252,285,105696,5,0,0:0:0:0:
296,192,105875,1,0,0:0:0:0:
168,256,106054,1,0,0:0:0:0:
272,288,106232,2,0,P|304:312|336:312,1,50
448,272,106589,2,0,P|432:304|416:304,1,50
288,151,107125,5,0,0:0:0:0:
456,40,107304,2,0,B|432:72|440:80|432:88,1,50
408,192,107661,2,0,L|408:256,2,50
328,200,108196,1,2,0:0:0:0:
248,56,108375,1,2,0:0:0:0:
176,200,108554,1,2,0:0:0:0:
296,128,108732,1,2,0:0:0:0:
160,184,108911,1,4,0:0:0:0:
256,192,114625,12,0,118554,0:0:0:0:
144,232,118911,6,0,B|200:144|248:120|240:104|224:80|248:80|256:96|264:112|256:112|240:112|248:104|248:104|256:112,2,200
400,216,120518,1,0,0:0:0:0:
288,128,120696,1,0,0:0:0:0:
208,239,121054,1,0,0:0:0:0:
288,40,121411,1,0,0:0:0:0:
153,166,121768,1,0,0:0:0:0:
366,220,122125,1,0,0:0:0:0:
256,56,122482,2,0,L|256:112,2,50
256,176,123018,1,0,0:0:0:0:
256,296,123196,6,0,P|256:232|256:232,2,50
151,127,123911,1,0,0:0:0:0:
342,206,124268,1,0,0:0:0:0:
245,115,124625,1,0,0:0:0:0:
328,208,124804,1,0,0:0:0:0:
296,336,124982,1,0,0:0:0:0:
160,272,125161,1,0,0:0:0:0:
232,200,125339,2,0,L|232:136,2,50
344,184,125875,1,0,0:0:0:0:
232,80,126054,5,0,0:0:0:0:
128,184,126232,1,0,0:0:0:0:
240,272,126411,1,0,0:0:0:0:
240,136,126768,2,0,L|240:72,2,50
356,213,127482,1,0,0:0:0:0:
158,125,127839,1,0,0:0:0:0:
310,107,128196,1,0,0:0:0:0:
213,218,128375,1,0,0:0:0:0:
388,158,128554,1,0,0:0:0:0:
294,257,128732,1,0,0:0:0:0:
162,116,128911,6,0,L|213:165,2,50
363,284,129625,2,0,L|315:244,2,50
256,256,130339,1,0,0:0:0:0:
248,48,130696,1,0,0:0:0:0:
384,256,131054,1,0,0:0:0:0:
256,328,131232,1,0,0:0:0:0:
144,256,131411,1,0,0:0:0:0:
288,224,131589,1,0,0:0:0:0:
248,48,131768,5,0,0:0:0:0:
128,144,131946,1,0,0:0:0:0:
256,144,132125,1,0,0:0:0:0:
376,144,132482,2,0,P|336:112|320:104,1,50
224,80,132839,1,0,0:0:0:0:
104,240,133196,1,0,0:0:0:0:
176,88,133375,1,0,0:0:0:0:
232,208,133554,1,0,0:0:0:0:
376,48,133911,1,0,0:0:0:0:
304,144,134089,1,0,0:0:0:0:
432,192,134268,1,0,0:0:0:0:
392,320,134446,2,0,L|392:264,2,50
392,192,134982,5,0,0:0:0:0:
256,80,135339,1,0,0:0:0:0:
144,168,135518,1,0,0:0:0:0:
288,224,135696,1,0,0:0:0:0:
168,80,136054,1,0,0:0:0:0:
120,248,136232,1,0,0:0:0:0:
272,192,136411,1,0,0:0:0:0:
232,120,136589,1,0,0:0:0:0:
120,184,136768,1,0,0:0:0:0:
248,256,136946,1,0,0:0:0:0:
168,128,137125,1,0,0:0:0:0:
144,304,137304,2,0,P|168:256|176:240,2,50
296,136,137839,5,0,0:0:0:0:
400,104,138196,2,0,P|424:136|432:160,1,50
400,256,138554,1,0,0:0:0:0:
224,112,138911,2,0,P|200:144|200:168,1,50
208,256,139268,1,0,0:0:0:0:
329,235,139446,1,0,0:0:0:0:
304,104,139625,1,0,0:0:0:0:
424,168,139804,1,0,0:0:0:0:
240,192,139982,1,0,0:0:0:0:
384,264,140339,5,0,0:0:0:0:
384,128,140518,1,0,0:0:0:0:
248,128,140696,1,0,0:0:0:0:
296,208,141054,2,0,P|264:240|256:240,2,50
152,272,141589,2,0,P|136:232|144:208,2,50
192,80,142125,1,0,0:0:0:0:
256,208,142304,1,0,0:0:0:0:
376,80,142482,5,2,0:0:0:0:
320,256,142661,1,2,0:0:0:0:
240,104,142839,1,2,0:0:0:0:
176,288,143018,1,2,0:0:0:0:
304,176,143196,1,4,0:0:0:0:
256,192,148911,12,0,153554,0:0:0:0:
256,192,153911,5,0,0:0:0:0:
128,192,154089,1,8,0:0:0:0:
96,168,154179,1,8,0:0:0:0:
64,144,154268,1,8,0:0:0:0:
392,56,154625,5,0,0:0:0:0:
272,280,154982,1,2,0:0:0:0:
104,320,155161,1,0,0:0:0:0:
176,208,155697,1,2,0:0:0:0:
248,96,155875,1,0,0:0:0:0:
440,192,156054,2,0,B|376:256|376:256|360:272,1,100,0|2,0:0|0:0,0:0:0:0:
88,192,156768,2,0,L|176:272,1,100,0|2,0:0|0:0,0:0:0:0:
256,256,157482,5,0,0:0:0:0:
208,120,157839,2,0,L|320:120,1,100,2|0,0:0|0:0,0:0:0:0:
256,336,158554,2,0,L|256:272,1,50,2|0,0:0|0:0,0:0:0:0:
256,184,159089,1,0,0:0:0:0:
304,248,159268,2,0,P|256:256|240:248,2,50,2|0|0,0:0|0:0|0:0,0:0:0:0:
421,170,159982,2,0,L|373:130,2,50,2|0|0,0:0|0:0|0:0,0:0:0:0:
248,88,160697,1,2,0:0:0:0:
96,48,161054,5,0,0:0:0:0:
224,234,161411,1,2,0:0:0:0:
320,56,161768,1,0,0:0:0:0:
390,230,162125,1,2,0:0:0:0:
248,81,162482,1,0,0:0:0:0:
208,258,162839,1,2,0:0:0:0:
128,224,163197,6,0,P|160:184|216:176,1,100
384,224,163911,2,0,P|360:200|296:176,1,100
283,288,164447,1,0,0:0:0:0:
176,304,164625,1,2,0:0:0:0:
240,144,164804,1,2,0:0:0:0:
312,264,164982,1,2,0:0:0:0:
152,168,165161,1,2,0:0:0:0:
232,240,165339,2,2,L|272:200,2,50
320,152,165875,1,2,0:0:0:0:
160,240,166054,5,2,0:0:0:0:
256,264,166411,1,0,0:0:0:0:
120,264,166768,2,0,P|120:224|136:200,2,50
328,120,167482,1,2,0:0:0:0:
392,264,167661,1,2,0:0:0:0:
408,144,167839,1,2,0:0:0:0:
480,256,168018,1,2,0:0:0:0:
304,272,168197,2,0,L|248:256,1,50
148,143,168554,1,0,0:0:0:0:
55,316,168732,1,0,0:0:0:0:
180,266,168911,5,0,0:0:0:0:
79,140,169089,2,0,L|88:207,1,50
115,306,169447,2,0,L|102:250,1,50
195,183,169804,2,0,L|138:211,1,50
32,186,170161,2,0,L|80:207,1,50,0|2,0:0|0:0,0:0:0:0:
203,216,170518,1,2,0:0:0:0:
179,336,170697,1,2,0:0:0:0:
299,216,170875,1,2,0:0:0:0:
261,288,171054,2,2,P|221:288|213:280,1,50
272,184,171411,2,0,P|216:144|216:144,1,50
96,72,171768,6,0,L|128:176,2,100
104,64,172839,1,0,0:0:0:0:
320,296,173197,2,0,L|288:248,2,50
152,304,173911,1,0,0:0:0:0:
256,180,174268,1,0,0:0:0:0:
404,312,174625,1,0,0:0:0:0:
113,309,174982,1,0,0:0:0:0:
256,312,175339,1,0,0:0:0:0:
165,247,175518,2,0,L|205:215,1,50
327,119,175875,2,0,L|271:167,1,50
165,247,176411,6,0,L|209:213,1,50
285,235,176768,1,0,0:0:0:0:
320,104,176947,1,0,0:0:0:0:
409,188,177125,1,0,0:0:0:0:
234,135,177304,1,0,0:0:0:0:
363,247,177482,1,0,0:0:0:0:
352,48,177661,5,8,0:0:0:0:
352,80,177750,1,8,0:0:0:0:
352,112,177839,1,8,0:0:0:0:
168,48,178018,1,8,0:0:0:0:
168,80,178107,1,8,0:0:0:0:
168,112,178197,1,8,0:0:0:0:
160,240,178375,6,2,L|208:240,2,25
424,248,178732,1,8,0:0:0:0:
392,248,178821,1,8,0:0:0:0:
352,264,178911,1,8,0:0:0:0:
400,144,179089,1,8,0:0:0:0:
368,144,179178,1,8,0:0:0:0:
336,160,179268,1,8,0:0:0:0:
256,192,179447,1,8,0:0:0:0:
224,192,179536,1,8,0:0:0:0:
192,208,179626,1,8,0:0:0:0:
312,256,179804,6,2,L|352:280,2,25
256,304,180161,1,8,0:0:0:0:
224,304,180250,1,8,0:0:0:0:
192,320,180340,1,8,0:0:0:0:
400,176,180518,1,8,0:0:0:0:
368,192,180607,1,8,0:0:0:0:
328,184,180697,1,8,0:0:0:0:
128,176,180876,1,8,0:0:0:0:
160,192,180965,1,8,0:0:0:0:
200,184,181055,1,8,0:0:0:0:
335,192,181233,6,2,L|383:192,2,25
344,56,181589,1,8,0:0:0:0:
344,88,181678,1,8,0:0:0:0:
344,120,181768,1,8,0:0:0:0:
176,112,181946,1,8,0:0:0:0:
176,80,182035,1,8,0:0:0:0:
176,48,182125,1,8,0:0:0:0:
256,144,182304,1,8,0:0:0:0:
256,144,182393,1,8,0:0:0:0:
256,144,182483,1,8,0:0:0:0:
256,56,182661,6,2,L|256:8,2,25
192,112,183018,1,8,0:0:0:0:
160,112,183107,1,8,0:0:0:0:
128,112,183197,1,8,0:0:0:0:
320,112,183375,1,8,0:0:0:0:
352,112,183464,1,8,0:0:0:0:
384,112,183554,1,8,0:0:0:0:
189,277,183733,1,8,0:0:0:0:
205,309,183822,1,8,0:0:0:0:
221,333,183912,1,8,0:0:0:0:
262,256,184090,6,2,L|262:208,2,25
335,281,184447,1,8,0:0:0:0:
319,313,184536,1,8,0:0:0:0:
303,337,184626,1,8,0:0:0:0:
256,216,184804,1,8,0:0:0:0:
256,184,184893,1,8,0:0:0:0:
256,152,184983,1,8,0:0:0:0:
96,216,185339,2,0,P|72:160|80:104,1,100
256,56,186054,2,0,B|256:128|256:128|232:144|256:184|288:184|288:184|328:160|352:168|360:184|352:208|352:208|344:256|328:256|312:272|304:296|304:296|256:312,1,400
256,312,187839,5,0,0:0:0:0:
256,176,188197,1,2,0:0:0:0:
160,176,188375,1,2,0:0:0:0:
352,176,188554,1,2,0:0:0:0:
256,312,188732,1,2,0:0:0:0:
256,120,188911,1,4,0:0:0:0:
