osu file format v14

[General]
AudioFilename: audio.mp3
AudioLeadIn: 0
PreviewTime: -1
Countdown: 1
SampleSet: None
StackLeniency: 0.7
Mode: 0
LetterboxInBreaks: 0
WidescreenStoryboard: 0

[Editor]
DistanceSpacing: 0.8
BeatDivisor: 1
GridSize: 32
TimelineZoom: 1

[Metadata]
Title:Big Bad
TitleUnicode:Big Bad
Artist:Borgore
ArtistUnicode:Borgore
Creator:SansPapyrus72
Version:Hard?
Source:
Tags:Pacman
BeatmapID:1246075
BeatmapSetID:588604

[Difficulty]
HPDrainRate:5
CircleSize:5
OverallDifficulty:5
ApproachRate:5
SliderMultiplier:1.4
SliderTickRate:1

[Events]
//Background and Video events
//Break Periods
2,145438,163184
//Storyboard Layer 0 (Background)
//Storyboard Layer 1 (Fail)
//Storyboard Layer 2 (Pass)
//Storyboard Layer 3 (Foreground)
//Storyboard Sound Samples

[TimingPoints]
0,500,4,1,0,100,1,0

[HitObjects]
96,96,9263,5,0,0:0:0:0:
256,128,10791,1,0,0:0:0:0:
224,128,11082,1,0,0:0:0:0:
160,96,11709,1,0,0:0:0:0:
160,96,11980,1,0,0:0:0:0:
160,96,13254,1,0,0:0:0:0:
160,96,13526,1,0,0:0:0:0:
160,96,13722,1,0,0:0:0:0:
160,96,14226,1,0,0:0:0:0:
160,96,14691,1,0,0:0:0:0:
160,96,15877,1,0,0:0:0:0:
256,128,17314,1,0,0:0:0:0:
352,96,19111,1,0,0:0:0:0:
256,320,19829,1,0,0:0:0:0:
192,160,21267,1,0,0:0:0:0:
288,96,22344,1,0,0:0:0:0:
32,128,23063,1,0,0:0:0:0:
320,160,24141,1,0,0:0:0:0:
64,96,24859,1,0,0:0:0:0:
352,160,25937,1,0,0:0:0:0:
160,128,26656,1,0,0:0:0:0:
416,160,27374,1,0,0:0:0:0:
160,128,28093,1,0,0:0:0:0:
448,160,29171,1,0,0:0:0:0:
192,128,29889,1,0,0:0:0:0:
448,160,30608,1,0,0:0:0:0:
192,128,31686,1,0,0:0:0:0:
480,160,32404,1,0,0:0:0:0:
256,128,33123,1,0,0:0:0:0:
32,192,33841,1,0,0:0:0:0:
160,160,34201,1,0,0:0:0:0:
352,96,34919,1,0,0:0:0:0:
288,128,35279,1,0,0:0:0:0:
128,128,35638,1,0,0:0:0:0:
224,128,35997,1,0,0:0:0:0:
224,128,36356,1,0,0:0:0:0:
224,128,37434,1,0,0:0:0:0:
192,96,38512,1,0,0:0:0:0:
352,192,39231,1,0,0:0:0:0:
256,128,39590,1,0,0:0:0:0:
192,32,39949,1,0,0:0:0:0:
320,224,41027,1,0,0:0:0:0:
192,32,41746,1,0,0:0:0:0:
320,256,42464,1,0,0:0:0:0:
256,128,42823,1,0,0:0:0:0:
224,128,43901,1,0,0:0:0:0:
512,128,44620,1,0,0:0:0:0:
256,128,45338,1,0,0:0:0:0:
128,128,46416,1,0,0:0:0:0:
320,160,47135,1,0,0:0:0:0:
64,160,47853,1,0,0:0:0:0:
192,160,48213,1,0,0:0:0:0:
384,64,48931,1,0,0:0:0:0:
192,160,49650,1,0,0:0:0:0:
416,32,50368,1,0,0:0:0:0:
160,192,51446,1,0,0:0:0:0:
352,64,52165,1,0,0:0:0:0:
128,224,52883,1,0,0:0:0:0:
224,160,53243,1,0,0:0:0:0:
320,96,53602,1,0,0:0:0:0:
320,96,53961,1,0,0:0:0:0:
320,96,54320,1,0,0:0:0:0:
320,96,54680,1,0,0:0:0:0:
192,128,56117,1,0,0:0:0:0:
192,128,56476,1,0,0:0:0:0:
192,128,56835,1,0,0:0:0:0:
288,96,57195,1,0,0:0:0:0:
224,128,57554,1,0,0:0:0:0:
224,192,57913,1,0,0:0:0:0:
192,128,58273,1,0,0:0:0:0:
352,160,58632,1,0,0:0:0:0:
128,128,59350,1,0,0:0:0:0:
256,192,59710,1,0,0:0:0:0:
320,128,60069,1,0,0:0:0:0:
224,96,60428,1,0,0:0:0:0:
160,192,60788,1,0,0:0:0:0:
192,256,61147,1,0,0:0:0:0:
288,192,61506,1,0,0:0:0:0:
320,128,61865,1,0,0:0:0:0:
320,192,62225,1,0,0:0:0:0:
256,192,62584,1,0,0:0:0:0:
288,128,62943,1,0,0:0:0:0:
192,192,63303,1,0,0:0:0:0:
320,192,63662,1,0,0:0:0:0:
160,64,64380,1,0,0:0:0:0:
288,64,64740,1,0,0:0:0:0:
288,128,65099,1,0,0:0:0:0:
224,192,65458,1,0,0:0:0:0:
128,128,65817,1,0,0:0:0:0:
192,64,66177,1,0,0:0:0:0:
288,96,66536,1,0,0:0:0:0:
448,128,67255,1,0,0:0:0:0:
384,128,67614,1,0,0:0:0:0:
128,160,68332,1,0,0:0:0:0:
448,64,69410,1,0,0:0:0:0:
384,96,69770,1,0,0:0:0:0:
320,96,70129,1,0,0:0:0:0:
224,128,70488,1,0,0:0:0:0:
256,224,70847,1,0,0:0:0:0:
320,256,71207,1,0,0:0:0:0:
352,192,71566,1,0,0:0:0:0:
224,128,71925,1,0,0:0:0:0:
96,224,72285,1,0,0:0:0:0:
192,256,72644,1,0,0:0:0:0:
256,256,73003,1,0,0:0:0:0:
256,64,74660,1,0,0:0:0:0:
256,128,75244,1,0,0:0:0:0:
192,128,75811,1,0,0:0:0:0:
224,160,76181,1,0,0:0:0:0:
256,160,76482,1,0,0:0:0:0:
288,128,76698,1,0,0:0:0:0:
288,96,76923,1,0,0:0:0:0:
256,96,77138,1,0,0:0:0:0:
224,128,77525,1,0,0:0:0:0:
224,160,77770,1,0,0:0:0:0:
224,160,77923,1,0,0:0:0:0:
224,160,78062,1,0,0:0:0:0:
224,160,78180,1,0,0:0:0:0:
224,96,78675,1,0,0:0:0:0:
192,96,79081,1,0,0:0:0:0:
224,128,79503,1,0,0:0:0:0:
256,128,79727,1,0,0:0:0:0:
256,128,79884,1,0,0:0:0:0:
192,128,80355,1,0,0:0:0:0:
160,128,80537,1,0,0:0:0:0:
160,160,80749,1,0,0:0:0:0:
224,192,81235,1,0,0:0:0:0:
224,128,81806,1,0,0:0:0:0:
160,128,84458,1,0,0:0:0:0:
256,128,85281,1,0,0:0:0:0:
256,160,85558,1,0,0:0:0:0:
256,192,85743,1,0,0:0:0:0:
256,192,85880,1,0,0:0:0:0:
160,160,86885,1,0,0:0:0:0:
160,160,87824,1,0,0:0:0:0:
192,160,88154,1,0,0:0:0:0:
192,160,88632,1,0,0:0:0:0:
224,160,88799,1,0,0:0:0:0:
256,160,88961,1,0,0:0:0:0:
256,160,89090,1,0,0:0:0:0:
256,160,89219,1,0,0:0:0:0:
192,64,90202,1,0,0:0:0:0:
224,96,90511,1,0,0:0:0:0:
224,96,91172,1,0,0:0:0:0:
224,96,91452,1,0,0:0:0:0:
192,128,91902,1,0,0:0:0:0:
192,128,92054,1,0,0:0:0:0:
192,128,92204,1,0,0:0:0:0:
192,128,92337,1,0,0:0:0:0:
192,128,92509,1,0,0:0:0:0:
192,128,92638,1,0,0:0:0:0:
448,224,94921,1,0,0:0:0:0:
416,224,95124,1,0,0:0:0:0:
384,224,95299,1,0,0:0:0:0:
384,224,95443,1,0,0:0:0:0:
384,224,95600,1,0,0:0:0:0:
384,224,95772,1,0,0:0:0:0:
288,160,96842,1,0,0:0:0:0:
256,160,97141,1,0,0:0:0:0:
256,160,97822,1,0,0:0:0:0:
256,160,98173,1,0,0:0:0:0:
224,160,98554,1,0,0:0:0:0:
224,160,98708,1,0,0:0:0:0:
224,192,98877,1,0,0:0:0:0:
224,192,99012,1,0,0:0:0:0:
256,192,99171,1,0,0:0:0:0:
256,96,100150,1,0,0:0:0:0:
256,96,100459,1,0,0:0:0:0:
192,128,101075,1,0,0:0:0:0:
160,128,101380,1,0,0:0:0:0:
192,160,101820,1,0,0:0:0:0:
192,160,101956,1,0,0:0:0:0:
192,160,102113,1,0,0:0:0:0:
192,160,102274,1,0,0:0:0:0:
192,160,102436,1,0,0:0:0:0:
192,160,102580,1,0,0:0:0:0:
96,128,103500,1,0,0:0:0:0:
128,128,103784,1,0,0:0:0:0:
160,160,104377,1,0,0:0:0:0:
192,192,104658,1,0,0:0:0:0:
256,192,105156,1,0,0:0:0:0:
256,192,105312,1,0,0:0:0:0:
256,192,105470,1,0,0:0:0:0:
256,192,105637,1,0,0:0:0:0:
256,192,105779,1,0,0:0:0:0:
192,192,106373,1,0,0:0:0:0:
224,128,106892,1,0,0:0:0:0:
256,128,107161,1,0,0:0:0:0:
256,192,107734,1,0,0:0:0:0:
256,192,108034,1,0,0:0:0:0:
192,192,108553,1,0,0:0:0:0:
160,192,108737,1,0,0:0:0:0:
160,192,108939,1,0,0:0:0:0:
160,160,109322,1,0,0:0:0:0:
192,160,109770,1,0,0:0:0:0:
224,192,110186,1,0,0:0:0:0:
288,192,110671,1,0,0:0:0:0:
256,192,110921,1,0,0:0:0:0:
256,192,111163,1,0,0:0:0:0:
256,192,111387,1,0,0:0:0:0:
224,192,111788,1,0,0:0:0:0:
192,160,112207,1,0,0:0:0:0:
160,160,112443,1,0,0:0:0:0:
128,160,112663,1,0,0:0:0:0:
128,128,112885,1,0,0:0:0:0:
128,128,113053,1,0,0:0:0:0:
160,128,113487,1,0,0:0:0:0:
192,96,113918,1,0,0:0:0:0:
224,96,114159,1,0,0:0:0:0:
256,96,114395,1,0,0:0:0:0:
288,96,114584,1,0,0:0:0:0:
288,64,114763,1,0,0:0:0:0:
256,64,115175,1,0,0:0:0:0:
224,96,115566,1,0,0:0:0:0:
224,128,115778,1,0,0:0:0:0:
224,128,115964,1,0,0:0:0:0:
256,128,116202,1,0,0:0:0:0:
288,128,116400,1,0,0:0:0:0:
320,128,116640,1,0,0:0:0:0:
320,96,116819,1,0,0:0:0:0:
256,128,117421,1,0,0:0:0:0:
256,128,117553,1,0,0:0:0:0:
256,128,117683,1,0,0:0:0:0:
224,128,117892,1,0,0:0:0:0:
224,128,118068,1,0,0:0:0:0:
192,128,118480,1,0,0:0:0:0:
160,160,118923,1,0,0:0:0:0:
128,160,119101,1,0,0:0:0:0:
128,192,119280,1,0,0:0:0:0:
128,192,119454,1,0,0:0:0:0:
160,192,119653,1,0,0:0:0:0:
192,192,120076,1,0,0:0:0:0:
224,192,120268,1,0,0:0:0:0:
224,192,120457,1,0,0:0:0:0:
256,128,120993,1,0,0:0:0:0:
192,128,121544,1,0,0:0:0:0:
96,160,122382,1,0,0:0:0:0:
128,160,122624,1,0,0:0:0:0:
160,128,122853,1,0,0:0:0:0:
160,128,123035,1,0,0:0:0:0:
128,160,123453,1,0,0:0:0:0:
160,128,123767,1,0,0:0:0:0:
128,160,124154,1,0,0:0:0:0:
128,160,124361,1,0,0:0:0:0:
160,160,124572,1,0,0:0:0:0:
160,128,124728,1,0,0:0:0:0:
192,128,125047,1,0,0:0:0:0:
224,128,125438,1,0,0:0:0:0:
256,128,125633,1,0,0:0:0:0:
288,128,125819,1,0,0:0:0:0:
288,128,125985,1,0,0:0:0:0:
288,128,126141,1,0,0:0:0:0:
288,128,126312,1,0,0:0:0:0:
288,96,126722,1,0,0:0:0:0:
256,96,127102,1,0,0:0:0:0:
256,96,127292,1,0,0:0:0:0:
256,96,127497,1,0,0:0:0:0:
256,96,127698,1,0,0:0:0:0:
256,96,127912,1,0,0:0:0:0:
224,96,128281,1,0,0:0:0:0:
224,96,128427,1,0,0:0:0:0:
224,96,128555,1,0,0:0:0:0:
224,96,128691,1,0,0:0:0:0:
224,96,128830,1,0,0:0:0:0:
192,96,129174,1,0,0:0:0:0:
160,96,129370,1,0,0:0:0:0:
128,96,129595,1,0,0:0:0:0:
128,96,129803,1,0,0:0:0:0:
128,128,130079,1,0,0:0:0:0:
160,160,130446,1,0,0:0:0:0:
160,160,130588,1,0,0:0:0:0:
160,160,130706,1,0,0:0:0:0:
160,160,130852,1,0,0:0:0:0:
192,160,131102,1,0,0:0:0:0:
192,160,131270,1,0,0:0:0:0:
224,160,131676,1,0,0:0:0:0:
256,128,132140,1,0,0:0:0:0:
288,128,132334,1,0,0:0:0:0:
320,128,132554,1,0,0:0:0:0:
352,128,132770,1,0,0:0:0:0:
352,96,132972,1,0,0:0:0:0:
320,96,133359,1,0,0:0:0:0:
288,96,133543,1,0,0:0:0:0:
256,96,133732,1,0,0:0:0:0:
224,96,134161,1,0,0:0:0:0:
160,128,134763,1,0,0:0:0:0:
64,160,135734,1,0,0:0:0:0:
160,128,136573,1,0,0:0:0:0:
128,128,136854,1,0,0:0:0:0:
128,128,137482,1,0,0:0:0:0:
128,128,137783,1,0,0:0:0:0:
160,96,138259,1,0,0:0:0:0:
160,96,138391,1,0,0:0:0:0:
160,96,138543,1,0,0:0:0:0:
160,96,138692,1,0,0:0:0:0:
160,96,138817,1,0,0:0:0:0:
160,96,138961,1,0,0:0:0:0:
160,96,139084,1,0,0:0:0:0:
224,128,139810,1,0,0:0:0:0:
256,128,140108,1,0,0:0:0:0:
320,160,140772,1,0,0:0:0:0:
352,192,141109,1,0,0:0:0:0:
288,192,141570,1,0,0:0:0:0:
256,192,141739,1,0,0:0:0:0:
256,192,141882,1,0,0:0:0:0:
224,192,142088,1,0,0:0:0:0:
224,192,142219,1,0,0:0:0:0:
192,160,142651,1,0,0:0:0:0:
256,128,143205,1,0,0:0:0:0:
288,128,143534,1,0,0:0:0:0:
224,128,144110,1,0,0:0:0:0:
288,192,144925,1,8,0:0:0:0:
256,224,145238,1,0,0:0:0:0:
26,102,164384,5,0,0:0:0:0:
201,131,165982,1,0,0:0:0:0:
78,139,170923,1,0,0:0:0:0:
265,150,172615,1,0,0:0:0:0:
295,116,173031,1,0,0:0:0:0:
209,108,173814,1,0,0:0:0:0:
337,251,175545,1,0,0:0:0:0:
259,201,176371,1,0,0:0:0:0:
510,1,179244,1,0,0:0:0:0:
468,22,179673,1,0,0:0:0:0:
380,70,180586,1,0,0:0:0:0:
163,200,182853,1,0,0:0:0:0:
137,232,183237,1,0,0:0:0:0:
349,30,185865,1,0,0:0:0:0:
314,63,186304,1,0,0:0:0:0:
229,144,187362,1,0,0:0:0:0:
