osu file format v14

[General]
AudioFilename: audio.mp3
AudioLeadIn: 0
PreviewTime: 3080
Countdown: 0
SampleSet: Soft
StackLeniency: 0.3
Mode: 0
LetterboxInBreaks: 0
EpilepsyWarning: 1
WidescreenStoryboard: 1

[Editor]
DistanceSpacing: 1.2
BeatDivisor: 6
GridSize: 4
TimelineZoom: 2.3

[Metadata]
Title:Shine
TitleUnicode:Shine
Artist:Bora
ArtistUnicode:보라
Creator:Riana
Version:Insane
Source:MapleStory
Tags:friend story sid s i d sound maple story affirmation neoskylove [ kuro usagi ] [_kuro_usagi_] 메이플스토리
BeatmapID:1704129
BeatmapSetID:809992

[Difficulty]
HPDrainRate:6
CircleSize:4
OverallDifficulty:8
ApproachRate:9
SliderMultiplier:1.6
SliderTickRate:1

[Events]
//Background and Video events
0,0,"i11701183231.jpg",0,0
//Break Periods
//Storyboard Layer 0 (Background)
//Storyboard Layer 1 (Fail)
//Storyboard Layer 2 (Pass)
//Storyboard Layer 3 (Foreground)
//Storyboard Sound Samples

[TimingPoints]
540,327.868852459016,4,2,45,80,1,0
868,327.868852459016,4,2,45,80,1,0
3161,-100,4,2,45,70,0,0
9061,-83.33334,4,2,45,70,0,0
9388,-100,4,2,45,70,0,0
11332,-133.3333,4,2,45,50,0,0
12804,-100,4,2,45,70,0,0
21797,-133.3333,4,2,45,50,0,0
23481,-100,4,2,45,80,0,0
24464,-100,4,2,45,60,0,0
27086,-100,4,2,45,70,0,0
28724,-100,4,2,45,75,0,0
28888,-100,4,2,45,80,0,0
29052,-100,4,2,45,85,0,0
29216,-100,4,2,45,90,0,0
29379,-100,4,2,45,95,0,0
29708,-100,4,2,45,80,0,0

[Colours]
Combo1 : 140,218,255
Combo2 : 170,255,164
Combo3 : 252,255,125
Combo4 : 248,135,152

[HitObjects]
126,136,540,6,0,L|120:96,1,40,0|4,1:2|0:3,0:0:0:0:
200,64,703,1,0,3:2:0:0:
314,123,867,6,0,P|253:128|226:161,1,80,6|0,3:2|3:2,0:0:0:0:
308,258,1195,1,2,1:2:0:0:
314,123,1359,1,0,3:2:0:0:
234,220,1523,2,0,P|173:215|146:182,1,80,6|0,1:2|3:2,0:0:0:0:
166,27,1851,1,2,1:2:0:0:
308,122,2015,1,6,3:2:0:0:
308,122,2343,5,2,1:2:0:0:
238,299,2507,1,2,1:2:0:0:
400,201,2671,1,2,1:2:0:0:
212,182,2835,1,2,1:2:0:0:
504,305,3163,6,0,P|443:275|405:290,1,80,0|0,0:2|0:2,0:0:0:0:
333,384,3490,6,0,L|365:205,1,160,6|0,3:2|1:2,0:0:0:0:
439,191,3982,1,2,0:2:0:0:
449,354,4146,2,0,L|434:275,1,80,2|0,3:2|3:2,0:0:0:0:
358,145,4474,1,2,1:2:0:0:
361,226,4638,6,0,P|317:289|323:322,1,80,6|0,3:2|0:0,0:0:0:0:
336,360,4966,1,0,3:2:0:0:
242,261,5130,2,0,P|205:246|146:264,1,80,6|0,1:2|0:2,0:0:0:0:
104,306,5458,1,4,3:2:0:0:
35,266,5622,1,0,3:2:0:0:
141,180,5786,2,0,L|168:98,1,80,6|0,1:2|0:0,0:0:0:0:
296,50,6113,6,0,P|221:69|155:28,1,160,6|0,3:2|1:2,0:0:0:0:
83,72,6605,1,2,0:2:0:0:
149,212,6769,2,0,L|134:133,1,80,2|0,3:2|3:2,0:0:0:0:
106,279,7097,1,2,1:2:0:0:
187,282,7261,6,0,P|251:237|276:241,1,80,6|0,3:2|0:0,0:0:0:0:
328,250,7589,1,2,3:2:0:0:
380,115,7753,2,0,P|395:152|377:211,1,80,6|0,1:2|0:2,0:0:0:0:
307,164,8081,1,4,3:2:0:0:
328,250,8245,1,0,3:2:0:0:
147,199,8408,2,0,L|230:187,1,80,6|0,1:2|0:0,0:0:0:0:
292,328,8736,6,0,L|307:376,2,26.6666666666667,4|4|4,0:3|0:3|0:3,0:0:0:0:
418,264,9064,2,0,P|374:242|323:252,1,96,6|0,1:2|0:0,0:0:0:0:
210,303,9392,1,2,3:2:0:0:
292,328,9556,1,0,3:2:0:0:
57,301,9720,1,2,1:2:0:0:
101,237,9884,6,0,L|207:226,1,80,6|0,3:2|0:0,0:0:0:0:
375,166,10212,1,2,3:2:0:0:
295,158,10376,2,0,L|189:147,1,80,4|2,1:2|3:2,0:0:0:0:
136,123,10704,1,4,1:2:0:0:
137,41,10868,1,2,3:2:0:0:
213,17,11031,1,0,3:2:0:0:
260,80,11195,1,0,3:2:0:0:
216,149,11359,6,0,P|255:206|192:175,1,180,6|0,3:2|3:2,0:0:0:0:
112,166,12015,1,2,1:2:0:0:
260,80,12343,1,2,0:2:0:0:
333,58,12507,1,6,3:2:0:0:
333,58,12835,6,0,L|328:4,2,40,0|0|0,3:2|3:2|3:2,0:0:0:0:
384,119,13163,1,0,3:2:0:0:
346,192,13327,2,0,L|303:204,3,40,0|0|0|0,3:2|3:2|3:2|3:2,0:0:0:0:
225,256,13654,2,0,L|268:268,3,40,2|0|0|0,3:2|3:2|3:2|3:2,0:0:0:0:
304,340,13982,6,0,P|357:287|442:295,1,160,6|0,3:2|1:2,0:0:0:0:
508,257,14474,1,2,0:2:0:0:
426,133,14638,2,0,L|444:212,1,80,2|0,3:2|3:2,0:0:0:0:
355,21,14966,1,2,1:2:0:0:
349,98,15130,6,0,L|263:176,1,80,6|0,3:2|0:0,0:0:0:0:
231,269,15458,1,2,3:2:0:0:
301,235,15622,2,0,L|413:270,1,80,6|0,1:2|0:2,0:0:0:0:
425,321,15949,1,4,3:2:0:0:
497,292,16113,1,0,3:2:0:0:
414,191,16277,2,0,P|423:124|441:101,1,80,6|2,1:2|0:2,0:0:0:0:
505,79,16605,5,6,3:2:0:0:
366,61,16769,1,2,0:2:0:0:
414,191,16933,1,2,1:2:0:0:
300,100,17097,2,0,P|254:89|208:109,1,80,2|0,0:2|3:2,0:0:0:0:
107,164,17425,2,0,P|145:176|183:167,1,80,2|0,3:2|1:2,0:0:0:0:
234,328,17753,6,0,L|261:171,1,160,6|0,3:2|3:2,0:0:0:0:
335,209,18245,1,6,1:2:0:0:
396,165,18408,1,0,1:2:0:0:
396,165,18490,1,0,1:2:0:0:
396,165,18572,1,2,3:2:0:0:
342,288,18736,1,0,3:2:0:0:
261,171,18900,1,2,3:2:0:0:
484,283,19064,1,0,3:2:0:0:
209,169,19556,6,0,L|323:187,1,80,6|0,1:2|0:0,0:0:0:0:
448,200,19884,2,0,L|334:218,1,80,2|0,3:2|3:2,0:0:0:0:
372,64,20212,1,2,1:2:0:0:
292,90,20376,6,0,L|127:61,1,160,6|0,0:2|3:2,0:0:0:0:
59,90,20868,1,0,1:2:0:0:
64,169,21031,2,0,L|73:254,1,80,0|0,3:2|3:2,0:0:0:0:
152,266,21359,1,2,3:2:0:0:
165,343,21523,1,4,0:3:0:0:
242,350,21687,1,0,3:2:0:0:
278,283,21851,6,0,P|328:254|432:328,1,180,6|0,3:2|3:2,0:0:0:0:
474,375,22507,2,0,P|431:386|391:373,1,60,4|0,1:2|0:2,0:0:0:0:
357,254,22835,1,0,3:2:0:0:
349,336,22999,1,2,1:2:0:0:
292,202,23327,6,0,L|301:151,2,30,8|0|8,0:3|3:3|0:3,0:0:0:0:
220,247,23654,1,8,0:3:0:0:
159,187,23818,1,8,0:3:0:0:
193,112,23982,1,8,0:3:0:0:
196,321,24146,1,4,1:2:0:0:
363,81,24474,6,0,L|346:181,1,80,6|2,3:2|0:2,0:0:0:0:
367,237,24802,1,2,1:2:0:0:
313,356,24966,2,0,L|296:256,1,80,2|0,3:2|0:2,0:0:0:0:
272,147,25294,1,0,3:2:0:0:
367,237,25458,1,0,1:2:0:0:
164,237,25622,1,6,3:2:0:0:
164,237,25949,5,0,3:2:0:0:
135,316,26113,1,6,1:2:0:0:
240,220,26277,1,2,0:2:0:0:
108,171,26441,1,0,3:2:0:0:
200,364,26605,1,0,3:2:0:0:
386,285,26769,1,4,1:2:0:0:
386,285,27097,5,2,1:2:0:0:
200,364,27261,1,4,0:3:0:0:
262,232,27425,1,6,1:2:0:0:
71,308,27589,1,0,1:2:0:0:
71,308,27917,5,0,3:2:0:0:
212,132,28081,1,2,1:2:0:0:
305,327,28245,1,6,3:2:0:0:
215,278,28572,5,0,3:2:0:0:
97,180,28736,1,2,3:2:0:0:
279,223,28900,5,2,3:2:0:0:
203,69,29064,1,0,3:2:0:0:
353,262,29228,5,0,3:2:0:0:
373,57,29392,1,6,1:2:0:0:
353,262,29720,5,0,3:2:0:0:
353,262,29884,1,6,1:2:0:0:
187,165,30376,5,6,1:2:0:0:
373,57,30868,5,6,1:2:0:0:
256,192,30949,12,8,33327,0:3:0:0:
