osu file format v14

[General]
AudioFilename: audio.mp3
AudioLeadIn: 0
PreviewTime: 3080
Countdown: 0
SampleSet: Soft
StackLeniency: 0.3
Mode: 0
LetterboxInBreaks: 0
EpilepsyWarning: 1
WidescreenStoryboard: 1

[Editor]
DistanceSpacing: 1.2
BeatDivisor: 6
GridSize: 4
TimelineZoom: 1.8

[Metadata]
Title:Shine
TitleUnicode:Shine
Artist:Bora
ArtistUnicode:보라
Creator:Riana
Version:Hard
Source:MapleStory
Tags:friend story sid s i d sound maple story affirmation neoskylove [ kuro usagi ] [_kuro_usagi_] 메이플스토리
BeatmapID:1704128
BeatmapSetID:809992

[Difficulty]
HPDrainRate:6
CircleSize:4
OverallDifficulty:6
ApproachRate:7
SliderMultiplier:1.4
SliderTickRate:1

[Events]
//Background and Video events
0,0,"i11701183231.jpg",0,0
//Break Periods
//Storyboard Layer 0 (Background)
//Storyboard Layer 1 (Fail)
//Storyboard Layer 2 (Pass)
//Storyboard Layer 3 (Foreground)
//Storyboard Sound Samples

[TimingPoints]
540,327.868852459016,4,2,45,80,1,0
868,327.868852459016,4,2,45,80,1,0
3161,-100,4,2,45,70,0,0
11332,-100,4,2,45,50,0,0
12804,-100,4,2,45,70,0,0
21797,-100,4,2,45,50,0,0
23481,-100,4,2,45,80,0,0
24464,-100,4,2,45,60,0,0
27086,-100,4,2,45,70,0,0
28724,-100,4,2,45,75,0,0
28888,-100,4,2,45,80,0,0
29052,-100,4,2,45,85,0,0
29216,-100,4,2,45,90,0,0
29379,-100,4,2,45,95,0,0
29708,-100,4,2,45,80,0,0

[Colours]
Combo1 : 140,218,255
Combo2 : 170,255,164
Combo3 : 252,255,125
Combo4 : 248,135,152

[HitObjects]
81,136,540,6,0,L|73:92,2,35,0|4|0,1:2|0:3|3:2,0:0:0:0:
54,215,867,6,0,P|112:215|145:191,1,70,6|0,3:2|3:2,0:0:0:0:
168,140,1195,1,2,1:2:0:0:
251,146,1359,1,0,3:2:0:0:
288,221,1523,2,0,P|307:275|406:305,1,140,6|2,1:2|1:2,0:0:0:0:
374,225,2015,1,6,3:2:0:0:
374,225,2343,5,2,1:2:0:0:
416,152,2507,1,2,1:2:0:0:
372,83,2671,1,2,1:2:0:0:
288,87,2835,1,2,1:2:0:0:
152,156,3163,6,0,L|163:256,1,70,0|0,0:2|0:2,0:0:0:0:
91,276,3490,6,0,P|143:254|228:302,1,140,6|0,3:2|1:2,0:0:0:0:
250,365,3982,1,2,0:2:0:0:
332,377,4146,1,2,3:2:0:0:
332,377,4474,5,2,1:2:0:0:
370,302,4638,2,0,L|387:211,1,70,6|0,3:2|0:0,0:0:0:0:
299,220,4966,1,0,3:2:0:0:
265,143,5130,2,0,L|248:52,1,70,6|0,1:2|0:2,0:0:0:0:
317,20,5458,1,4,3:2:0:0:
379,75,5622,1,0,3:2:0:0:
349,153,5786,2,0,L|364:253,1,70,6|0,1:2|0:0,0:0:0:0:
276,205,6113,6,0,P|219:198|149:266,1,140,6|0,3:2|1:2,0:0:0:0:
148,329,6605,1,2,0:2:0:0:
221,369,6769,1,2,3:2:0:0:
221,369,7097,5,2,1:2:0:0:
283,312,7261,2,0,L|373:286,1,70,6|0,3:2|0:0,0:0:0:0:
429,264,7589,1,2,3:2:0:0:
367,207,7753,2,0,L|277:181,1,70,6|0,1:2|0:2,0:0:0:0:
221,218,8081,1,4,3:2:0:0:
163,156,8245,1,0,3:2:0:0:
204,82,8408,1,6,1:2:0:0:
299,187,8736,6,0,L|255:197,2,23.3333333333333,4|4|4,0:3|0:3|0:3,0:3:0:0:
290,103,9064,2,0,P|346:120|369:145,1,70,6|0,1:2|0:0,0:0:0:0:
373,208,9392,1,2,3:2:0:0:
317,270,9556,1,0,3:2:0:0:
238,238,9720,5,2,1:2:0:0:
173,291,9884,2,0,P|116:273|93:248,1,70,6|0,3:2|0:0,0:0:0:0:
163,203,10212,2,0,L|140:58,1,140,2|2,3:2|3:2,0:0:0:0:
201,5,10704,1,4,1:2:0:0:
272,49,10868,1,2,3:2:0:0:
253,130,11031,1,0,3:2:0:0:
235,212,11195,1,0,3:2:0:0:
175,271,11359,6,0,B|232:310|278:279|278:279|327:249|375:295,1,210,6|0,3:2|3:2,0:0:0:0:
314,353,12015,2,0,P|349:369|385:367,1,70,2|0,1:2|0:0,0:0:0:0:
448,316,12343,1,2,0:2:0:0:
428,238,12507,2,0,P|445:207|474:189,1,70,6|0,3:2|0:2,0:0:0:0:
499,114,12835,5,0,3:2:0:0:
499,114,12917,1,0,3:2:0:0:
499,114,12999,1,0,3:2:0:0:
422,55,13163,1,0,3:2:0:0:
412,137,13327,2,0,L|350:144,3,35,0|0|0|0,3:2|3:2|3:2|3:2,0:0:0:0:
345,113,13654,2,0,L|310:110,3,35,2|0|0|0,3:2|3:2|3:2|3:2,0:0:0:0:
278,142,13982,6,0,P|212:172|135:150,1,140,6|0,3:2|1:2,0:0:0:0:
88,100,14474,1,2,0:2:0:0:
15,138,14638,1,2,3:2:0:0:
15,138,14966,5,2,1:2:0:0:
77,194,15130,2,0,L|63:266,1,70,6|0,3:2|0:0,0:0:0:0:
117,320,15458,1,2,3:2:0:0:
189,276,15622,2,0,L|175:207,1,70,6|0,1:2|0:2,0:0:0:0:
254,178,15949,1,4,3:2:0:0:
311,239,16113,1,0,3:2:0:0:
367,301,16277,2,0,L|443:314,1,70,6|2,1:2|0:2,0:0:0:0:
414,231,16605,5,6,3:2:0:0:
353,172,16769,1,2,0:2:0:0:
398,101,16933,1,2,1:2:0:0:
339,41,17097,2,0,P|297:30|268:44,1,70,2|0,0:2|3:2,0:0:0:0:
222,106,17425,2,0,P|180:117|151:103,1,70,2|0,3:2|1:2,0:0:0:0:
92,53,17753,6,0,L|112:205,1,140,6|0,3:2|3:2,0:0:0:0:
178,241,18245,1,6,1:2:0:0:
262,219,18408,2,0,L|271:151,2,35,0|0|2,1:2|1:2|3:2,0:0:0:0:
316,282,18736,1,0,3:2:0:0:
274,355,18900,2,0,P|247:332|240:282,1,70,2|0,3:2|0:0,0:0:0:0:
238,299,19556,6,0,L|168:309,1,70,6|0,1:2|0:0,0:0:0:0:
125,237,19884,2,0,L|55:226,1,70,2|0,3:2|3:2,0:0:0:0:
32,145,20212,1,2,1:2:0:0:
32,145,20376,2,0,P|61:92|161:95,1,140,6|0,0:2|3:2,0:0:0:0:
195,137,20868,1,0,1:2:0:0:
256,194,21031,2,0,P|323:186|358:128,1,140,0|2,3:2|3:2,0:0:0:0:
275,115,21523,1,4,0:3:0:0:
275,115,21851,6,0,B|236:172|267:218|267:218|297:267|251:315,1,210,6|0,3:2|3:2,0:0:0:0:
193,254,22507,1,4,1:2:0:0:
193,254,22835,1,0,3:2:0:0:
176,336,22999,2,0,P|198:368|231:384,1,70,2|4,1:2|3:2,0:0:0:0:
308,368,23327,1,8,0:3:0:0:
308,368,23408,1,8,0:3:0:0:
308,368,23490,2,0,L|370:375,3,35,8|8|8|8,0:3|0:3|0:3|0:3,0:0:0:0:
367,338,23818,2,0,L|429:331,3,35,8|8|8|8,0:3|0:3|0:3|0:3,0:0:0:0:
434,305,24146,1,4,1:2:0:0:
434,305,24474,6,0,P|442:255|429:216,1,70,6|2,3:2|0:2,0:0:0:0:
375,180,24802,1,2,1:2:0:0:
357,262,24966,2,0,P|285:282|202:237,1,140,2|0,3:2|3:2,0:0:0:0:
180,188,25458,1,0,1:2:0:0:
224,114,25622,1,6,3:2:0:0:
224,114,25949,6,0,L|214:27,2,70,0|6|2,3:2|1:2|0:2,0:0:0:0:
303,143,26441,1,0,3:2:0:0:
313,226,26605,1,0,3:2:0:0:
232,251,26769,1,4,1:2:0:0:
232,251,27097,5,2,1:2:0:0:
292,306,27261,1,4,0:3:0:0:
313,226,27425,1,6,1:2:0:0:
370,286,27589,2,0,P|398:225|351:147,1,140,0|0,1:2|3:2,0:0:0:0:
288,146,28081,1,2,1:2:0:0:
259,66,28245,1,6,3:2:0:0:
259,66,28572,5,0,3:2:0:0:
175,66,28736,1,2,3:2:0:0:
149,146,28900,1,2,3:2:0:0:
214,197,29064,1,0,3:2:0:0:
188,276,29228,1,0,3:2:0:0:
104,273,29392,1,6,1:2:0:0:
104,273,29884,5,6,1:2:0:0:
257,348,30376,1,6,1:2:0:0:
408,273,30868,1,6,1:2:0:0:
256,192,31031,12,8,33327,0:3:0:0:
