osu file format v14

[General]
AudioFilename: audio.mp3
AudioLeadIn: 0
PreviewTime: 3080
Countdown: 0
SampleSet: Soft
StackLeniency: 0.3
Mode: 0
LetterboxInBreaks: 0
EpilepsyWarning: 1
WidescreenStoryboard: 1

[Editor]
DistanceSpacing: 1.2
BeatDivisor: 6
GridSize: 4
TimelineZoom: 1.5

[Metadata]
Title:Shine
TitleUnicode:Shine
Artist:Bora
ArtistUnicode:보라
Creator:Riana
Version:Friends
Source:MapleStory
Tags:friend story sid s i d sound maple story affirmation neoskylove [ kuro usagi ] [_kuro_usagi_] 메이플스토리
BeatmapID:1699547
BeatmapSetID:809992

[Difficulty]
HPDrainRate:6
CircleSize:4
OverallDifficulty:9
ApproachRate:9.2
SliderMultiplier:1.8
SliderTickRate:1

[Events]
//Background and Video events
0,0,"i11701183231.jpg",0,0
//Break Periods
//Storyboard Layer 0 (Background)
//Storyboard Layer 1 (Fail)
//Storyboard Layer 2 (Pass)
//Storyboard Layer 3 (Foreground)
//Storyboard Sound Samples

[TimingPoints]
540,327.868852459016,4,2,45,80,1,0
868,327.868852459016,4,2,45,80,1,0
3161,-100,4,2,45,70,0,0
6100,-83.33334,4,2,45,70,0,0
6753,-100,4,2,45,70,0,0
8389,-76.92308,4,2,45,70,0,0
11332,-133.3333,4,2,45,50,0,0
11986,-200,4,2,45,50,0,0
12804,-80,4,2,45,70,0,0
21797,-133.3333,4,2,45,50,0,0
23480,-80,4,2,45,80,0,0
24464,-100,4,2,45,60,0,0
27086,-100,4,2,45,70,0,0
28724,-100,4,2,45,75,0,0
28888,-100,4,2,45,80,0,0
29052,-100,4,2,45,85,0,0
29216,-100,4,2,45,90,0,0
29379,-100,4,2,45,95,0,0
29708,-100,4,2,45,80,0,0
29789,-100,4,2,45,5,0,0
29870,-100,4,2,45,80,0,0

[Colours]
Combo1 : 140,218,255
Combo2 : 170,255,164
Combo3 : 252,255,125
Combo4 : 248,135,152

[HitObjects]
255,190,540,5,0,1:2:0:0:
255,190,621,1,0,0:0:0:0:
255,190,703,2,0,L|212:176,1,45,0|4,3:2|0:3,0:0:0:0:
126,169,867,5,6,3:2:0:0:
318,380,1031,1,0,3:2:0:0:
302,22,1195,5,2,1:2:0:0:
95,314,1359,1,0,3:2:0:0:
443,198,1523,5,6,1:2:0:0:
76,100,1687,1,0,3:2:0:0:
329,301,1851,1,2,1:2:0:0:
287,143,2015,1,6,3:2:0:0:
358,218,2343,5,2,1:2:0:0:
41,117,2507,1,2,1:2:0:0:
249,384,2671,1,2,1:2:0:0:
238,52,2835,1,2,1:2:0:0:
238,52,3163,6,0,P|280:93|278:140,1,90,0|0,0:2|0:2,0:0:0:0:
372,186,3490,6,0,P|287:162|214:209,1,180,6|0,3:2|1:2,0:0:0:0:
175,337,3982,1,2,0:2:0:0:
61,264,4146,2,0,P|109:273|150:257,1,90,2|0,3:2|3:2,0:0:0:0:
163,83,4474,5,2,1:2:0:0:
275,263,4638,1,6,3:2:0:0:
268,299,4966,5,0,3:2:0:0:
336,79,5130,1,6,1:2:0:0:
61,250,5458,5,4,3:2:0:0:
267,175,5622,1,0,3:2:0:0:
114,36,5786,2,0,P|180:20|220:36,1,90,6|0,1:2|0:0,0:0:0:0:
173,311,6113,6,0,B|137:264|165:217|165:217|202:166|161:89,1,216,6|0,3:2|1:2,0:0:0:0:
48,90,6605,1,2,0:2:0:0:
8,168,6769,2,0,P|58:177|99:161,1,90,2|0,3:2|3:2,0:0:0:0:
283,14,7097,5,2,1:2:0:0:
237,259,7261,1,6,3:2:0:0:
229,293,7589,5,2,3:2:0:0:
221,93,7753,1,6,1:2:0:0:
317,111,8081,5,4,3:2:0:0:
136,250,8245,1,0,3:2:0:0:
339,337,8408,2,0,P|404:338|449:302,1,117,6|0,1:2|0:0,0:0:0:0:
182,184,8736,6,0,L|169:140,2,38.9999982147218,4|4|4,0:3|0:3|0:3,0:3:0:0:
252,235,9064,2,0,P|187:234|142:270,1,117,6|0,1:2|0:0,0:0:0:0:
262,382,9392,1,2,3:2:0:0:
334,255,9556,1,0,3:2:0:0:
59,276,9720,5,2,1:2:0:0:
174,57,9884,1,6,3:2:0:0:
178,21,10212,5,2,3:2:0:0:
188,310,10376,1,4,1:2:0:0:
188,310,10540,1,2,3:2:0:0:
350,88,10704,5,4,1:2:0:0:
75,165,10868,1,2,3:2:0:0:
75,165,10949,1,0,3:0:0:0:
75,165,11031,2,0,P|148:187|217:151,1,116.999994644165,0|0,3:2|0:0,0:0:0:0:
279,9,11359,6,0,P|249:91|319:184,1,202.5,6|0,3:2|3:2,0:0:0:0:
400,102,12015,2,0,P|377:100|355:105,1,45,2|0,1:2|0:0,0:0:0:0:
354,263,12343,5,2,0:2:0:0:
440,30,12507,1,6,3:2:0:0:
441,33,12835,6,0,L|454:88,2,56.25,0|0|0,3:2|3:2|3:2,0:0:0:0:
355,105,13163,1,0,3:2:0:0:
363,328,13327,6,0,L|374:273,1,56.25,0|0,3:2|3:2,0:0:0:0:
263,43,13490,2,0,L|275:101,1,56.25,0|0,3:2|3:2,0:0:0:0:
285,269,13654,2,0,L|297:210,1,56.25,2|0,3:2|3:2,0:0:0:0:
177,77,13818,2,0,L|188:132,1,56.25,0|0,3:2|3:2,0:0:0:0:
207,227,13982,6,0,P|139:207|28:300,1,225,6|0,3:2|1:2,0:0:0:0:
211,316,14474,1,2,0:2:0:0:
269,166,14638,2,0,P|294:215|285:270,1,112.5,2|0,3:2|3:2,0:0:0:0:
99,357,14966,5,2,1:2:0:0:
201,115,15130,1,6,3:2:0:0:
189,75,15458,5,2,3:2:0:0:
373,286,15622,1,6,1:2:0:0:
325,360,15949,5,4,3:2:0:0:
329,101,16113,1,0,3:2:0:0:
167,312,16277,1,6,1:2:0:0:
427,232,16441,1,2,0:2:0:0:
100,80,16605,5,6,3:2:0:0:
377,166,16769,1,2,0:2:0:0:
160,345,16933,1,2,1:2:0:0:
13,119,17097,2,0,P|4:64|25:13,1,112.5,2|0,0:2|3:2,0:0:0:0:
293,245,17425,2,0,P|301:299|280:351,1,112.5,2|0,3:2|1:2,0:0:0:0:
233,176,17753,6,0,B|290:141|347:176|347:176|394:209|457:170,1,225,6|0,3:2|3:2,0:0:0:0:
153,204,18245,1,6,1:2:0:0:
386,278,18408,1,0,1:2:0:0:
386,278,18490,1,0,1:2:0:0:
386,278,18572,1,2,3:2:0:0:
297,23,18736,1,0,3:2:0:0:
120,199,18900,5,2,3:2:0:0:
442,198,19064,1,0,3:2:0:0:
479,189,19392,5,0,3:2:0:0:
293,101,19556,2,0,P|280:179|321:235,1,112.5,6|0,1:2|0:0,0:0:0:0:
375,359,19884,2,0,P|388:281|347:225,1,112.5,2|0,3:2|3:2,0:0:0:0:
193,155,20212,5,2,1:2:0:0:
395,97,20376,2,0,P|286:99|250:3,1,225,6|0,0:2|3:2,0:0:0:0:
408,16,20868,1,0,1:2:0:0:
297,297,21031,1,0,3:2:0:0:
471,140,21195,5,0,3:2:0:0:
152,186,21359,1,2,3:2:0:0:
375,252,21523,1,4,0:3:0:0:
290,149,21687,1,0,3:2:0:0:
172,266,21851,6,0,P|115:262|50:202,1,135,6|0,3:2|0:0,0:0:0:0:
232,208,22343,1,0,3:2:0:0:
260,289,22507,2,0,P|228:336|197:350,1,67.5,4|0,1:2|0:2,0:0:0:0:
54,215,22835,5,0,3:2:0:0:
172,38,22999,1,2,1:2:0:0:
184,48,23327,5,8,0:3:0:0:
184,48,23408,1,8,0:3:0:0:
184,48,23490,2,0,L|250:61,1,56.25,8|8,0:3|0:3,0:0:0:0:
375,96,23654,2,0,L|307:110,1,56.25,8|8,0:3|0:3,0:0:0:0:
150,125,23818,2,0,L|216:138,1,56.25,8|8,0:3|0:3,0:0:0:0:
404,172,23982,2,0,L|338:185,1,56.25,8|8,0:3|0:3,0:0:0:0:
118,203,24146,1,4,1:2:0:0:
379,261,24474,6,0,P|388:307|353:380,1,90,6|2,3:2|0:2,0:0:0:0:
201,329,24802,1,2,1:2:0:0:
320,106,24966,1,2,3:2:0:0:
240,59,25294,5,0,3:2:0:0:
458,239,25458,1,0,1:2:0:0:
201,329,25622,1,6,3:2:0:0:
302,199,25786,5,2,0:2:0:0:
83,88,25949,1,0,3:2:0:0:
193,300,26113,1,6,1:2:0:0:
237,70,26277,1,2,0:2:0:0:
55,246,26441,5,0,3:2:0:0:
252,38,26605,1,0,3:2:0:0:
341,298,26769,1,4,1:2:0:0:
327,212,27097,5,2,1:2:0:0:
435,49,27261,1,4,0:3:0:0:
168,92,27425,1,6,1:2:0:0:
341,298,27589,1,0,1:2:0:0:
358,384,27917,5,0,3:2:0:0:
433,50,28081,1,2,1:2:0:0:
111,157,28245,1,6,3:2:0:0:
93,240,28572,5,0,3:2:0:0:
411,137,28736,1,2,3:2:0:0:
50,100,28900,5,2,3:2:0:0:
463,269,29064,1,0,3:2:0:0:
29,184,29228,5,0,3:2:0:0:
474,189,29392,1,6,1:2:0:0:
263,362,29720,6,0,L|254:300,1,45,0|0,3:2|0:0,0:0:0:0:
397,218,29884,1,6,1:2:0:0:
397,218,30376,5,6,1:2:0:0:
411,137,30868,5,6,1:2:0:0:
256,192,30949,12,8,33327,0:3:0:0:
